#TITLE:愛すクリームとMyプリン;
#SUBTITLE:;
#ARTIST:美勇伝;
#TITLETRANSLIT:Aisu Kuriimu to My Purin;
#SUBTITLETRANSLIT:;
#ARTISTTRANSLIT:v-u-den;
#CREDIT:Xythar;
#BANNER:Aisu Kuriimu to My Purin BN.avi;
#BACKGROUND:Aisu Kuriimu to My Purin BG.png;
#LYRICSPATH:Aisu Kuriimu to My Purin.lrc;
#CDTITLE:CDTitle.png;
#MUSIC:Aisu Kuriimu to My Purin.mp3;
#OFFSET:-1.302;
#SAMPLESTART:50.800;
#SAMPLELENGTH:7.421;
#SELECTABLE:YES;
#BPMS:0.000=126.000;
#STOPS:;
#BGCHANGES:-0.533=Aisu Kuriimu to My Purin.avi=1.000=1=0=1,
99999=-nosongbg-=1.000=0=0=0 // don't automatically add -songbackground-
;

//---------------dance-single - ----------------
#NOTES:
     dance-single:
     Xythar:
     Hard:
     8:
     0.491,0.525,0.218,0.069,0.264: // measure 1
0000
0000
0000
0000
,  // measure 2
0000
0000
0000
0000
,  // measure 3
0000
0000
0000
0000
,  // measure 4
0001
0000
0000
0010
0000
0000
0100
0000
1000
0000
0000
0000
1001
0000
0000
0000
,  // measure 5
1000
0010
1000
0000
0001
0000
1000
0100
0000
0100
0000
1000
0001
0000
0100
0000
,  // measure 6
0010
0100
0010
0000
0100
0001
0100
0001
0000
0000
1000
0000
1100
0000
0000
0000
,  // measure 7
0010
0001
0010
0000
0100
0000
1000
0100
0000
0100
0000
1000
0001
0000
0100
0000
,  // measure 8
0010
0000
1000
0000
0001
1000
0001
0000
0000
0000
0000
0000
,  // measure 9
1000
0000
0010
0000
0100
0000
0010
0000
1000
0000
0000
1000
0000
0000
0100
0000
,  // measure 10
0000
0001
0100
0010
0001
0100
1000
0000
,  // measure 11
0100
0010
1001
0000
0010
0100
1001
0000
,  // measure 12
0010
0100
0001
0100
0010
0000
1100
0000
,  // measure 13
0001
0000
0010
0000
0100
0000
1000
0000
0010
0000
0000
0010
0000
0000
0100
0000
,  // measure 14
0000
1000
0100
0001
0010
0100
0010
0000
,  // measure 15
0001
1000
0110
0000
1000
0001
0110
0000
,  // measure 16
0001
0010
0001
0100
0020
0000
1000
0000
,  // measure 17
1030
0000
0100
0000
0100
1000
0000
0001
0000
0001
0000
0001
0100
0000
0010
0000
,  // measure 18
1000
0010
1000
0100
1000
0001
1000
0010
,  // measure 19
0100
0001
0010
0000
1000
0000
0010
0000
,  // measure 20
0001
0010
0001
0100
0001
1000
0001
0010
,  // measure 21
0002
0103
1000
0100
,  // measure 22
0100
1000
0100
0010
0100
0001
0010
1000
,  // measure 23
0010
0001
1000
0010
,  // measure 24
1000
0100
0100
1000
0001
1000
0010
0000
,  // measure 25
0100
0000
0001
1000
0100
1000
0001
0100
,  // measure 26
0010
0000
0000
1000
0000
0000
0001
0000
1001
0000
0000
0000
0100
0000
0000
0000
,  // measure 27
1000
0010
0100
1000
0100
0001
0010
0000
,  // measure 28
1000
0000
0010
0000
0001
0000
0000
1000
0000
0001
1000
0000
0001
0000
1000
0000
,  // measure 29
0010
0100
0001
0100
0010
0100
0001
0000
,  // measure 30
0010
0000
0000
0100
0000
0000
1000
0000
1001
0000
0000
0000
0110
0000
0000
0000
,  // measure 31
0001
0010
0100
0001
0100
1000
0010
0000
,  // measure 32
1000
0000
0100
0000
0001
0000
0000
0100
0000
0010
0100
0000
1000
0000
0001
0000
,  // measure 33
0100
1000
0100
0001
0010
1000
0010
0001
,  // measure 34
0100
0000
0000
0010
0000
0000
1000
0000
1001
0000
0000
0000
0001
0000
0000
0000
,  // measure 35
0200
0000
0000
0000
1000
0000
0000
1000
0000
2300
0000
0000
0100
0000
0100
0000
,  // measure 36
3200
0000
0000
0000
0010
0000
0000
0310
0000
0000
1000
0000
0001
0000
0000
0000
,  // measure 37
2000
0000
0000
0000
0100
0000
0000
0100
0000
3100
0000
0000
0010
0000
0001
0000
,  // measure 38
0010
0000
0000
0100
0000
0000
1000
0000
0001
0000
0000
0000
1001
0000
0000
0000
,  // measure 39
0100
0001
0100
0000
0010
0000
1000
0100
0000
0100
0000
1000
0010
0000
0100
0000
,  // measure 40
0001
0100
0001
0000
1000
0001
1000
0001
0000
0000
1000
0000
1100
0000
0000
0000
,  // measure 41
0010
1000
0010
0000
0100
0000
0001
1000
0000
1000
0000
0100
1000
0000
0010
0000
,  // measure 42
0100
0000
0000
0001
0000
0000
0010
0000
0100
0000
0000
0000
1001
0000
0000
0000
,  // measure 43
0101
0000
0000
1000
1100
0000
0000
0001
,  // measure 44
0101
1000
1100
0001
1001
0000
0000
0000
;

//---------------dance-single - ----------------
#NOTES:
     dance-single:
     Xythar:
     Easy:
     3:
     0.256,0.275,0.138,0.092,0.000:
0000
0000
0000
0000
,
0000
0000
0000
0000
,
0000
0000
0000
0000
,
1001
0000
0001
1000
,
0001
0010
0100
1000
,
0001
0100
0010
0000
,
1000
0100
0010
0001
,
1000
0000
1001
0000
,
0010
0100
0001
1000
,
0000
0100
1000
0010
,
0200
0001
0301
1000
,
0200
0010
0310
0001
,
1000
0010
0100
0010
,
0000
1000
0100
0010
,
0100
1000
0001
0100
,
1000
0100
0002
1000
,
1003
0000
0000
0000
,
0100
0010
0100
0010
,
0002
0000
0000
0000
,
1003
0010
1000
0010
,
0200
0000
0000
0000
,
0301
0010
0100
0010
,
0002
0000
0000
0000
,
1003
0010
0100
0010
,
0000
1000
0100
0010
,
0001
0000
1000
1001
,
0010
0100
0001
1000
,
0100
0100
0010
0001
,
1000
0010
0100
0010
,
1000
0000
0001
1001
,
1000
0010
0100
0001
,
1000
1000
0100
0100
,
0010
0001
0100
0010
,
1000
0000
0100
0110
,
0001
1000
0001
1000
,
0010
0100
0020
0000
,
1030
0100
0010
0001
,
1000
0000
0001
1001
,
1000
0010
0100
0001
,
0100
0010
2000
0100
,
3100
0010
0001
1000
,
0001
0000
1000
1001
,
1001
0000
0110
0000
,
1001
0110
1001
0000
;

//---------------dance-single - ----------------
#NOTES:
     dance-single:
     Xythar:
     Beginner:
     1:
     0.118,0.150,0.011,0.000,0.000:
0000
0000
0000
0000
,
0000
0000
0000
0000
,
0000
0000
0000
0000
,
1000
0000
0000
0000
,
0001
0000
0010
0000
,
0100
0000
0010
0000
,
0001
0000
0100
0000
,
0010
0000
1000
0000
,
0100
0000
1000
0000
,
0000
0000
0010
0000
,
0100
0000
0001
0000
,
0000
0000
1000
0000
,
0100
0000
1000
0000
,
0000
0000
0010
0000
,
0100
0000
0001
0000
,
0000
0000
1000
0000
,
0001
0000
0000
0000
,
1000
0000
0001
0000
,
0010
0000
0000
0000
,
0100
0000
1000
0000
,
0010
0000
0000
0000
,
0100
0000
0001
0000
,
1000
0000
0000
0000
,
0001
0000
0010
0000
,
0100
0000
0000
0000
,
1000
0000
0001
0000
,
1000
0000
0010
0000
,
0100
0100
0000
0000
,
0001
0000
1000
0000
,
0100
0100
0000
0000
,
1000
0000
0010
0000
,
0100
0000
0001
0001
,
0001
0000
1000
0000
,
0100
0000
0100
0000
,
0010
0000
0000
0000
,
0001
0000
0000
0000
,
1000
0000
0000
0000
,
0001
0000
0001
0000
,
1000
0000
0100
0000
,
1000
0000
0010
0000
,
0100
0000
0001
0000
,
1000
0000
0001
0000
,
1000
0000
0001
0000
,
1000
1000
1001
0000
;

//---------------dance-single - ----------------
#NOTES:
     dance-single:
     Xythar:
     Medium:
     6:
     0.369,0.350,0.126,0.080,0.000:
0000
0000
0000
0000
,
0000
0000
0000
0000
,
0000
0000
0000
0000
,
1000
0000
0000
0001
1000
0000
0001
0000
,
0100
0010
0100
0000
0001
1000
0001
0000
,
1000
0100
0010
0100
2000
0000
0010
0000
,
3010
0100
0001
0000
0100
0010
1000
0000
,
0001
1000
1001
0000
,
0001
0010
0100
0000
1000
0010
0100
0001
,
0000
1000
0100
1000
0010
0000
0100
0000
,
0001
1000
0100
0000
1000
0001
0100
0000
,
0010
1000
0001
0000
0010
0001
1000
0000
,
0010
0000
0100
0000
0001
1000
0100
1000
,
0000
0001
0100
0000
0010
1000
0001
0000
,
0010
0100
1000
0000
1000
0100
0010
0000
,
0100
1000
0002
0000
1000
0000
1003
0000
,
0020
0000
0100
0100
,
1030
0000
0100
0000
0010
0000
0001
1000
,
0010
1000
0001
0000
0000
0000
0000
0000
,
1000
0000
0010
0000
0100
0000
0001
1000
,
0200
0310
0000
0000
,
0001
0000
0100
0000
0010
0000
1000
0001
,
0100
0001
1000
0000
0000
0000
0000
0000
,
0100
0000
0010
0000
0001
1000
0100
1000
,
0000
0010
0100
0000
0001
1000
0000
0100
,
1000
0001
1001
0000
,
0010
0100
0001
0100
0010
0100
0001
0000
,
2000
0100
3100
1001
,
0010
1000
0001
1000
0010
1000
0001
0000
,
0010
1100
0010
0101
,
0010
1000
0001
1000
0100
1000
0010
0000
,
0100
0001
1000
0000
0100
0000
0010
0000
,
0100
1000
0001
1000
0010
0100
0010
0000
,
1000
0101
0010
1001
,
0010
0000
0100
0000
1000
0010
1000
0000
,
0001
0000
1000
0001
2000
0000
0100
0000
,
3100
0000
0010
0000
0001
1000
0001
0000
,
0010
0101
0010
1001
,
0100
0010
0001
0000
0001
0010
0100
0000
,
1000
0010
0100
0010
2000
0000
0100
0000
,
3100
1000
0010
0000
0100
0001
1000
0000
,
0100
0000
0010
0001
0010
0000
0100
0000
,
1001
0000
0000
0100
0001
0000
0000
1000
,
0100
1000
0001
1000
1001
0000
0000
0000
;
