#TITLE:愛のしるし;
#SUBTITLE:;
#ARTIST:PUFFY;
#TITLETRANSLIT:Ai no Shirushi;
#SUBTITLETRANSLIT:;
#ARTISTTRANSLIT:;
#CREDIT:Xythar;
#BANNER:Ai no Shirushi.png;
#BACKGROUND:Ai no Shirushi-bg.png;
#LYRICSPATH:Ai no Shirushi.lrc;
#CDTITLE:cdtitle.png;
#MUSIC:Ai no Shirushi.mp3;
#OFFSET:1.223;
#SAMPLESTART:7.997;
#SAMPLELENGTH:14.735;
#SELECTABLE:YES;
#BPMS:0.000=130.170;
#STOPS:;
#BGCHANGES:2.563=Ai no Shirushi.avi=1.000=1=1=0,
99999=-nosongbg-=1.000=0=0=0 // don't automatically add -songbackground-
;

//---------------dance-single - ----------------
#NOTES:
     dance-single:
     Xythar:
     Hard:
     6:
     0.380,0.372,0.111,0.192,0.000: // measure 1
0000
0000
0000
0000
,  // measure 2
1000
0001
1000
0001
,  // measure 3
1000
0001
1000
0001
,  // measure 4
1000
0001
1000
0001
,  // measure 5
1000
0001
1000
0001
,  // measure 6
1000
0000
0010
0000
0100
0001
0100
0001
,  // measure 7
1000
0000
0100
0000
0010
0001
0010
0001
,  // measure 8
1000
0000
0010
0100
0001
0000
1000
0100
,  // measure 9
1000
0001
0000
1001
0000
0000
0000
0000
,  // measure 10
0010
0000
0100
0000
0001
0010
0100
0010
,  // measure 11
0001
0000
1000
0000
0010
0100
0001
0100
,  // measure 12
0010
0000
1000
0100
0010
0000
0100
1000
,  // measure 13
0001
1000
0000
1001
0000
0000
0000
0000
,  // measure 14
0020
0100
0230
0001
,  // measure 15
0302
1000
0010
1003
,  // measure 16
0200
0000
0310
0001
2000
0000
3010
0100
,  // measure 17
0002
0010
1000
0103
,  // measure 18
0020
1000
0230
0010
,  // measure 19
0302
0100
1000
0013
,  // measure 20
0200
0000
1300
0001
0200
0000
0310
1000
,  // measure 21
0200
0001
0010
1300
,  // measure 22
0020
0000
0000
0100
0130
0000
1001
0000
,  // measure 23
0200
0000
0000
0010
0310
0000
1001
0000
,  // measure 24
0002
0000
0000
1000
1003
0000
0110
0000
,  // measure 25
2000
0000
0000
0001
3001
0000
0110
0000
,  // measure 26
2100
0000
3010
0000
0100
0001
0010
0000
,  // measure 27
0201
0000
0310
0000
1000
0100
0010
0000
,  // measure 28
2001
0010
0100
3001
,  // measure 29
1000
0010
0100
0001
1000
0100
1000
0001
,  // measure 30
0100
0000
0001
0000
0010
0001
0100
0001
,  // measure 31
1000
0000
0010
0000
0100
0001
1000
0001
,  // measure 32
0010
0000
0100
1000
0001
0000
0100
0010
,  // measure 33
0100
0001
0000
1001
0000
0000
0000
0000
,  // measure 34
1000
0001
1000
0001
,  // measure 35
1000
0001
1000
0001
,  // measure 36
1000
0001
1000
0001
,  // measure 37
1000
0001
1000
0001
,  // measure 38
1000
0100
1000
0001
0000
0100
0010
0100
,  // measure 39
0001
0010
0000
0100
0000
0000
1000
0000
,  // measure 40
1000
0010
0100
0010
1000
0100
0010
0001
,  // measure 41
0100
0010
0000
1000
0000
0100
0010
0000
,  // measure 42
0001
0100
0010
1000
0000
0100
0010
0001
,  // measure 43
0010
0100
0000
1000
0000
0000
0001
0000
,  // measure 44
0001
0010
0100
0010
0001
0100
0010
0100
,  // measure 45
0001
1000
0000
1001
0000
0000
0010
0000
,  // measure 46
1000
0001
1000
0001
,  // measure 47
1000
0001
1000
0001
,  // measure 48
1000
0001
1000
0001
,  // measure 49
1000
0001
1000
0001
,  // measure 50
1000
0000
0000
0000
;

//---------------dance-single - ----------------
#NOTES:
     dance-single:
     Xythar:
     Medium:
     5:
     0.335,0.347,0.081,0.132,0.000: // measure 1
0000
0000
0000
0000
,  // measure 2
1000
0001
1000
0001
,  // measure 3
1000
0001
1000
0001
,  // measure 4
1000
0001
1000
0001
,  // measure 5
1000
0001
1000
0001
,  // measure 6
1000
0000
0100
0000
0010
0001
0010
0000
,  // measure 7
0100
0000
1000
0000
0010
1000
0010
0000
,  // measure 8
0100
0001
1000
0100
,  // measure 9
1000
0001
0000
1001
0000
0000
0000
0000
,  // measure 10
0100
0000
1000
0000
0001
0100
0001
0000
,  // measure 11
1000
0000
0100
0000
0010
0001
0010
0000
,  // measure 12
0001
1000
0100
1000
,  // measure 13
0001
1000
0000
1001
0000
0000
0000
0000
,  // measure 14
0200
1000
2300
0100
,  // measure 15
3200
0010
0001
0310
,  // measure 16
0100
0000
1000
0100
1000
0000
0001
0100
,  // measure 17
0002
1000
0100
1003
,  // measure 18
0020
0100
0230
0001
,  // measure 19
0302
0010
1000
0013
,  // measure 20
0100
0000
1000
0010
1000
0000
0001
0010
,  // measure 21
0002
1000
0100
1003
,  // measure 22
0010
0000
0000
0100
0001
0000
1100
0000
,  // measure 23
0010
0000
0000
0100
1000
0000
0101
0000
,  // measure 24
1000
0000
0000
0100
0010
0000
1001
0000
,  // measure 25
0100
0000
0000
1000
0001
0000
0110
0000
,  // measure 26
2000
0100
3002
0010
,  // measure 27
0203
0010
0302
0010
,  // measure 28
2003
0100
0001
3100
,  // measure 29
0001
0100
0001
1000
0100
1000
0001
1000
,  // measure 30
0001
0000
0010
0000
0100
1000
0100
0000
,  // measure 31
1000
0000
0010
0000
0100
0001
0100
0000
,  // measure 32
0010
1000
0001
1000
,  // measure 33
0010
0100
0000
1001
0000
0000
0000
0000
,  // measure 34
1000
0001
1000
0001
,  // measure 35
1000
0001
1000
0001
,  // measure 36
1000
0001
1000
0001
,  // measure 37
1000
0001
1000
0001
,  // measure 38
1000
0000
0010
0100
0000
0001
0100
0001
,  // measure 39
1000
0000
0000
0100
0000
0000
0010
0000
,  // measure 40
0001
0001
0100
0100
,  // measure 41
0010
1000
0000
0001
0000
0000
1000
0000
,  // measure 42
0100
1000
0100
1000
0000
0010
0100
0010
,  // measure 43
0100
0001
0000
1000
0000
0000
0100
0000
,  // measure 44
0010
0001
0010
0001
1000
0010
1000
0010
,  // measure 45
1000
0001
0000
1001
0000
0000
0000
0000
,  // measure 46
1000
0001
1000
0001
,  // measure 47
1000
0001
1000
0001
,  // measure 48
1000
0001
1000
0001
,  // measure 49
1000
0001
1000
0001
,  // measure 50
1000
0000
0000
0000
;

//---------------dance-single - ----------------
#NOTES:
     dance-single:
     Xythar:
     Easy:
     3:
     0.246,0.223,0.061,0.192,0.000: // measure 1
0000
0000
0000
0000
,  // measure 2
1000
0001
1000
0001
,  // measure 3
1000
0001
1000
0001
,  // measure 4
1000
0001
1000
0001
,  // measure 5
1000
0001
1000
0001
,  // measure 6
1000
0010
0100
0001
,  // measure 7
2000
0000
0000
3100
0000
0000
0000
0000
,  // measure 8
0010
0001
0010
0001
,  // measure 9
0200
0000
0000
0310
0000
0000
0000
0000
,  // measure 10
1000
0100
1000
0001
,  // measure 11
2000
0000
0000
3010
0000
0000
0000
0000
,  // measure 12
0100
0001
0100
0010
,  // measure 13
2000
0000
0000
3001
0000
0000
0000
0000
,  // measure 14
2000
0000
3200
0000
,  // measure 15
0320
0000
0000
0030
,  // measure 16
0001
0100
0010
0100
,  // measure 17
0002
0000
0000
0003
,  // measure 18
2000
0000
3020
0000
,  // measure 19
0230
0000
0000
0300
,  // measure 20
0001
0010
0100
1000
,  // measure 21
0002
0000
0000
0003
,  // measure 22
1000
0000
0001
1001
,  // measure 23
0100
0000
0010
0110
,  // measure 24
0100
0000
1000
1001
,  // measure 25
0010
0000
0100
0110
,  // measure 26
0200
0000
0302
0000
,  // measure 27
2003
0000
3200
0000
,  // measure 28
0320
0000
0000
0000
,  // measure 29
0031
0100
0001
1000
,  // measure 30
0100
0010
0100
0010
,  // measure 31
0002
0000
0000
0103
0000
0000
0000
0000
,  // measure 32
0010
1000
0100
1000
,  // measure 33
0020
0000
0000
0130
0000
0000
0000
0000
,  // measure 34
1000
0001
1000
0001
,  // measure 35
1000
0001
1000
0001
,  // measure 36
1000
0001
1000
0001
,  // measure 37
1000
0001
1000
0001
,  // measure 38
1000
0000
0000
0010
0000
0000
0100
0000
,  // measure 39
0001
0000
0000
1000
0000
0000
0100
0000
,  // measure 40
1000
0010
1000
0100
,  // measure 41
1000
0000
0000
0001
0000
0000
0000
0000
,  // measure 42
0010
0000
0000
0100
0000
0000
1000
0000
,  // measure 43
0001
0000
0000
0100
0000
0000
0000
0000
,  // measure 44
0010
1000
0001
1000
,  // measure 45
1001
0000
0000
1001
0000
0000
0000
0000
,  // measure 46
1000
0001
1000
0001
,  // measure 47
1000
0001
1000
0001
,  // measure 48
1000
0001
1000
0001
,  // measure 49
1000
0001
1000
0001
,  // measure 50
1000
0000
0000
0000
;
