#TITLE:future gazer;
#SUBTITLE:;
#ARTIST:fripSide;
#TITLETRANSLIT:;
#SUBTITLETRANSLIT:;
#ARTISTTRANSLIT:;
#CREDIT:;
#BANNER:future gazer.png;
#BACKGROUND:future_gazer_bg.png;
#LYRICSPATH:;
#CDTITLE:CD_Title.png;
#MUSIC:future gazer.mp3;
#OFFSET:1.180;
#SAMPLESTART:61.188;
#SAMPLELENGTH:15.000;
#SELECTABLE:YES;
#BPMS:0.000=138.000;
#STOPS:;
#BGCHANGES:;

//---------------dance-single - ----------------
#NOTES:
     dance-single:
     :
     Easy:
     5:
     0.333,0.377,0.137,0.215,0.054:
0000
0000
0000
0000
,
0000
0000
0000
0000
,
0000
0000
0000
0000
,
0000
0000
0000
0000
,
0000
0000
0000
0000
,
0001
0000
1000
0000
0010
0100
0010
0000
,
1000
0000
0001
0000
0100
0010
0100
0000
,
0110
0000
1001
0000
,
0110
1000
0001
0000
,
1000
0000
0000
0100
0000
0000
0010
0000
0002
0000
0000
0000
0103
0000
0000
0000
,
0001
0000
0000
0010
0000
0000
0100
0000
2000
0000
0000
0000
3010
0000
0000
0000
,
0100
0010
0100
0010
0100
0000
0010
0000
,
1000
0002
1003
0000
,
0001
0000
0000
0010
0000
0000
0100
0000
2000
0000
0000
0000
3010
0000
0000
0000
,
1000
0000
0000
0100
0000
0000
0010
0000
0002
0000
0000
0000
0103
0000
0000
0000
,
0110
0010
1001
1000
,
0110
0000
0100
0000
1000
0001
1000
0001
,
1000
0000
0000
0002
0000
0000
0000
0000
0000
0000
0000
0000
0000
0000
0000
0000
,
0200
0000
0000
0003
0000
0000
0000
0000
0000
0000
0000
0000
0000
0000
0000
0000
,
0320
0000
0100
0130
,
0200
0000
0001
0301
,
0020
0000
0230
0000
,
1300
0001
1000
0000
,
0001
0000
1000
0001
1000
0000
0001
0000
,
0100
0000
0010
0100
0010
0000
0100
0000
,
0010
0000
0010
0000
1000
0001
1000
0001
,
1000
0000
0001
0000
2000
0000
0000
3000
,
0002
0000
1003
0001
,
0100
0000
0010
0100
0010
0000
1000
0001
,
1000
0000
0001
0000
0100
0010
0100
0010
,
0100
0001
1000
0000
,
0001
0000
0100
0000
0110
0000
0000
1000
,
0010
0100
0110
0001
,
1001
0000
0000
1000
0001
0000
0100
0000
,
0001
1000
0010
0000
,
0220
0000
0000
0000
0000
0000
0000
0330
,
0010
0000
0000
1000
0000
0000
0100
0000
0020
0000
0000
0000
0130
0000
0000
0000
,
1000
0000
0000
0010
0000
0000
0100
0000
0002
0000
0000
0000
1003
0000
0000
0000
,
0001
0000
1000
0000
0001
0000
1000
0000
0001
0000
0000
1000
0000
0000
0001
0000
,
1000
0010
0100
0000
,
0001
0000
0000
1000
0000
0000
0010
0000
0200
0000
0000
0000
0301
0000
0000
0000
,
1000
0000
0000
0001
0000
0000
0100
0000
0020
0000
0000
0000
1030
0000
0000
0000
,
1001
0000
1100
0000
,
0011
0000
0000
0000
1000
0001
1000
0001
,
0100
0000
0010
0000
1000
0001
1000
0000
,
0001
0000
0100
0000
0010
0100
0010
0000
,
1000
0001
1000
0001
1000
0000
0010
0000
,
0100
0000
0010
0100
0010
0000
0000
0000
,
1000
0000
0010
0000
0100
0001
0100
0001
,
0100
0000
0001
0000
1000
0010
1000
0010
,
1000
0000
0001
0000
,
0100
0000
0100
0000
0010
0100
0010
0100
,
0010
0000
0000
0200
0000
0000
0000
0000
0000
0000
0000
0000
0310
0000
0000
0000
,
2002
0000
0000
0000
,
0000
0000
0000
0000
,
3003
0000
0000
0000
;

//---------------dance-single - ----------------
#NOTES:
     dance-single:
     :
     Hard:
     9:
     0.633,0.672,0.205,0.088,0.469:
0000
0000
0000
0000
,
0000
0000
0000
0000
,
0000
0000
0000
0000
,
0000
0000
0000
0000
,
0000
0000
0000
0000
,
1000
0000
0000
0000
0010
0000
0100
0001
0100
0001
1000
0000
0100
0000
0000
0000
,
1000
0000
0000
0000
0001
0000
0010
0001
0010
0001
1000
0000
0010
0000
0100
0000
,
0110
0000
0000
1000
1001
0000
0000
0010
,
0110
0000
0000
0010
0000
0000
1000
0000
0100
0000
0100
0000
1000
0000
0010
0000
,
0100
0000
0001
0010
0001
0000
0100
0000
0010
1000
0010
0000
1000
0000
0100
0010
,
0001
0000
0010
0001
0010
0000
0001
0000
0100
0010
0100
0000
0010
0000
1000
0100
,
0010
0000
0001
0000
0010
0000
0100
0000
0010
0001
0000
0100
0000
0000
0010
0000
,
0110
0000
0000
0010
0000
0000
1000
0000
0100
0000
0010
0000
0010
0000
0100
0000
,
1000
0000
0001
0100
0001
0000
1000
0000
0010
1000
0010
0000
1000
0000
0100
0010
,
0001
0000
0100
0001
0100
0000
0010
0000
1000
0100
1000
0000
0010
0000
0100
0000
,
0001
0000
0100
0010
0100
0000
0000
0000
1000
0000
0010
0100
0010
0000
0000
0000
,
0100
0000
0001
0010
0001
0000
0100
0000
0110
0000
0010
0000
1000
0000
0100
0000
,
0100
0000
1000
0020
0000
0000
0000
0000
0100
0000
0000
0000
0001
0000
0000
0000
,
0130
0000
0100
0000
0010
0000
0010
0000
1000
0100
1000
0001
0100
0001
1000
0001
,
0200
0000
0010
0010
0310
0000
1000
0000
,
0002
0000
0010
0010
0013
0000
0001
0000
,
1000
0000
0100
0000
0010
0001
0100
0001
,
0010
0100
1100
1001
,
0001
0000
1000
0100
1000
0000
0001
0000
1000
0100
1000
0000
0001
0000
0100
0000
,
0010
0000
1000
0001
1000
0000
0010
0000
1000
0001
1000
0000
0010
0000
0100
0000
,
0010
0000
0100
0001
0100
0000
0001
0000
1000
0000
0100
1000
0100
0000
1000
0000
,
0001
0010
0100
1000
0001
0011
0011
0000
,
1000
0000
0000
0000
0100
0000
0000
0000
1000
0000
0000
0001
0000
0000
0010
0000
,
0011
0000
0000
0001
0000
0000
1000
0000
1100
0000
0000
0000
1010
0000
1000
0000
,
0002
0000
0023
0000
1030
0010
0001
0100
,
0010
0000
0000
1000
0000
0000
0100
0000
0010
0000
0011
0000
1001
0000
0000
0000
,
1100
0000
0100
0000
1000
0000
0010
0000
0001
0000
0010
0000
0100
0000
0001
0010
,
0100
0000
0010
0000
1000
0000
0100
0000
0001
0000
0100
0000
0010
0000
0001
0100
,
2000
0000
0000
0000
3100
0000
0010
1000
0100
0000
0010
0000
0001
0000
0100
0000
,
0101
0001
1000
0100
1100
1000
0001
0010
,
0100
0010
0000
0010
0001
0000
0001
0100
0000
0100
0010
0000
0010
1000
0100
1000
,
0010
0000
0100
0001
0100
0000
0001
0000
0100
0001
0100
0000
0010
0000
1000
0000
,
0100
0000
1000
0100
1000
0000
0100
0000
1000
0100
1000
0000
0010
0000
0100
0000
,
0001
0000
0010
0001
0010
0000
0100
0000
1000
0010
0000
0100
0000
0000
0001
0000
,
0010
0000
0001
0100
0010
0000
1000
0000
0100
1000
0100
0000
1100
0000
0000
0000
,
1000
0000
0010
0100
0010
0000
0100
0000
0001
0010
0001
0000
0100
0001
0100
0000
,
0001
0000
1000
0100
1000
0000
0010
0000
0100
0001
0100
0000
0001
0000
0010
0000
,
0011
0000
0001
1000
0000
0000
0100
0000
1100
0000
1000
0001
0000
0000
0010
0000
,
0011
0000
0001
0100
0000
0010
1000
0000
0100
0010
0100
0000
0010
0000
0001
0100
,
0001
0000
1000
0100
1000
0000
0001
0010
0001
0010
0100
0000
1000
0000
0010
0100
,
0010
0000
1000
0001
1000
0000
0010
0100
0010
0100
0001
0000
1000
0000
0010
0100
,
0010
0000
1000
0100
1000
0000
0001
0010
0100
1000
0100
0010
0001
0000
0100
0000
,
0010
1000
0100
1000
0000
0100
1000
0020
0000
0000
0130
0000
0100
0000
0001
0000
,
1000
0000
0100
1000
0100
0000
1000
0010
1000
0010
0100
0000
0010
0000
0100
0000
,
0001
0000
0010
0001
0010
0000
0001
0100
0001
0100
0010
0000
1000
0000
0100
0000
,
1000
0000
0010
0100
0010
0000
0000
0000
0001
0000
0100
0010
0100
0000
0000
0000
,
1000
0000
0010
0100
0010
0000
0100
0000
0001
0000
0010
0000
0100
0000
1000
0000
,
0010
0000
0100
0001
0000
0100
0010
0000
1000
0010
1000
0010
0100
0001
0100
0002
,
2000
0000
0000
0000
,
0000
0000
0000
0000
,
3003
0000
0000
0000
;

//---------------dance-single - Copied from----------------
#NOTES:
     dance-single:
     Copied from:
     Challenge:
     10:
     0.780,0.780,0.675,0.372,0.704:
0000
0000
0000
0000
,
0000
0000
0000
0000
,
0000
0000
0000
0000
,
0000
0000
0000
0000
,
0000
0000
0000
0000
,
0101
0000
0000
0000
1001
0000
1000
0010
1000
0001
0100
0000
0101
0000
0000
0000
,
1001
0000
0000
0000
1010
0000
0010
1000
0010
0100
0001
0000
0101
0000
0001
1000
,
2001
0000
0000
0000
0000
3000
1100
0000
0120
0000
0000
0000
0000
0030
0011
0000
,
0201
0000
0000
1000
0000
0000
0001
0000
0320
0000
0100
0000
0130
0000
0001
0000
,
0011
0000
0001
1000
0000
0100
1000
0000
0010
0100
0010
0000
0101
0000
0001
1000
,
0100
0000
1000
0010
0000
1000
0001
0000
0010
0001
0100
0000
0010
1000
0010
1000
,
0100
0000
0110
0000
0011
0000
0101
0000
0001
0100
0000
0110
0000
0010
1000
0000
,
0100
1000
0000
0110
0000
0010
0100
0001
0000
0010
0100
1000
0010
0000
0100
0001
,
0010
0000
0010
0001
0100
0000
0010
1000
0100
1000
0010
0000
0100
0000
0001
1000
,
0100
0000
0100
1000
0001
0000
0010
0001
0100
0001
0010
0000
0001
0000
1000
0100
,
1100
0000
1000
1002
0000
0000
0000
0003
0001
0000
0100
0120
0000
0000
0000
0030
,
0110
0000
1000
1002
0000
0000
0100
0003
0101
0000
0001
0000
1000
0000
0010
0000
,
0110
0000
0001
2001
0000
0000
0001
0000
0001
0000
0010
0000
0001
0000
3100
0000
,
0010
0001
0100
0001
0010
0100
1000
0010
1000
0100
0010
0001
0100
0001
0010
0100
,
2000
0010
0010
0001
3200
0000
0010
1000
,
0320
0001
0001
0100
0032
0000
1000
0013
,
0200
0000
2300
0000
3010
0001
0100
1000
,
0020
0000
0000
0001
0000
0000
0100
0000
2030
0000
0000
0000
3200
0000
0000
0300
,
0110
0000
0001
0000
0100
0000
0010
1000
0100
1000
0010
0000
0100
0000
0001
0010
,
0011
0000
1000
0000
0010
0000
0100
0001
0010
0001
0100
0000
0110
0000
1000
0010
,
1020
0000
0032
0000
0103
1000
0010
0001
,
0200
0000
0000
1000
0000
0000
0010
0000
0302
0000
0000
0000
0203
0000
0000
0300
,
0110
0000
0MM0
0000
0000
0000
0000
0000
1020
0000
0000
0001
0000
0000
0130
0000
,
0210
0000
0000
1000
0000
0000
0310
0000
1200
0000
0000
0000
0001
0000
0310
0000
,
0120
0000
0032
0000
0103
1000
0010
0001
,
0200
0000
0000
1000
0000
0000
0010
0000
0302
0000
0000
0000
0023
0000
0000
0030
,
0011
0000
0000
1010
0000
0000
1100
0000
0100
1000
0010
0000
0110
0000
0100
0001
,
0010
0000
0000
0011
0000
0000
0101
0000
0001
1000
0100
0000
1100
0000
0100
1000
,
0002
0000
1000
0000
0013
0000
1000
0010
0100
0000
0010
0200
0000
0000
0301
0000
,
1001
0000
0010
0001
0000
1000
0010
0000
0110
0000
1010
0000
1000
0001
0010
0100
,
1000
0100
0000
0010
0001
0000
0100
0010
1000
0010
0100
0000
0010
0100
0001
0010
,
0011
0000
0001
1000
0000
0100
1000
0000
0010
0100
0010
0000
0101
0000
0001
1000
,
0100
0000
1000
0010
0000
1000
0001
0000
0010
0001
0100
0000
0010
1000
0010
1000
,
0100
0000
0110
0000
0011
0000
0101
0000
0001
0100
0000
0110
0000
0010
1000
0000
,
0100
1000
0000
0110
0000
0010
0100
0001
0000
0010
0100
1000
0010
0000
0100
0001
,
0010
0000
0010
0001
0100
0000
0010
1000
0100
1000
0010
0000
0100
0000
0001
1000
,
0100
0000
0100
1000
0001
0000
0010
0001
0100
0001
0010
0000
0001
0000
1000
0100
,
1100
0000
1000
1002
0000
0000
0000
0003
0001
0000
0100
0120
0000
0000
0000
0030
,
0110
0000
1000
1002
0000
0000
0100
0003
0101
0000
0001
0000
1000
0010
0100
0001
,
0010
0100
0000
1000
0010
0000
0010
0100
0001
0010
0100
0000
1100
0000
0100
1000
,
0010
0100
0000
0001
0010
0000
0100
1000
0010
1000
0100
0000
1100
0000
1000
0001
,
0010
0001
0100
0000
0010
1000
0100
0000
0100
1000
0010
0100
0000
0001
0010
0000
,
0100
1000
0010
0100
0000
0001
0010
0200
0000
1000
1300
0100
1000
0000
0010
0100
,
0101
0000
0001
1000
0100
0000
0100
1000
0010
1000
0100
0000
1000
0000
1000
0010
,
0100
0000
0100
0001
0010
0000
0010
0001
0100
0001
0010
0000
0001
0000
1000
0000
,
1001
0000
0001
0101
0000
0000
0100
0000
0110
0000
0010
1010
0000
0000
1000
0000
,
1100
0000
0100
0110
0000
0000
0010
0000
0001
0000
0100
0000
0001
0000
0010
0000
,
0100
0000
1000
1100
0000
0001
1001
0000
1000
0010
0100
0001
0010
0100
1000
0020
,
0200
0000
0000
0000
,
0000
0000
0000
0000
,
0330
0000
0000
0000
;

//---------------dance-single - Copied from----------------
#NOTES:
     dance-single:
     Copied from:
     Medium:
     7:
     0.476,0.511,0.098,0.421,0.015:
0000
0000
0000
0000
,
0000
0000
0000
0000
,
0000
0000
0000
0000
,
0000
0000
0000
0000
,
0000
0000
0000
0000
,
0001
0000
0100
0010
1000
0001
0100
0000
,
1000
0000
0001
0100
0010
1000
0001
0000
,
0200
0000
0000
0310
0120
0000
0000
1030
,
1001
0000
0001
0000
0100
0000
0000
0100
,
0010
1000
0100
0010
0002
0000
0103
0000
,
0001
0010
0100
1000
0020
0000
0130
0000
,
0010
1000
0010
1000
0001
0010
0100
1000
,
0020
0000
0130
0001
0100
0000
0001
0000
,
1000
0100
0010
0001
0200
0000
0310
0000
,
0100
0001
0010
0100
2000
0000
3010
1000
,
1001
0001
0100
0000
0110
0010
1000
0000
,
1001
1000
0001
0100
0110
0010
1000
0100
,
0010
0001
0200
0000
0000
0000
0000
0000
,
0320
0100
0100
0100
,
2030
0000
0001
3001
,
0020
0000
0100
0130
,
0002
1003
2000
3100
,
0100
0010
0001
0100
2000
0000
3100
0000
,
0100
0010
1000
0100
0002
0000
0103
0010
,
0001
0100
1000
0100
0020
0000
1030
0100
,
0002
0103
2000
3010
,
0100
0001
0100
0001
0010
0100
1000
0000
,
0020
0130
0200
0301
,
0001
1000
0100
1000
0001
0000
1000
0010
,
0200
0301
0200
1300
,
0100
0001
0100
0001
1000
0100
0010
0000
,
0002
0000
0103
0000
0001
1000
0100
1000
,
0020
0000
0130
0000
0010
0100
0001
0100
,
0002
0013
0200
1300
,
0020
0000
0130
0000
0010
1000
0001
1000
,
0002
0000
0000
0000
0010
0000
0000
0000
0000
0000
0000
0000
0010
0000
0000
0000
0000
0000
0000
0000
0000
0010
0000
0000
0000
0000
0000
0000
0000
0000
0010
0000
0000
0000
0000
0000
0010
0000
0000
0000
0000
0000
0013
0000
0000
0000
0000
0000
,
0001
0100
0010
1000
0200
0000
1300
0000
,
0010
1000
0010
0100
0002
0000
0013
0000
,
0001
0100
0001
0100
0010
1000
0100
0010
,
0002
0000
0103
0001
0100
0000
0001
0000
,
1000
0010
0100
0001
0020
0000
0031
0000
,
0001
0100
0010
1000
0200
0000
1300
0001
,
1001
1000
0100
0000
0110
0010
0001
0000
,
1001
0001
1000
0100
0110
0010
0001
0000
,
1000
0010
1000
0010
0100
0001
0020
0000
,
0031
0100
0001
0100
0010
1000
0200
0000
,
1300
0010
1000
0010
0100
0001
0010
0100
,
1000
0100
1000
0010
0200
0001
0301
0000
,
0001
0100
0001
0100
0010
1000
0200
0000
,
1300
0010
1000
0010
0100
0001
0010
0100
,
2000
0010
3010
0000
0002
0010
0013
0000
,
2000
0010
3010
0001
0020
0100
0130
0010
,
0001
0000
1000
0001
0000
0000
0000
0000
0100
0000
0100
0000
0010
0000
2000
0000
,
0002
0000
0000
0000
,
0000
0000
0000
0000
,
3003
0000
0000
0000
;

//---------------dance-single - Copied from----------------
#NOTES:
     dance-single:
     Copied from:
     Beginner:
     2:
     0.194,0.233,0.068,0.000,0.000:
0000
0000
0000
0000
,
0000
0000
0000
0000
,
0000
0000
0000
0000
,
0000
0000
0000
0000
,
0000
0000
0000
0000
,
0001
0001
0001
0000
,
1000
1000
1000
0000
,
0010
0000
0100
0000
,
0010
0010
0010
0000
,
1000
0001
1000
0000
,
0001
1000
0001
0000
,
0100
0100
0010
0010
,
0100
0010
0110
0000
,
1000
0010
1000
0000
,
0001
0010
0001
0001
,
1000
0000
0001
0000
,
0100
0100
0010
1000
,
0001
0000
0000
0000
,
1000
0000
0000
0000
,
0110
0000
0000
0000
,
0000
0000
0000
0000
,
1001
0000
0000
0000
,
0001
0001
1000
0000
,
0001
1000
0001
0000
,
1000
0001
1000
1000
,
0010
0000
0100
0000
,
0010
0100
0110
0000
,
1000
0000
1000
0000
,
0001
0100
0001
0001
,
1000
0000
1000
0000
,
0010
0100
0001
0001
,
0100
0000
0010
0000
,
1000
0000
0001
1000
,
0001
0000
0100
0100
,
0010
0000
1000
0000
,
1001
0000
0000
0000
,
0001
0100
0001
0000
,
1000
0100
1000
0000
,
0010
0010
0100
0100
,
0010
0100
0110
0000
,
1000
0100
1000
0000
,
0001
0100
0001
0001
,
1000
0000
0010
0000
,
0100
0000
0001
0001
,
1000
0001
0100
0000
,
0001
1000
0100
0000
,
1000
0001
1000
0001
,
0010
0100
1100
0000
,
0010
1000
0100
0000
,
0010
0001
0100
0001
,
0010
0000
0100
0000
,
1000
0010
0001
0100
,
1000
0000
0000
0000
,
0001
0000
0000
0000
;
