#TITLE:ΔMAX;
#SUBTITLE:Shock Special;
#ARTIST:DM Ashura;
#TITLETRANSLIT:deltaMAX;
#SUBTITLETRANSLIT:;
#ARTISTTRANSLIT:;
#CREDIT:;
#BANNER:deltaMAX.png;
#BACKGROUND:deltaMAX-bg.png;
#LYRICSPATH:;
#CDTITLE:./CDTITLES/DanceDanceRevolution UNIVERSE3.png;
#MUSIC:deltaMAX (GilvaSunner Edition).mp3;
#OFFSET:1.631;
#SAMPLESTART:39.660;
#SAMPLELENGTH:20.000;
#SELECTABLE:YES;
#DISPLAYBPM:100.000:573.000;
#BPMS:0.000=100.000,4.000=100.000,20.000=101.124,21.000=102.273,22.000=102.273,23.000=104.651,24.000=104.651,25.000=105.882,26.000=107.143,27.000=108.434,28.000=108.434,29.000=109.756,30.000=111.111,31.000=112.500,32.000=112.500,33.000=113.924,34.000=115.385,35.000=115.385,36.000=116.883,37.000=118.421,38.000=120.000,39.000=120.000,40.000=120.000,41.000=121.622,42.000=123.288,43.000=125.000,44.000=125.000,46.000=126.761,47.000=128.571,49.000=130.435,51.000=132.353,52.000=134.328,53.000=134.328,55.000=136.364,57.000=138.462,59.000=140.625,62.000=142.857,63.000=145.161,66.000=147.541,68.000=150.000,71.000=152.542,73.000=155.172,76.000=157.895,79.000=160.714,82.000=163.636,84.000=166.667,85.000=163.636,86.000=169.811,87.000=166.667,88.000=169.811,91.000=173.077,94.000=176.471,98.000=180.000,101.000=183.673,105.000=187.500,106.000=183.673,107.000=191.489,108.000=187.500,109.000=191.489,110.000=187.500,111.000=195.652,112.000=191.489,113.000=195.652,114.000=191.489,115.000=195.652,116.000=200.000,117.000=195.652,118.000=200.000,121.000=204.545,122.000=200.000,123.000=204.545,125.000=209.302,126.000=204.545,127.000=209.302,131.000=214.286,136.000=219.512,137.000=214.286,138.000=219.512,140.000=225.000,141.000=219.512,142.000=225.000,147.000=230.769,148.000=225.000,149.000=230.769,152.000=236.842,153.000=230.769,154.000=236.842,159.000=243.243,161.000=236.842,162.000=243.243,163.000=250.000,164.000=243.243,166.000=250.000,167.000=243.243,168.000=250.000,171.000=257.143,172.000=250.000,173.000=257.143,174.000=250.000,175.000=257.143,178.000=264.706,179.000=257.143,180.000=264.706,181.000=257.143,182.000=264.706,187.000=272.727,188.000=264.706,189.000=272.727,195.000=281.250,196.000=272.727,197.000=281.250,198.000=272.727,199.000=281.250,202.000=290.323,203.000=281.250,205.000=290.323,206.000=281.250,207.000=290.323,212.000=300.000,213.000=290.323,215.000=300.000,218.000=290.323,219.000=300.000,220.000=310.345,221.000=300.000,224.000=310.345,225.000=300.000,226.000=310.345,233.000=321.429,234.000=310.345,235.000=321.429,236.000=310.345,237.000=321.429,239.000=321.429,240.000=310.345,241.000=333.333,242.000=321.429,245.000=333.333,246.000=321.429,247.000=333.333,248.000=321.429,249.000=333.333,257.000=346.154,258.000=333.333,259.000=346.154,260.000=333.333,261.000=346.154,270.000=360.000,271.000=346.154,272.000=360.000,273.000=346.154,274.000=360.000,275.000=346.154,276.000=360.000,283.000=375.000,284.000=360.000,286.000=375.000,287.000=360.000,288.000=375.000,291.000=360.000,292.000=375.000,297.000=391.304,298.000=375.000,301.000=391.304,302.000=375.000,303.000=391.304,305.000=375.000,306.000=391.304,316.000=409.091,317.000=391.304,318.000=409.091,319.000=391.304,320.000=409.091,321.000=391.304,322.000=409.091,324.000=391.304,325.000=409.091,332.000=428.571,333.000=409.091,336.000=428.571,337.000=409.091,338.000=428.571,339.000=409.091,340.000=428.571,342.000=409.091,343.000=428.571,353.000=450.000,354.000=428.571,356.000=450.000,357.000=428.571,358.000=450.000,359.000=428.571,360.000=450.000,361.000=428.571,362.000=450.000,366.000=428.571,367.000=450.000,372.000=473.684,373.000=450.000,377.000=473.684,378.000=450.000,379.000=473.684,380.000=450.000,381.000=473.684,382.000=450.000,383.000=473.684,384.000=450.000,385.000=473.684,388.000=450.000,389.000=473.684,397.000=500.000,398.000=473.684,401.000=500.000,402.000=473.684,404.000=500.000,405.000=473.684,406.000=500.000,407.000=473.684,408.000=500.000,410.000=473.684,411.000=500.000,414.000=473.684,415.000=500.000,424.000=529.412,425.000=500.000,428.000=529.412,429.000=500.000,431.000=529.412,432.000=500.000,433.000=529.412,434.000=500.000,435.000=529.412,436.000=500.000,437.000=529.412,439.000=500.000,440.000=529.412,443.000=500.000,444.000=529.412,454.000=562.500,455.000=529.412,458.000=562.500,459.000=529.412,461.000=562.500,462.000=529.412,463.000=562.500,464.000=529.412,465.000=562.500,466.000=529.412,467.000=562.500,468.000=529.412,469.000=562.500,471.000=529.412,472.000=562.500,475.000=529.412,476.000=562.500,488.000=600.000,489.000=562.500,490.000=562.500,491.000=562.500,492.000=573.451;
#STOPS:;
#BGCHANGES:;

//---------------dance-single - ----------------
#NOTES:
     dance-single:
     :
     Hard:
     9:
     0.192,0.266,0.134,0.016,0.000:
0000
0000
0000
0000
,
0000
0000
0000
0000
,
0000
0000
0000
0000
,
0000
0000
0000
0000
,
0000
0000
0000
0000
0000
0000
0000
MMMM
,
0001
MMMM
0000
MMMM
1000
MMMM
0000
MMMM
,
0001
MMMM
0000
MMMM
1000
MMMM
0000
MMMM
,
0010
MMMM
0000
MMMM
0100
MMMM
0000
MMMM
,
0010
MMMM
0000
MMMM
0100
MMMM
0000
MMMM
,
0001
MMMM
0000
MMMM
0100
MMMM
0000
MMMM
,
0001
MMMM
0000
MMMM
0100
MMMM
0000
MMMM
,
0010
MMMM
0000
MMMM
1000
MMMM
0000
MMMM
,
0010
MMMM
0000
MMMM
1000
MMMM
0000
MMMM
,
0001
MMMM
0000
MMMM
0100
MMMM
0000
MMMM
,
0010
MMMM
0000
MMMM
1000
MMMM
0000
MMMM
,
0010
MMMM
0000
MMMM
0100
MMMM
0000
MMMM
,
0001
MMMM
0000
MMMM
1000
MMMM
0000
MMMM
,
0001
MMMM
0000
MMMM
0010
MMMM
0000
MMMM
,
0001
MMMM
0000
MMMM
1000
MMMM
0000
MMMM
,
0100
MMMM
0000
MMMM
0100
MMMM
0000
MMMM
,
0010
MMMM
0000
MMMM
0001
MMMM
0000
MMMM
,
1001
MMMM
0000
MMMM
0000
MMMM
0000
MMMM
,
0001
MMMM
0000
MMMM
0100
MMMM
0000
MMMM
,
0010
MMMM
0000
MMMM
0000
MMMM
0000
MMMM
,
0100
MMMM
0000
MMMM
0001
MMMM
0000
MMMM
,
1000
MMMM
0000
MMMM
0000
MMMM
0000
MMMM
,
0010
MMMM
0000
MMMM
1000
MMMM
0000
MMMM
,
0001
MMMM
0000
MMMM
0000
MMMM
0000
MMMM
,
0100
MMMM
0000
MMMM
0010
MMMM
0000
MMMM
,
1000
MMMM
0000
MMMM
0000
MMMM
0000
MMMM
,
0001
MMMM
0000
MMMM
0001
MMMM
0000
MMMM
,
1000
MMMM
0000
MMMM
0000
MMMM
0000
MMMM
,
0010
MMMM
0000
MMMM
0010
MMMM
0000
MMMM
,
0100
MMMM
0000
MMMM
0000
MMMM
0000
MMMM
,
1000
MMMM
0000
MMMM
1000
MMMM
0000
MMMM
,
0010
MMMM
0000
MMMM
0000
MMMM
0000
MMMM
,
0100
MMMM
0000
MMMM
0100
MMMM
0000
MMMM
,
0001
MMMM
0000
MMMM
0000
MMMM
0000
MMMM
,
1000
MMMM
0000
MMMM
1000
MMMM
0000
MMMM
,
1000
MMMM
0000
MMMM
0000
MMMM
0000
MMMM
,
0001
MMMM
0000
MMMM
0100
MMMM
0000
MMMM
,
0001
MMMM
0000
MMMM
0000
MMMM
0000
MMMM
,
0010
MMMM
0000
MMMM
0010
MMMM
0000
MMMM
,
0010
MMMM
0000
MMMM
0000
MMMM
0000
MMMM
,
1000
MMMM
0000
MMMM
0010
MMMM
0000
MMMM
,
1000
MMMM
0000
MMMM
0000
MMMM
0000
MMMM
,
0001
MMMM
0000
MMMM
0001
MMMM
0000
MMMM
,
0001
MMMM
0000
MMMM
0000
MMMM
0000
MMMM
,
0100
MMMM
0000
MMMM
0010
MMMM
0000
MMMM
,
1000
MMMM
0000
MMMM
0000
MMMM
0000
MMMM
,
0001
MMMM
0000
MMMM
0001
MMMM
0000
MMMM
,
1000
MMMM
0000
MMMM
1000
MMMM
0000
MMMM
,
0001
MMMM
0000
MMMM
0100
MMMM
0000
MMMM
,
0010
MMMM
0000
MMMM
0000
MMMM
0000
MMMM
,
1000
MMMM
0000
MMMM
0000
MMMM
0000
MMMM
,
0001
MMMM
0000
MMMM
0000
MMMM
0000
MMMM
,
0100
MMMM
0000
MMMM
0010
MMMM
0000
MMMM
,
0100
MMMM
0000
MMMM
0000
MMMM
0000
MMMM
,
0001
MMMM
0000
MMMM
0000
MMMM
0000
MMMM
,
0010
MMMM
0000
MMMM
0000
MMMM
0000
MMMM
,
0001
MMMM
0000
MMMM
1000
MMMM
0000
MMMM
,
0001
MMMM
0000
MMMM
0000
MMMM
0000
MMMM
,
0100
MMMM
0000
MMMM
0000
MMMM
0000
MMMM
,
0010
MMMM
0000
MMMM
0000
MMMM
0000
MMMM
,
1000
MMMM
0000
MMMM
0010
MMMM
0000
MMMM
,
1000
MMMM
0000
MMMM
0000
MMMM
0000
MMMM
,
0001
MMMM
0000
MMMM
0000
MMMM
0000
MMMM
,
0100
MMMM
0000
MMMM
0000
MMMM
0000
MMMM
,
0010
MMMM
0000
MMMM
0000
MMMM
0000
MMMM
,
1000
MMMM
0000
MMMM
0000
MMMM
0000
MMMM
,
1000
MMMM
0000
MMMM
0000
MMMM
0000
MMMM
,
1000
MMMM
0000
MMMM
0000
MMMM
0000
MMMM
,
0001
MMMM
0000
MMMM
0010
MMMM
0000
MMMM
,
0001
MMMM
0000
MMMM
0000
MMMM
0000
MMMM
,
0001
MMMM
0000
MMMM
0000
MMMM
0000
MMMM
,
0001
MMMM
0000
MMMM
0000
MMMM
0000
MMMM
,
0001
MMMM
0000
MMMM
0100
MMMM
0000
MMMM
,
0010
MMMM
0000
MMMM
0000
MMMM
0000
MMMM
,
0010
MMMM
0000
MMMM
0000
MMMM
0000
MMMM
,
0010
MMMM
0000
MMMM
0000
MMMM
0000
MMMM
,
0100
MMMM
0000
MMMM
0010
MMMM
0000
MMMM
,
1000
MMMM
0000
MMMM
0000
MMMM
0000
MMMM
,
1000
MMMM
0000
MMMM
0000
MMMM
0000
MMMM
,
1000
MMMM
0000
MMMM
0000
MMMM
0000
MMMM
,
0001
MMMM
0000
MMMM
0100
MMMM
0000
MMMM
,
0110
MMMM
0000
MMMM
0000
MMMM
0000
MMMM
,
0000
MMMM
0000
MMMM
0000
MMMM
0000
MMMM
,
1001
MMMM
0000
MMMM
0000
MMMM
0000
MMMM
,
0000
MMMM
0000
MMMM
0000
MMMM
0000
MMMM
,
0110
MMMM
0000
MMMM
0000
MMMM
0000
MMMM
,
0000
MMMM
0000
MMMM
0000
MMMM
0000
MMMM
,
0001
MMMM
0000
MMMM
0000
MMMM
0000
MMMM
,
1000
MMMM
0000
MMMM
0000
MMMM
0000
MMMM
,
0110
MMMM
0000
MMMM
0000
MMMM
0000
MMMM
,
0000
MMMM
0000
MMMM
0000
MMMM
0000
MMMM
,
0011
MMMM
0000
MMMM
0000
MMMM
0000
MMMM
,
0000
MMMM
0000
MMMM
0000
MMMM
0000
MMMM
,
1100
MMMM
0000
MMMM
0000
MMMM
0000
MMMM
,
0000
MMMM
0000
MMMM
0000
MMMM
0000
MMMM
,
0010
MMMM
0000
MMMM
0000
MMMM
0000
MMMM
,
1000
MMMM
0000
MMMM
0000
MMMM
0000
MMMM
,
1001
MMMM
0000
MMMM
0000
MMMM
0000
MMMM
,
0001
MMMM
0000
MMMM
0000
MMMM
0000
MMMM
,
1000
MMMM
0000
MMMM
0000
MMMM
0000
MMMM
,
0001
MMMM
0000
MMMM
0000
MMMM
0000
MMMM
,
0110
MMMM
0000
MMMM
0000
MMMM
0000
MMMM
,
0100
MMMM
0000
MMMM
0000
MMMM
0000
MMMM
,
0010
MMMM
0000
MMMM
0000
MMMM
0000
MMMM
,
0100
MMMM
0000
MMMM
0000
MMMM
0000
MMMM
,
1001
MMMM
0000
MMMM
0000
MMMM
0000
MMMM
,
0001
MMMM
0000
MMMM
0000
MMMM
0000
MMMM
,
0011
MMMM
0000
MMMM
0000
MMMM
0000
MMMM
,
0010
MMMM
0000
MMMM
0000
MMMM
0000
MMMM
,
0110
MMMM
0000
MMMM
0000
MMMM
0000
MMMM
,
0100
MMMM
0000
MMMM
0000
MMMM
0000
MMMM
,
1100
MMMM
0000
MMMM
0000
MMMM
0000
MMMM
,
1000
MMMM
0000
MMMM
0000
MMMM
0000
MMMM
,
1010
MMMM
0000
MMMM
0000
MMMM
0000
MMMM
,
0000
MMMM
0000
MMMM
0000
MMMM
0000
MMMM
,
0101
MMMM
0000
MMMM
0000
MMMM
0000
MMMM
,
0000
MMMM
0000
MMMM
0000
MMMM
0000
MMMM
,
1010
MMMM
0000
MMMM
0000
MMMM
0000
MMMM
,
0100
MMMM
0000
MMMM
0001
MMMM
0000
MMMM
,
2002
0MM0
0000
0MM0
0000
0MM0
0000
0MM0
,
0000
0MM0
0000
0MM0
0000
0MM0
0000
0MM0
,
0000
0MM0
0000
0MM0
0000
0MM0
0000
0MM0
,
0000
0MM0
0000
0MM0
0000
0MM0
0000
0MM0
,
0000
0MM0
0000
0MM0
0000
0MM0
0000
0MM0
,
0000
0MM0
0000
0MM0
0000
0MM0
0000
0MM0
,
0000
0MM0
0000
0MM0
0000
0MM0
0000
0MM0
,
0000
0MM0
0000
0MM0
0000
0MM0
0000
0MM0
,
0000
0MM0
0000
0MM0
0000
0MM0
0000
0MM0
,
0000
0MM0
0000
0MM0
0000
0MM0
0000
0MM0
,
0000
0MM0
0000
0MM0
0000
0MM0
0000
0MM0
,
0000
0MM0
0000
0MM0
0000
0MM0
0000
0MM0
,
3003
M00M
0000
0000
0000
0000
0000
0000
:
a=note=20.000000,
;

//---------------dance-single - Copied from----------------
#NOTES:
     dance-single:
     Copied from:
     Challenge:
     13:
     0.506,0.745,0.323,0.016,0.024: // measure 1
0000
0000
0000
0000
,  // measure 2
0000
0000
0000
0000
,  // measure 3
0000
0000
0000
0000
,  // measure 4
0000
0000
0000
0000
,  // measure 5
0000
0000
0000
0000
0000
0000
0000
MMMM
,  // measure 6
0001
MMMM
0100
MMMM
0010
MMMM
1000
MMMM
,  // measure 7
0010
MMMM
0100
MMMM
0001
MMMM
0010
MMMM
,  // measure 8
0001
MMMM
0100
MMMM
0010
MMMM
1000
MMMM
,  // measure 9
0010
MMMM
0100
MMMM
0001
MMMM
0010
MMMM
,  // measure 10
0001
MMMM
0100
MMMM
0010
MMMM
1000
MMMM
,  // measure 11
0010
MMMM
0100
MMMM
0001
MMMM
0010
MMMM
,  // measure 12
0001
MMMM
1000
MMMM
0010
MMMM
0100
MMMM
,  // measure 13
0001
MMMM
0010
MMMM
0100
MMMM
1000
MMMM
,  // measure 14
0010
MMMM
0100
MMMM
0001
MMMM
1000
MMMM
,  // measure 15
0010
MMMM
0100
MMMM
0001
MMMM
0100
MMMM
,  // measure 16
0010
MMMM
1000
MMMM
0100
MMMM
0010
MMMM
,  // measure 17
0001
MMMM
0100
MMMM
0010
MMMM
1000
MMMM
,  // measure 18
0001
MMMM
0010
MMMM
0001
MMMM
0100
MMMM
,  // measure 19
0010
MMMM
1000
MMMM
0100
MMMM
1000
MMMM
,  // measure 20
0010
MMMM
0100
MMMM
0010
MMMM
0100
MMMM
,  // measure 21
0001
MMMM
0010
MMMM
0100
MMMM
1000
MMMM
,  // measure 22
0001
MMMM
0010
MMMM
0001
MMMM
0010
MMMM
,  // measure 23
0100
MMMM
1000
MMMM
0010
MMMM
0100
MMMM
,  // measure 24
0001
MMMM
1000
MMMM
0010
MMMM
1000
MMMM
,  // measure 25
0010
MMMM
0100
MMMM
0001
MMMM
0010
MMMM
,  // measure 26
0001
MMMM
0100
MMMM
0001
MMMM
0100
MMMM
,  // measure 27
0010
MMMM
1000
MMMM
0100
MMMM
0010
MMMM
,  // measure 28
0100
MMMM
1000
MMMM
0100
MMMM
1000
MMMM
,  // measure 29
0010
MMMM
0100
MMMM
0001
MMMM
1000
MMMM
,  // measure 30
0010
MMMM
1000
MMMM
0010
MMMM
0100
MMMM
,  // measure 31
0001
MMMM
0010
MMMM
0100
MMMM
0010
MMMM
,  // measure 32
0001
MMMM
0010
MMMM
0100
MMMM
1000
MMMM
,  // measure 33
0010
MMMM
1000
MMMM
0100
MMMM
1000
MMMM
,  // measure 34
0010
MMMM
0100
MMMM
0001
MMMM
0010
MMMM
,  // measure 35
0001
MMMM
0100
MMMM
0010
MMMM
1000
MMMM
,  // measure 36
0100
MMMM
0010
MMMM
0001
MMMM
0010
MMMM
,  // measure 37
0100
MMMM
1000
MMMM
0010
MMMM
1000
MMMM
,  // measure 38
1100
MMMM
1000
MMMM
0000
MMMM
0001
MMMM
,  // measure 39
0101
MMMM
1001
MMMM
1010
MMMM
1001
MMMM
,  // measure 40
0011
MMMM
0001
MMMM
0000
MMMM
1000
MMMM
,  // measure 41
0010
MMMM
0100
MMMM
0110
MMMM
0000
MMMM
,  // measure 42
1001
MMMM
0001
MMMM
0000
MMMM
1000
MMMM
,  // measure 43
1010
MMMM
1001
MMMM
0011
MMMM
1001
MMMM
,  // measure 44
1100
MMMM
1000
MMMM
0000
MMMM
0001
MMMM
,  // measure 45
0110
MMMM
1001
MMMM
0110
MMMM
0000
MMMM
,  // measure 46
0110
MMMM
0001
MMMM
0000
MMMM
1000
MMMM
,  // measure 47
1010
MMMM
1100
MMMM
0011
MMMM
0101
MMMM
,  // measure 48
0110
MMMM
0010
MMMM
0000
MMMM
1000
MMMM
,  // measure 49
0010
MMMM
1010
MMMM
0101
MMMM
0000
MMMM
,  // measure 50
1010
MMMM
1000
MMMM
0000
MMMM
0001
MMMM
,  // measure 51
0101
MMMM
1010
MMMM
0110
MMMM
1001
MMMM
,  // measure 52
1000
MMMM
0010
MMMM
1000
MMMM
0010
MMMM
,  // measure 53
0100
MMMM
0001
MMMM
0010
MMMM
0100
MMMM
,  // measure 54
0010
MMMM
0000
MMMM
0001
MMMM
0000
MMMM
,  // measure 55
0100
MMMM
0000
MMMM
0010
MMMM
1000
MMMM
,  // measure 56
0100
MMMM
0000
MMMM
1000
MMMM
0000
MMMM
,  // measure 57
0010
MMMM
0000
MMMM
0100
MMMM
0010
MMMM
,  // measure 58
0100
MMMM
0000
MMMM
0001
MMMM
0000
MMMM
,  // measure 59
1000
MMMM
0000
MMMM
0010
MMMM
0100
MMMM
,  // measure 60
0001
MMMM
0000
MMMM
0010
MMMM
0000
MMMM
,  // measure 61
0100
MMMM
0000
MMMM
1000
MMMM
0010
MMMM
,  // measure 62
0100
MMMM
0000
MMMM
0001
MMMM
0000
MMMM
,  // measure 63
0010
MMMM
0000
MMMM
0001
MMMM
1000
MMMM
,  // measure 64
0100
MMMM
0000
MMMM
1000
MMMM
0000
MMMM
,  // measure 65
0010
MMMM
0000
MMMM
0100
MMMM
0001
MMMM
,  // measure 66
0010
MMMM
0000
MMMM
0100
MMMM
0000
MMMM
,  // measure 67
1000
MMMM
0000
MMMM
0010
MMMM
0100
MMMM
,  // measure 68
0001
MMMM
0000
MMMM
1000
MMMM
0000
MMMM
,  // measure 69
0010
MMMM
0000
MMMM
0100
MMMM
0000
MMMM
,  // measure 70
0001
MMMM
0010
MMMM
0001
MMMM
0000
MMMM
,  // measure 71
1000
MMMM
0010
MMMM
1000
MMMM
0000
MMMM
,  // measure 72
0001
MMMM
0100
MMMM
0001
MMMM
0000
MMMM
,  // measure 73
1000
MMMM
0010
MMMM
1000
MMMM
0100
MMMM
,  // measure 74
0010
MMMM
0001
MMMM
0100
MMMM
0000
MMMM
,  // measure 75
0001
MMMM
0010
MMMM
0001
MMMM
0000
MMMM
,  // measure 76
1000
MMMM
0010
MMMM
1000
MMMM
0000
MMMM
,  // measure 77
0010
MMMM
0100
MMMM
0001
MMMM
0010
MMMM
,  // measure 78
0100
MMMM
0010
MMMM
0001
MMMM
0000
MMMM
,  // measure 79
1000
MMMM
0010
MMMM
0100
MMMM
0000
MMMM
,  // measure 80
0001
MMMM
0010
MMMM
0100
MMMM
0000
MMMM
,  // measure 81
0010
MMMM
0001
MMMM
1000
MMMM
0001
MMMM
,  // measure 82
1000
MMMM
0010
MMMM
0100
MMMM
0000
MMMM
,  // measure 83
0010
MMMM
0100
MMMM
0001
MMMM
0000
MMMM
,  // measure 84
0010
MMMM
0100
MMMM
1000
MMMM
0010
MMMM
,  // measure 85
1000
MMMM
0100
MMMM
0010
MMMM
0000
MMMM
,  // measure 86
1001
MMMM
0001
MMMM
0100
MMMM
0001
MMMM
,  // measure 87
0000
MMMM
1000
MMMM
0010
MMMM
1000
MMMM
,  // measure 88
1001
MMMM
1000
MMMM
0010
MMMM
1000
MMMM
,  // measure 89
0000
MMMM
0001
MMMM
0100
MMMM
0010
MMMM
,  // measure 90
0110
MMMM
0100
MMMM
0010
MMMM
1000
MMMM
,  // measure 91
0000
MMMM
0001
MMMM
1000
MMMM
0001
MMMM
,  // measure 92
0000
MMMM
1000
MMMM
0100
MMMM
0010
MMMM
,  // measure 93
0001
MMMM
0010
MMMM
0100
MMMM
1000
MMMM
,  // measure 94
1001
MMMM
0001
MMMM
0100
MMMM
0010
MMMM
,  // measure 95
0000
MMMM
0100
MMMM
0010
MMMM
1000
MMMM
,  // measure 96
1001
MMMM
1000
MMMM
0001
MMMM
0010
MMMM
,  // measure 97
0000
MMMM
0010
MMMM
0001
MMMM
0100
MMMM
,  // measure 98
0110
MMMM
0010
MMMM
1000
MMMM
0001
MMMM
,  // measure 99
0000
MMMM
0100
MMMM
0001
MMMM
1000
MMMM
,  // measure 100
0000
MMMM
0010
MMMM
0100
MMMM
0010
MMMM
,  // measure 101
1000
MMMM
0100
MMMM
0010
MMMM
0001
MMMM
,  // measure 102
1001
MMMM
1000
MMMM
0010
MMMM
1000
MMMM
,  // measure 103
0000
MMMM
0001
MMMM
0000
MMMM
0100
MMMM
,  // measure 104
0001
MMMM
0100
MMMM
0010
MMMM
1000
MMMM
,  // measure 105
0000
MMMM
0001
MMMM
0100
MMMM
0000
MMMM
,  // measure 106
0010
MMMM
1000
MMMM
0010
MMMM
1000
MMMM
,  // measure 107
0001
MMMM
0100
MMMM
0001
MMMM
0100
MMMM
,  // measure 108
0010
MMMM
1000
MMMM
0001
MMMM
1000
MMMM
,  // measure 109
0010
MMMM
1000
MMMM
0100
MMMM
0010
MMMM
,  // measure 110
0001
MMMM
0100
MMMM
0001
MMMM
0100
MMMM
,  // measure 111
0000
MMMM
1000
MMMM
0010
MMMM
0000
MMMM
,  // measure 112
1000
MMMM
0001
MMMM
0010
MMMM
0001
MMMM
,  // measure 113
0000
MMMM
1000
MMMM
0100
MMMM
0000
MMMM
,  // measure 114
1000
MMMM
0010
MMMM
1000
MMMM
0010
MMMM
,  // measure 115
0100
MMMM
0001
MMMM
0100
MMMM
0001
MMMM
,  // measure 116
0010
MMMM
0100
MMMM
1000
MMMM
0010
MMMM
,  // measure 117
0100
MMMM
0001
MMMM
1000
MMMM
0000
MMMM
,  // measure 118
1010
MMMM
1000
MMMM
0100
MMMM
0001
MMMM
,  // measure 119
0100
MMMM
1000
MMMM
0001
MMMM
0000
MMMM
,  // measure 120
0011
MMMM
0001
MMMM
0100
MMMM
1000
MMMM
,  // measure 121
0100
MMMM
0001
MMMM
1000
MMMM
0000
MMMM
,  // measure 122
1010
MMMM
1000
MMMM
0100
MMMM
0001
MMMM
,  // measure 123
0101
MMMM
1000
MMMM
0010
MMMM
0001
MMMM
,  // measure 124
2002
0MM0
0000
0MM0
0000
0MM0
0000
0MM0
,  // measure 125
0000
0MM0
0000
0MM0
0000
0MM0
0000
0MM0
,  // measure 126
0000
0MM0
0000
0MM0
0000
0MM0
0000
0MM0
,  // measure 127
0000
0MM0
0000
0MM0
0000
0MM0
0000
0MM0
,  // measure 128
0000
0MM0
0000
0MM0
0000
0MM0
0000
0MM0
,  // measure 129
0000
0MM0
0000
0MM0
0000
0MM0
0000
0MM0
,  // measure 130
0000
0MM0
0000
0MM0
0000
0MM0
0000
0MM0
,  // measure 131
0000
0MM0
0000
0MM0
0000
0MM0
0000
0MM0
,  // measure 132
0000
0MM0
0000
0MM0
0000
0MM0
0000
0MM0
,  // measure 133
0000
0MM0
0000
0MM0
0000
0MM0
0000
0MM0
,  // measure 134
0000
0MM0
0000
0MM0
0000
0MM0
0000
0MM0
,  // measure 135
0000
0MM0
0000
0MM0
0000
0MM0
0000
0MM0
,  // measure 136
3003
M00M
M00M
M00M
M00M
M00M
M00M
0000
0000
0000
0000
0000
0000
0000
0000
0000
0000
0000
0000
0000
0000
0000
0000
0000
0000
0000
0000
0000
0000
0000
0000
0000
0000
0000
0000
0000
0000
0000
0000
0000
0000
0000
0000
0000
0000
0000
0000
0000
0000
0000
0000
0000
0000
0000
0000
0000
0000
0000
0000
0000
0000
0000
0000
0000
;
