#TITLE:Valestine Castle;
#SUBTITLE:(Messa!! Chiisana Takarabako Remix);
#ARTIST:WOODSOFT;
#TITLETRANSLIT:;
#SUBTITLETRANSLIT:;
#ARTISTTRANSLIT:;
#CREDIT:;
#BANNER:Ys III_bn.png;
#BACKGROUND:Ys III_bg.png;
#LYRICSPATH:;
#CDTITLE:CD_Title.png;
#MUSIC:Messa!! Chiisana Takarabako - Valestein Castle (Ys III - Ys- The Oath in Felghana).mp3;
#OFFSET:-0.270;
#SAMPLESTART:0.360;
#SAMPLELENGTH:13.500;
#SELECTABLE:YES;
#BPMS:0.000=230.001;
#STOPS:;
#BGCHANGES:;

//---------------dance-single - ----------------
#NOTES:
     dance-single:
     :
     Easy:
     6:
     0.452,0.658,0.464,0.427,0.000: // measure 1
0000
0000
0000
0000
,  // measure 2
0001
0000
0000
1000
0000
0000
0000
0000
,  // measure 3
1000
0000
0000
0001
0000
0000
0100
0000
,  // measure 4
0010
0000
0100
0000
,  // measure 5
0001
0000
1000
0000
,  // measure 6
0010
0000
0010
0200
,  // measure 7
0000
0301
0100
0001
,  // measure 8
0010
0000
0000
0000
0100
0000
0000
1000
,  // measure 9
0000
0001
1000
0010
,  // measure 10
0100
0000
0000
0000
0001
0000
0000
2000
,  // measure 11
0000
3001
1000
0100
,  // measure 12
1000
0000
0001
0000
,  // measure 13
1001
0000
0000
0100
,  // measure 14
0110
0000
0000
0001
,  // measure 15
1001
0000
1000
0010
,  // measure 16
0110
1001
0110
1001
,  // measure 17
0110
0000
0000
0100
,  // measure 18
0101
0000
0000
0010
,  // measure 19
1010
0000
0000
0001
,  // measure 20
2001
0000
0000
3000
,  // measure 21
0020
0000
0000
0130
,  // measure 22
2001
0000
0000
3010
,  // measure 23
0110
0000
0100
0001
,  // measure 24
1002
0000
0000
1003
,  // measure 25
1001
0000
0001
0100
,  // measure 26
0120
0000
0000
0130
,  // measure 27
1001
0000
1000
0001
,  // measure 28
2001
0000
0000
3010
,  // measure 29
0110
0000
0000
0001
,  // measure 30
0201
0000
0000
0310
,  // measure 31
1010
0000
1000
0001
,  // measure 32
0201
0000
0000
0310
,  // measure 33
1010
0000
1000
0001
,  // measure 34
0102
0000
0000
1003
,  // measure 35
1020
0000
0130
0001
,  // measure 36
2002
0000
0000
0000
,  // measure 37
3003
0000
0000
0000
,  // measure 38
1000
0000
0000
0001
0000
0000
1000
0000
,  // measure 39
0010
0010
0100
0010
,  // measure 40
1000
0100
1000
0100
,  // measure 41
0010
0001
0010
0001
,  // measure 42
0100
0010
0100
0010
,  // measure 43
1000
0001
1000
0001
,  // measure 44
0100
0010
1000
0010
,  // measure 45
0100
0001
0100
0010
,  // measure 46
1000
0000
0000
1001
0000
0000
0001
0000
,  // measure 47
0100
0100
0010
0100
,  // measure 48
0001
0010
0001
0001
,  // measure 49
1000
0010
1000
1000
,  // measure 50
0001
0100
0001
0001
,  // measure 51
1000
0100
1000
1000
,  // measure 52
0010
0100
0001
0100
,  // measure 53
0010
1000
0001
0100
,  // measure 54
0210
0000
0000
0310
,  // measure 55
1001
0000
0000
0000
,  // measure 56
2000
0000
3020
0000
,  // measure 57
0230
0000
0302
0000
,  // measure 58
2003
0000
3000
0001
,  // measure 59
2000
0000
3000
1000
,  // measure 60
0002
0000
0003
0001
,  // measure 61
2000
3020
0230
0301
,  // measure 62
2001
0000
0000
3010
,  // measure 63
0210
0000
0000
0300
,  // measure 64
0002
0000
0000
0013
,  // measure 65
0011
0000
1100
0000
,  // measure 66
0201
0000
0000
0000
,  // measure 67
0000
0000
0000
0310
,  // measure 68
1002
0000
0000
0000
,  // measure 69
0000
0000
0000
1003
,  // measure 70
0210
0000
0000
0000
,  // measure 71
0000
0000
0300
0000
,  // measure 72
0010
0000
0000
0100
0000
0010
0000
0010
,  // measure 73
0010
0000
0000
0110
0000
0000
0000
0000
,  // measure 74
0200
0000
0000
0000
,  // measure 75
0302
0000
1003
0001
,  // measure 76
2002
0000
0000
0000
,  // measure 77
0000
0000
0000
0000
,  // measure 78
3003
0000
0000
0000
;

//---------------dance-single - Copied from----------------
#NOTES:
     dance-single:
     Copied from:
     Medium:
     8:
     0.782,0.799,0.525,0.708,0.000:
0000
0000
0000
0000
,
0001
0010
0100
1000
0000
0000
0000
0000
,
1000
0100
0010
0001
0000
0001
0010
0100
,
2000
3010
0002
0013
,
2000
3100
0002
0103
,
2000
0000
0000
0000
3001
0000
1000
0100
,
0000
0100
1000
0000
0001
0100
0001
0000
,
0002
0000
0000
0000
1003
0000
0001
0100
,
0000
0100
0001
0100
0001
0000
1000
0000
,
0200
0000
0000
0000
1300
0000
0001
1000
,
0000
1000
0001
1000
0001
0000
0100
0010
,
0100
0000
0001
1000
0000
0001
0010
0100
,
2000
0000
0000
0000
3000
1000
0001
1000
,
0002
0000
1000
0000
0013
0000
1000
0001
,
2000
0001
3010
0001
,
0101
0011
1001
1100
,
1020
0000
0030
0100
,
0002
0000
1000
0000
0103
0000
1000
0001
,
2000
0000
0001
0000
3010
0000
0001
1000
,
0002
0013
2000
3010
,
0220
0000
0000
0000
0330
0000
0100
0001
,
2000
0000
0100
0000
0001
0000
3100
1000
,
0002
0013
2000
3010
,
0002
0000
0100
0000
1000
0000
0013
0001
,
2000
3100
0002
0103
,
2000
0000
0100
0000
0001
0000
3100
1000
,
0002
0013
2000
3010
,
0002
0000
0100
0000
1000
0000
0103
0001
,
2000
0000
0010
0000
3010
0000
0001
1000
,
0200
0000
0010
0000
1000
0000
0310
0001
,
0200
1000
0010
0301
,
0020
0000
0100
0000
0001
0000
0130
0001
,
0020
1000
0100
0031
,
0200
0000
1000
0000
0010
0000
1300
0001
,
0200
1000
0010
0302
,
2000
0000
0000
0000
,
3003
0000
0000
0000
,
1000
0100
0010
0001
0000
0001
1000
0000
,
0200
0000
0310
0000
0100
1000
0001
0000
,
0101
0000
0011
0000
0001
0100
0010
0000
,
1100
0000
1010
0000
0100
1000
0010
0000
,
1001
0000
0011
0000
1000
0001
0010
0000
,
1001
0000
1010
0000
0001
1000
0010
0000
,
0100
0001
1000
0000
0100
1000
0001
0000
,
0101
0011
1100
1010
,
0001
1000
0100
0010
0000
0010
0100
0000
,
2000
0000
3002
0000
0103
0001
0010
0000
,
1100
0000
1010
0000
1000
0001
0010
0000
,
0101
0000
0011
0000
0001
1000
0010
0000
,
0110
0000
0101
0000
0100
0001
0010
0000
,
0110
0000
1100
0000
0100
1000
0010
0000
,
1000
0001
0010
0000
0001
1000
0010
0000
,
1000
0001
0010
0000
0001
1000
0100
0010
,
0002
0000
0010
0000
1000
0000
0013
0001
,
2000
0100
0001
3010
,
2001
3100
1002
0103
,
2001
3010
1002
0013
,
2001
0000
0100
0000
3001
1000
0100
0010
,
0002
0000
0100
0000
1003
0100
0010
0001
,
2000
0000
0100
0000
3001
0010
0100
1000
,
0001
0101
1100
0101
,
0002
0000
1000
0000
0103
0001
1000
0100
,
0020
0001
0100
1030
,
0210
0000
1000
0000
1300
0100
0010
0001
,
0200
0000
1000
0300
0020
0000
0001
0030
,
1000
0100
1000
0100
0000
1000
0000
1100
,
0000
1001
0000
0001
0100
0000
0001
0000
,
0100
0001
0100
0001
0000
0100
0000
0101
,
0000
1001
0000
1000
0100
0000
1000
0000
,
0010
1000
0010
1000
0000
0001
0000
0101
,
0000
0110
0000
0010
1000
0000
0100
0000
,
0010
0001
0010
0001
0000
0100
0000
0101
,
0001
0000
0000
1001
0000
0000
0000
0000
,
0002
0013
2000
3010
,
0002
0000
0103
0000
1000
0100
0010
0002
,
2000
0000
0000
0000
,
0000
0000
0000
0000
,
3003
0000
0000
0000
;

//---------------dance-single - Copied from Copied f----------------
#NOTES:
     dance-single:
     Copied from Copied f:
     Hard:
     9:
     0.961,0.940,0.672,0.391,0.031:
0000
0000
0000
0000
,
0001
0100
0001
0010
0000
0000
0000
0000
,
1000
0010
1000
0100
0000
0001
0100
0010
,
2000
0010
3010
0000
0002
0010
0013
0000
,
1000
0010
0100
0001
0100
0010
1000
0000
,
0002
0010
0013
0000
0010
0001
1000
0100
,
0000
0100
1000
0100
0010
0100
0001
0100
,
2000
0010
3010
0000
0010
1000
0001
0010
,
0000
0010
0001
0010
0100
0010
1000
0010
,
0002
0100
0103
0000
1000
0100
0001
0100
,
0000
0100
1000
0010
0001
0010
1000
0100
,
0010
0001
1000
2000
0000
3100
1000
0001
,
0002
0000
1003
0000
0100
1000
0001
0100
,
0110
0000
0101
0000
0011
0010
0100
1000
,
1100
0000
1010
0000
1100
1000
0010
0000
,
0100
0001
0010
1000
0010
0001
0100
1000
,
0200
0001
0010
1300
,
0101
0000
0011
0000
0010
0100
1000
0010
,
1010
0000
1100
0000
0100
0010
0001
0100
,
0210
1000
0010
0301
,
0100
0001
0100
0001
0000
1000
0100
1000
,
1000
0010
1000
0010
0100
0001
0100
0001
,
0010
0010
01M0
0100
1M00
1000
M001
0001
,
010M
0001
0100
0001
0010
0100
0010
0100
,
1000
1000
M010
0010
01M0
0100
0M01
0001
,
100M
0010
1000
0010
0100
0001
0100
0001
,
0010
0010
01M0
0100
1M00
1000
M001
0001
,
020M
0000
0000
0000
1000
0000
0000
0000
0010
0000
0000
0000
0301
0000
0100
0001
,
2000
0000
0000
0000
3000
0001
1000
0001
,
0001
0100
0010
1000
0100
0010
0001
1000
,
0010
0010
01M0
0100
0M01
0001
100M
1000
,
M010
0100
0001
1000
0100
0010
0001
1000
,
0010
0010
01M0
0100
0M01
0001
100M
1000
,
M010
0100
0001
0010
0100
1000
0010
0100
,
0001
0001
100M
1000
M010
0010
01M0
0100
,
0M02
0000
0000
0000
,
2000
0000
3003
0000
,
0001
0100
0010
0100
0000
0010
1000
0100
,
0010
0010
0001
0001
0100
1000
0100
0001
,
0M10
1000
0M10
0001
0M10
1000
0M10
0001
,
01M0
1000
01M0
0001
01M0
1000
01M0
0001
,
0100
0001
0010
0010
0100
1000
0010
0010
,
0100
0001
1000
1000
0001
1000
0100
0100
,
1M00
0001
1M00
0010
1M00
0001
1M00
0010
,
00M1
0100
00M1
1000
00M1
0100
00M1
1000
,
1001
0100
0010
0110
0000
0000
0100
0001
,
2000
0000
3020
0000
0130
0001
0010
0000
,
1100
0000
1010
0000
0100
1000
1001
0000
,
0101
0000
0011
0000
0100
0001
1001
0000
,
0001
0010
0100
0010
1000
0M10
M001
00M0
,
010M
1000
0100
0010
0100
0001
1000
0000
,
0100
0001
0101
0000
1000
0100
1100
0000
,
0001
0100
0101
0000
1000
0100
0010
0100
,
1200
0000
1000
0000
0310
0001
0100
0010
,
2000
0001
0100
3010
,
2000
0001
0010
3000
0002
1000
0100
0003
,
2000
0100
0010
3000
0002
0010
0100
0003
,
0201
0000
0001
0000
0310
1000
0100
0010
,
0002
0000
1000
0000
0103
0001
1000
0100
,
0020
0000
0001
0000
0130
1000
0001
0100
,
0010
1010
0011
1010
,
0201
0000
0001
0000
0310
1000
0100
0010
,
0210
0001
1000
0310
,
1200
0000
1000
0300
0100
1000
0001
0100
,
0020
0000
0100
0000
M032
0M00
00M3
000M
,
1000
0100
1000
1010
0000
0011
0000
0101
,
0000
1100
0000
1010
0010
0000
1001
0000
,
0001
0100
0001
0011
0000
1010
0000
1100
,
0000
0101
0000
1001
1000
0000
1010
0000
,
0010
1000
0100
1100
0000
0101
0000
0011
,
0000
1010
0000
1100
0100
0000
1001
0000
,
1010
1010
1010
1010
0000
1010
0000
0011
,
0200
0000
0300
1010
0000
0000
0000
0000
,
0001
0100
0001
0010
0100
1000
0010
1000
,
0100
0000
0000
0010
0000
0000
0001
0000
0000
0100
0000
0000
0001
0000
0100
0000
0001
0000
1000
0000
0100
0000
2000
0000
,
0002
0000
0000
0000
,
0000
0000
0000
0000
,
3003
0000
0000
0000
;
