#TITLE:Valenti;
#SUBTITLE:Pump It UP EXCEED;
#ARTIST:Boa;
#TITLETRANSLIT:;
#SUBTITLETRANSLIT:;
#ARTISTTRANSLIT:;
#GENRE:;
#CREDIT:;
#MENUCOLOR:;
#METERTYPE:DDR;
#BANNER:Valenti_bn.png;
#BACKGROUND:Valenti_bg.png;
#LYRICSPATH:;
#CDTITLE:cdtitle.png;
#MUSIC:Valenti.mp3;
#OFFSET:-0.810;
#SAMPLESTART:40.000;
#SAMPLELENGTH:20.780;
#SELECTABLE:YES;
#LISTSORT:;
#DISPLAYBPM:104.000;
#BPMS:0.000=104.000,56.000=416.000,60.000=104.000,103.000=208.000,105.000=104.000,118.000=208.000,118.750=104.000,121.000=208.000,123.000=104.000,131.000=416.000,135.000=104.000,146.125=208.000,148.000=104.000,182.125=208.000,184.000=104.000;
#STOPS:103.125=0.200
,103.875=0.200
,104.625=0.160
,118.500=0.200
,121.125=0.098
,121.500=0.098
,121.875=0.098
,122.125=0.147
,122.625=0.147
,146.125=0.197
,146.875=0.197
,147.625=0.162
,182.125=0.195
,182.875=0.195
,183.625=0.155
;
#BGCHANGES:0.000=Valenti.avi=1.000=1=1=0,
185.000=Valenti_bg.png=1.000=0=0=1,
99999=-nosongbg-=1.000=0=0=0 // don't automatically add -songbackground-
;
#ATTACKS:;

//---------------dance-single - Copied from----------------
#NOTES:
     dance-single:
     Copied from:
     Hard:
     8:
     0.608,0.602,0.177,0.363,0.818:
0001
0100
0000
0100
0010
0000
1000
0000
0100
0010
0000
0010
0100
0000
1000
0000
,
0010
0100
0000
0100
0001
0000
0010
0000
0100
1000
0000
1000
0001
0010
0001
0010
,
0100
1000
0000
1000
0001
0000
0010
0000
0001
0100
0000
0100
0010
0000
1000
0000
,
0001
0010
0001
0000
1000
0010
1000
0000
0010
1000
0100
0000
0010
0001
0100
0000
,
0220
0000
0000
0000
0000
0000
0000
0000
0000
0300
0030
0100
0010
0000
1000
0000
,
0001
0000
0100
0001
0100
0001
0100
0001
0100
0010
0000
1000
0000
0000
0100
0000
,
0010
0000
0001
0100
0001
0100
0001
0100
0001
0100
0000
0010
0000
0000
1000
0000
,
0200
0000
0310
0000
0002
0000
1003
0000
0020
0000
0001
0000
2000
0030
0100
0000
,
0001
3000
1000
0010
1000
0010
1000
0100
1000
0100
0000
0010
0001
0000
0100
0000
,
0001
0000
0010
0001
0010
0001
0100
0001
0100
0001
0000
0010
0100
0000
1000
0000
,
0010
0000
0100
0001
0100
0001
0010
0100
0010
0100
0000
1000
0010
0000
1000
0000
,
0100
0010
0001
0000
1000
0010
0100
0000
2001
0000
0100
0000
0100
0000
3000
0000
,
0001
0010
0100
0020
0000
2030
0000
3020
0000
0031
0100
0000
1010
0000
0000
0000
,
1000
0010
0100
0020
0000
0032
0000
0023
0000
1030
0100
0000
0011
0000
0000
0000
,
2002
0000
0000
3003
,
0000
0000
0001
0000
0100
0000
1000
0000
0001
0000
1000
0000
0100
0000
0001
0010
,
0200
0000
0000
0000
0001
0000
1000
0000
1000
0000
0300
0000
0110
0020
0000
0032
,
0000
0000
0103
0000
0020
0000
1030
0100
0010
0000
0000
0000
0001
0000
1000
0100
,
0000
M10M
0000
0100
0001
0000
1000
0010
0000
M01M
0000
0010
0001
0000
1000
0010
,
0000
M01M
0000
0010
0000
0001
0010
1000
0100
0000
0010
0000
0M01
0000
1000
0M01
,
0000
0M10
1000
0M00
0001
0M00
1000
0M10
0000
0M01
1000
0M00
0020
0000
0000
0000
,
0032
0000
0000
0000
0103
0000
0010
0001
1000
0000
0000
0000
0001
0000
0100
0010
,
0000
0M1M
0000
0010
0100
0000
0001
0010
0000
0M1M
0000
0010
0001
0000
0100
0010
,
0000
0M1M
0000
0010
0000
0100
0001
0010
0100
0000
1000
0000
0001
0000
1M00
0010
,
0M00
0001
1M00
0000
0M01
0000
0M10
1000
0M00
0001
1M00
0000
0200
0000
0000
0000
,
0302
0000
0000
0000
0023
0000
0000
0000
0230
0000
0300
0000
0101
0000
0000
1100
,
0000
0000
0000
0000
0000
0000
0101
0000
0000
0000
0000
0000
0010
0000
0000
0000
1000
0000
0000
0000
0100
0000
0000
0000
0010
0000
0000
0000
0000
0000
0000
0000
0000
0000
0000
0000
0001
0000
0000
0100
0000
0000
0000
0000
0000
0010
0000
0000
,
0000
0100
0000
1000
0000
0100
0000
0010
1000
0000
0001
0000
1000
0100
0000
0010
,
0000
0100
0000
0001
0000
0100
1000
0001
1000
0000
0010
0000
0100
1000
0000
0100
,
0000
0001
0000
0010
0000
0100
0001
0100
2000
0000
3000
0000
0001
0100
0000
0010
,
0000
0000
0000
0100
0000
0000
0000
0000
0000
1000
0000
0000
0100
0000
0000
0000
0010
0000
0000
0000
1000
0000
0000
0000
0100
0000
0000
0000
0000
0000
0010
0000
0000
0000
0000
0000
0001
0000
0000
0100
0000
0000
0010
0000
0000
0100
0000
0000
,
0000
1000
0000
0100
0000
0001
0010
0000
1100
0000
0000
0000
1000
0010
0100
0010
,
0000
0001
0000
0010
0000
1000
0100
0000
0011
0000
0000
0000
2002
0000
0000
0000
,
0000
0000
0000
0000
3003
0000
0000
0001
,
0100
0000
1000
0000
0001
0000
1000
0000
0100
0000
0001
0010
0200
0000
0000
0000
,
0001
0000
1000
0000
1000
0000
0300
0000
0110
0020
0000
0032
0000
0000
0103
0000
,
0020
0000
1030
0100
0010
0000
0000
0000
0011
0000
0000
1001
0000
0000
0011
0000
,
0100
0000
0000
0000
0100
0000
0000
0000
0100
0000
0000
0000
0010
0000
0000
0000
0000
0000
0000
0000
0000
0000
0000
0000
1000
0000
0000
0000
0000
0000
0001
0000
0000
0010
0000
0000
0000
0000
0000
M01M
0000
0000
0000
0000
0000
0010
0000
0000
,
1000
0000
0001
0100
0000
M10M
0000
0100
1000
0000
0001
0100
0000
M10M
0000
0100
,
0000
0000
0000
1000
0000
0000
0100
0000
0000
0001
0000
0000
0010
0000
0000
0000
0000
0000
0100
0000
0000
0000
0000
0000
1000
0000
0000
0000
00M0
0000
0001
0000
0000
10M0
0000
0000
0000
0000
0000
01M0
0000
0000
0001
0000
0000
00M0
0000
0000
,
1000
00M0
0001
01M0
0000
10M0
0001
00M0
0200
0000
0000
0000
2300
0000
0000
0000
,
3020
0000
0130
1000
0001
0000
0000
0000
1000
0000
0010
0100
0000
M1M0
0000
0100
,
0010
0000
1000
0100
0000
M1M0
0000
0100
1000
0000
0010
0100
0000
M1M0
0000
0100
,
0000
0010
1000
0100
0010
0000
0001
0000
1000
0000
00M1
0100
00M0
1000
00M1
0000
,
10M0
0000
01M0
0001
00M0
1000
00M1
0000
0020
0000
0000
0000
2030
0000
0000
0000
,
3200
0000
0000
0000
0320
0000
0030
0000
1010
0000
0000
0011
0000
0000
1010
0000
,
0100
0001
0010
0100
0000
0000
0000
0000
0000
0000
0000
0000
;

//---------------dance-single - Copied from Copied f----------------
#NOTES:
     dance-single:
     Copied from Copied f:
     Challenge:
     9:
     0.768,0.796,0.251,0.707,1.000: // measure 1
1000
0010
0000
0010
1000
0001
0010
0000
0001
0100
0000
0100
0010
0000
1000
0000
,  // measure 2
0001
0000
0000
0010
0000
0000
0000
0000
0000
0010
0000
0000
0001
0000
0000
1000
0000
0000
0010
0000
0000
0000
0000
0000
0100
0000
0000
0001
0000
0000
0000
0000
0000
0001
0000
0000
0010
0000
0100
0000
1000
0000
0001
0000
0000
1000
0000
0000
,  // measure 3
0001
0100
0000
0100
0001
1000
0100
0000
1000
0010
0000
0010
0100
0000
0001
0000
,  // measure 4
0010
0001
0100
0000
0010
1000
0100
0000
0010
0001
1000
0000
0010
1000
0001
0000
,  // measure 5
2020
0000
0000
0000
0000
0000
0000
0000
3000
0000
0030
1000
0001
0000
0010
0000
,  // measure 6
0001
0100
0001
0100
0010
1000
0100
0010
1000
0020
0000
0032
00M0
0000
0003
0000
,  // measure 7
0100
0000
0010
1000
0010
1000
0100
0010
0001
0200
0000
2300
0000
0M00
0000
0000
,  // measure 8
3100
0000
0001
0000
0010
0000
0100
0000
1020
0000
0100
0030
0021
0000
0100
0030
,  // measure 9
1010
0000
0100
0010
0100
0001
0010
0100
1000
0020
0000
0032
00M0
0000
0013
0000
,  // measure 10
1000
0000
0100
0010
0100
1000
0010
0100
1000
0200
0000
0302
0000
0M00
0013
0000
,  // measure 11
0001
0000
1000
0010
1000
0100
0010
0001
0100
2000
0000
0002
3000
0000
1003
0000
,  // measure 12
0200
0302
0023
2030
0002
0000
3003
M00M
,  // measure 13
0001
0100
1000
0010
MM0M
0010
1000
0100
M0MM
0100
1000
0010
0001
0000
MMMM
0000
,  // measure 14
1000
0100
0001
0010
MM0M
0010
0001
0100
M0MM
0100
0001
0010
1000
0000
MMMM
0000
,  // measure 15
0022
MM00
0003
003M
,  // measure 16
00M2
0000
0000
0000
0203
0000
0000
0000
2300
0000
0000
0000
3002
0000
0000
0000
2003
0000
0000
0000
3200
0000
0000
0000
0302
0000
0000
0000
0000
0000
0013
0100
,  // measure 17
2000
0000
0000
0000
0100
0000
0000
0000
0100
0000
0000
3000
1001
0010
000M
0020
,  // measure 18
0000
0000
0000
0000
1030
0000
0000
0000
0002
0000
0000
0000
0000
0000
0013
0100
1000
0000
0000
0000
0000
0000
M000
0000
0001
0000
0100
0000
0010
0000
1000
0000
,  // measure 19
0001
0010
0100
M10M
0010
0001
0100
0010
1000
0100
0010
M01M
0100
1000
0010
0100
,  // measure 20
0001
0010
1000
0020
0000
0100
0100
0100
0130
0000
0010
0000
0001
0100
0001
0010
,  // measure 21
0100
1000
0010
M01M
0100
0001
0010
0100
1000
0010
0100
M10M
0020
0000
0000
0000
,  // measure 22
2030
0000
0000
0000
0000
0000
0000
0000
3200
0000
0000
0000
0300
0000
0010
0001
1000
0000
0000
0000
000M
0000
M000
0000
0001
0000
0100
0000
0010
0000
1000
0000
,  // measure 23
0100
0010
0001
0MM1
1000
0010
1000
0100
0010
0001
1000
1MM0
0001
0010
0100
1000
,  // measure 24
0MM1
0100
1000
0200
0000
0010
0010
0010
0310
0000
0100
0000
0010
1000
0001
0010
,  // measure 25
0100
1000
1M0M
0010
1000
0100
0010
0001
1000
0001
M0M1
0100
0020
0000
0000
0000
,  // measure 26
2030
0000
0000
0000
0000
0000
0000
0000
3200
0000
0000
0000
0000
0000
0000
0000
0302
0000
0000
0000
0000
0000
0000
0003
1100
0000
0000
0000
0000
0000
1010
0000
,  // measure 27
0000
0000
0000
0000
0000
0000
1100
0000
0000
0000
0000
0000
0101
0000
0000
0000
0011
0000
0000
0000
0101
0000
0000
0000
1001
0000
0000
0000
0000
0000
0000
0000
0000
0000
0000
0000
0001
0000
0000
0100
0000
0000
1000
0000
0000
0200
0000
0000
,  // measure 28
0000
0302
0000
0023
0000
1030
0010
0001
1000
000M
0000
0000
0001
0010
1000
0020
,  // measure 29
0000
0032
0000
0203
0000
1300
0100
0001
1000
00M0
0000
0M00
0010
1000
0100
0002
,  // measure 30
0000
0000
0100
0000
0000
0000
1000
0000
0003
0000
0100
0000
0010
0000
0001
0000
0200
0000
M0M0
0000
0000
0300
0000
0000
0100
0000
0001
0000
0010
0000
2000
0000
,  // measure 31
0000
0000
0000
0010
0000
0000
0000
0000
0000
0001
0000
0000
3010
0000
0000
0000
0001
0000
0000
0000
0100
0000
0000
0000
0110
0000
0000
0000
0000
0000
1001
0000
0000
0000
0000
0000
MM1M
0000
0000
1000
0000
0000
0100
0000
0000
0001
0000
0000
,  // measure 32
M0M0
0100
1000
0010
MM0M
0010
1000
0100
0001
0000
MMMM
0000
1000
0010
0001
0100
,  // measure 33
M0MM
0100
0001
0010
MM0M
0010
0001
0100
1000
0000
MMMM
0000
2200
0000
0000
0000
,  // measure 34
00MM
0000
3000
0300
M000
0000
2M00
3200
,  // measure 35
0302
0000
0000
0000
0023
0000
0000
0000
2030
0000
0000
0000
3020
0000
0000
0000
0032
0000
0000
0000
0003
0000
0100
0001
2000
0000
0000
0000
0000
0000
0000
0000
,  // measure 36
0010
0000
0100
0000
0100
0000
3000
0000
1001
0100
000M
0200
0000
0000
0301
0000
,  // measure 37
0020
0000
0000
0000
0000
0000
0000
0000
0000
0000
0000
0000
0130
0000
1000
0000
0001
0000
0000
0000
0000
0000
0000
0000
0000
0000
0000
0000
0000
0000
0000
0000
0202
0000
0000
0303
0000
0000
0000
0000
0M0M
0000
0000
0000
0022
0000
0000
0033
0000
0000
0000
0000
00MM
0000
0000
0000
0202
0000
0000
0303
0000
0000
0000
0000
,  // measure 38
010M
0000
0000
0000
0000
0000
0000
0000
0000
0000
0000
0000
0000
0000
0000
0000
0001
0000
0000
0000
0000
0000
0000
0000
0000
0000
0000
0000
0000
0000
0000
0000
0010
0000
0000
0000
0000
0000
0000
0000
0000
0000
0000
0000
0000
0000
0000
0000
0100
0000
0000
0000
0000
0000
1000
0000
0000
0000
0000
0000
0100
0000
0000
0000
0000
0000
1000
0000
0000
0000
0000
0000
0100
0000
0000
0000
0000
0000
1000
0000
0000
0000
0000
0000
0100
0000
0000
0000
0000
0000
1000
0000
0000
0000
0000
0000
0001
0000
0000
0000
0000
0000
0000
0000
0000
0000
0000
0000
0010
0000
0000
0000
0000
0000
0000
0000
0000
0000
0000
0000
0100
0000
0000
0000
0000
0000
0000
0000
0000
0000
0000
0000
1000
0000
0000
0000
0000
0000
0000
0000
0000
0000
0000
0000
0010
0000
0000
0000
0000
0000
0000
0000
0000
0000
0000
0000
0100
0000
0000
0000
0000
0000
0000
0000
0000
0000
0000
0000
0010
0000
0000
0000
0000
0000
0000
0000
0000
0000
0000
0000
M01M
0000
0000
0000
0000
0000
0000
0000
0000
0000
0000
0000
,  // measure 39
0100
0001
0010
0100
1000
0010
0100
M10M
0010
1000
0100
0010
0001
0100
1000
0200
,  // measure 40
0000
0010
0010
0010
0310
0000
0100
0000
0001
0010
0001
0100
0010
1000
0100
M10M
,  // measure 41
0010
0001
0100
0010
1000
0100
0010
M01M
0200
0000
0000
0000
2300
0000
0000
0000
,  // measure 42
3020
0000
0000
0000
0000
0000
1030
0001
0010
0000
0000
0000
0000
0000
0000
0000
M001
0000
0010
0000
0100
0000
1000
0000
0010
0000
0100
0000
0001
0000
0MM1
0000
,  // measure 43
1000
0010
1000
0100
0010
0001
1000
1MM0
0001
0010
0100
1000
0MM1
0100
1000
0200
,  // measure 44
0000
0010
0010
0010
0310
0000
0100
0000
0010
1000
0001
0010
0100
1000
1M0M
0010
,  // measure 45
1000
0100
0010
0001
1000
0001
M0M1
0100
0020
0000
0000
0000
2030
0000
0000
0000
,  // measure 46
3200
0000
0000
0000
0000
0000
0000
0000
0302
0000
0000
0000
0000
0000
0000
0003
1100
0000
0000
0000
0000
0000
1010
0000
0000
0000
0000
0000
1100
0000
0000
0000
,  // measure 47
0101
0011
0101
1001
0000
0000
0000
0000
0000
0000
0000
0000
;

//---------------dance-single - Copied from Copied f----------------
#NOTES:
     dance-single:
     Copied from Copied f:
     Medium:
     6:
     0.452,0.430,0.056,0.316,0.242:
2000
0000
3001
1000
0200
0000
0010
0300
,
1000
0000
0001
1000
0020
0000
0100
0030
,
1000
0000
0001
0010
0200
0000
0010
0300
,
0100
1000
0010
0100
0010
0001
0010
1000
,
0200
0000
00M0
0310
,
0010
0001
0100
0010
0001
0010
1000
0000
,
0100
1000
0010
0100
1000
0100
0001
0000
,
1000
0100
0001
0100
2000
3020
0032
2003
,
3001
0010
1000
0100
0001
0100
1000
0000
,
0001
0100
0010
0001
0010
1000
0100
0000
,
0010
0001
0100
0010
0001
0010
1000
0000
,
0200
0310
0200
2300
0002
0000
3003
0000
,
0001
0100
0000
0010
0000
0100
0000
0010
0000
1000
0100
0000
0010
0000
0000
0000
,
0001
0010
0000
0100
0000
0010
0000
0100
0000
0010
0001
0000
1000
0000
0000
0000
,
0020
0000
0000
0030
,
0000
1000
0100
0010
1000
0010
0002
0000
,
0203
0000
0010
0000
0010
0300
1001
0000
,
0000
0000
0001
1000
0100
0000
0010
0001
,
0100
M00M
0100
0000
0010
0000
1000
0000
0100
M00M
0100
0000
0010
0000
0001
0000
,
0100
0000
1000
0000
0100
0000
0010
M00M
0010
0000
1000
0000
0100
0000
0001
0000
,
0100
0100
0010
0001
0100
0100
2000
0000
,
3200
0000
0302
0013
0100
0000
1000
0010
,
0100
M00M
0100
0000
0001
0000
0010
0000
0100
M00M
0100
0000
0010
0000
0001
0000
,
0100
0000
1000
0000
0100
0000
0010
M00M
0010
0000
1000
0000
0100
0000
0001
0000
,
0100
0100
0010
0001
0100
0100
2000
0000
,
3200
0000
0000
0000
0302
0000
0000
0000
0023
0000
0000
0000
0130
0000
0000
0010
,
0000
0000
0000
0001
0000
0000
0100
0000
0010
0000
0100
0000
0010
0000
0000
0000
0000
0000
1000
0000
0000
0010
0000
0000
,
1000
0100
0001
1000
0010
0000
0001
0010
,
0001
0000
0100
0000
1000
0000
0001
0000
0010
0000
0000
0000
1000
0001
0000
0010
,
0000
0001
0000
0100
0000
0010
1000
0000
1001
0000
0MM0
0000
0001
1000
0000
0010
,
0000
0000
0000
1000
0000
0000
0000
0000
0000
0100
0000
0000
0010
0000
0000
0000
0001
0000
0000
0000
0010
0000
0000
0000
0001
0000
0000
0000
0000
0000
0000
0000
0000
0000
0000
0000
1000
0000
0000
0010
0000
0000
0000
0000
0000
0100
0000
0000
,
0000
0010
0000
0100
0000
0001
0010
0000
0100
0000
0000
0000
1000
0100
0000
0010
,
0000
0100
0000
0010
0000
0100
1000
0000
0001
0000
0000
0000
0200
0000
0000
0000
,
0000
0000
0000
0000
0300
0000
0000
0001
,
0010
0100
0001
0100
2000
0000
3020
0000
,
0100
0100
0100
0030
1001
0000
0000
0000
,
0010
0000
0000
0000
0000
0000
1000
0000
0000
0000
0000
0000
0200
0000
0000
0000
0000
0000
0000
0000
0300
0000
0000
0000
0011
0000
0000
0000
0000
0000
0000
0000
0000
0011
0000
0000
0000
0000
0000
0000
0000
0000
0011
0000
0000
0000
0000
0000
,
0001
0000
0000
0000
0010
0000
0000
0000
0001
0000
0000
0000
0010
0000
0000
0000
0000
0000
0000
0000
0000
0000
0000
0000
0100
0000
0000
0000
0000
0000
1000
0000
0000
0000
0000
0000
0010
0000
0000
M00M
0000
0000
0010
0000
0000
0000
0000
0000
,
0100
0000
0001
0000
0010
M00M
0010
0000
0100
0000
1000
0000
0010
0000
0001
0000
,
0010
0000
0100
M00M
0100
0000
0001
0000
0010
0000
1000
0000
0010
0000
0010
0000
,
0100
1000
0010
0010
0002
0000
0023
0000
,
2030
0000
3100
0000
0010
0000
0000
0000
0001
0000
0100
0000
0010
M00M
0010
0000
,
1000
0000
0100
0000
0010
M00M
0010
0000
0100
0000
1000
0000
0010
0000
0001
0000
,
0010
0000
0100
M00M
0100
0000
0001
0000
0010
0000
1000
0000
0010
0000
0010
0000
,
0100
1000
0010
0001
0020
0000
2030
0000
,
3200
0000
0000
0000
0320
0000
0000
0000
0031
0000
0000
0100
0000
0000
0001
0000
,
1000
0100
0010
0001
0000
0000
0000
0000
0000
0000
0000
0000
;

//---------------dance-single - Copied from Copied f----------------
#NOTES:
     dance-single:
     Copied from Copied f:
     Easy:
     4:
     0.306,0.323,0.102,0.177,0.172:
0010
1000
0100
0000
,
0010
0001
0100
0000
,
0001
1000
0100
0000
,
0001
1000
0100
0100
,
1001
0000
0000
0000
,
0001
0010
0100
0100
,
0010
0001
0100
0100
,
0010
0000
1000
0000
0001
1000
0001
1000
,
0001
0000
1000
0000
0010
1000
0010
0000
,
1000
0000
0100
0000
0010
0001
0010
0000
,
0001
0000
0100
0000
0010
1000
0010
0000
,
1000
0001
1000
0001
1000
0000
0000
0000
,
0001
0000
0100
0000
0010
1000
0100
0000
,
0010
0000
0001
0000
1000
0010
0100
0000
,
0002
0003
0000
0000
,
0000
0001
1000
0001
0010
0100
0010
0000
,
0001
0100
0010
1001
,
0000
0000
0000
0000
1000
0000
0000
0000
0001
0000
0000
0000
0100
0000
0000
0001
,
0000
1000
0000
0000
0010
0000
0000
1000
0000
0001
0000
0000
0010
0000
0000
0001
,
0000
1000
0000
0020
0000
0000
0000
0000
0000
0000
0130
0000
0100
0000
0000
0001
,
0000
0000
1000
0000
0100
0000
0000
1000
0000
0000
0001
0000
0020
0000
0000
0000
,
0032
0000
0000
0000
2003
0000
0000
0000
3001
0000
0000
0000
0010
0000
0000
0001
,
0000
1000
0000
0000
0010
0000
0000
1000
0000
0001
0000
0000
0010
0000
0000
0001
,
0000
1000
0000
0020
0000
0000
0000
0000
0000
0000
0130
0000
0100
0000
0000
0001
,
0000
0000
1000
0000
0010
0000
0000
1000
0000
0000
0001
0000
0020
0000
0000
0000
,
0032
0203
0310
1001
,
0000
0100
0010
1010
,
0000
1000
0100
0011
,
0000
0001
0100
1010
,
0000
1000
0100
0110
,
0000
1001
0000
0001
,
0100
0000
0010
1000
0100
0000
0010
0000
,
0001
0000
0100
0010
1000
0000
0002
0000
,
0003
0000
0000
0000
0000
0000
0000
1000
,
0001
1000
0100
0010
0100
0000
1000
0000
,
0010
0100
1001
0000
,
0001
0100
1010
0000
,
1000
0000
0000
0000
0100
0000
0000
0000
0010
0000
0000
0001
0000
0100
0000
0000
,
0010
0000
0000
1000
0000
0100
0000
0000
0010
0000
0000
0001
0000
0100
0000
0020
,
0000
0000
0000
0000
0000
0000
0130
0000
0100
0000
0000
0010
0000
0000
1000
0000
,
0100
0000
0000
0010
0000
0000
0001
0000
0200
0000
0000
0000
0320
0000
0000
0000
,
2030
0000
0000
0000
3001
0000
0000
0000
0100
0000
0000
0010
0000
1000
0000
0000
,
0100
0000
0000
0010
0000
0001
0000
0000
0100
0000
0000
0010
0000
1000
0000
0200
,
0000
0000
0000
0000
0000
0000
0310
0000
0010
0000
0000
0001
0000
0000
0100
0000
,
0010
0000
0000
1000
0000
0000
0100
0000
0020
0000
0000
0000
0032
0000
0000
0000
,
0203
0000
0000
0000
0320
0000
0000
0000
1030
0000
0000
0001
0000
0000
1000
0000
,
0001
0110
0000
0000
;

//---------------dance-single - Copied from Copied f----------------
#NOTES:
     dance-single:
     Copied from Copied f:
     Beginner:
     2:
     0.159,0.172,0.093,0.000,0.000:
0100
0000
0100
0000
,
0010
0000
0010
0000
,
1000
0000
0001
0000
,
0100
0100
0100
0100
,
0100
0000
0000
0000
,
0001
0000
1000
0000
,
0010
0000
1000
0000
,
0010
0010
0010
0010
,
1000
0000
0001
0000
,
0010
0000
0001
0000
,
1000
0000
0001
0000
,
0100
0100
0100
0000
,
0110
0000
0000
1000
,
0001
0000
0000
0001
,
1000
0000
0000
0000
,
0000
0010
0010
0100
,
0000
0000
0000
1001
,
0000
0000
0000
0001
,
0001
1000
1000
0010
,
0010
0010
0000
1000
,
1000
0001
0001
0010
,
0000
0010
0000
0001
,
0001
1000
1000
0100
,
0100
0100
0000
1000
,
1000
0001
0001
0100
,
0010
0100
0010
0100
,
0000
0000
0000
1001
,
0000
0000
0000
0011
,
0000
0000
0000
1010
,
0000
0000
0000
1001
,
0000
0000
0000
1001
,
0000
0000
0001
1000
,
0000
0000
1000
0001
,
0000
0000
0000
0000
,
0010
0010
0100
0000
,
0000
0000
1001
0000
,
0000
0000
0110
0000
,
0000
0000
1000
1000
,
0001
0001
0010
0010
,
0010
0000
0001
0001
,
1000
1000
0010
0000
,
0010
0000
1000
1000
,
0001
0001
0100
0100
,
0100
0000
0001
0001
,
1000
1000
0100
0010
,
0100
0010
0100
0000
,
0000
1001
0000
0000
;
