#TITLE:To Make the End of Battle;
#SUBTITLE:(Chronicles Version);
#ARTIST:古代祐三;
#TITLETRANSLIT:;
#SUBTITLETRANSLIT:;
#ARTISTTRANSLIT:Yuzo Koshiro;
#CREDIT:;
#BANNER:Ys_banner.JPG;
#BACKGROUND:Ys-1-2-Chronicles.jpg;
#LYRICSPATH:;
#CDTITLE:CD_Title.png;
#MUSIC:To make the End of Battle (Chronicles Version).mp3;
#OFFSET:-0.380;
#SAMPLESTART:14.800;
#SAMPLELENGTH:16.560;
#SELECTABLE:YES;
#BPMS:0.000=232.401,296.000=58.100,303.000=232.401;
#STOPS:;
#BGCHANGES:0.000=Ys II Opening with Ys II Chronicles music.avi=1.000=1=1=0,
99999=-nosongbg-=1.000=0=0=0 // don't automatically add -songbackground-
;

//---------------dance-single - ----------------
#NOTES:
     dance-single:
     :
     Easy:
     5:
     0.403,0.450,0.035,0.265,0.000:
0000
0000
0000
0000
,
0000
0000
0000
0000
,
1000
0001
0000
0000
,
0100
0100
0010
1000
,
0002
0003
0200
0300
,
0010
1000
0001
0010
,
0001
0000
0000
1000
0000
0000
0001
0000
,
0100
0100
0010
1000
,
0001
0000
0000
1000
0000
0000
0001
0000
,
0010
0010
0001
1000
,
0002
0003
0000
1000
,
0020
0030
0000
0100
,
0001
1000
0001
1000
,
0200
0000
0310
0001
,
1000
0000
0001
1000
0000
0000
0000
0000
,
0000
0000
0010
0100
,
0010
0000
1000
0001
0000
0000
0000
0000
,
0000
0000
0100
0010
,
1000
0000
0000
0001
0000
0000
1000
0000
,
0010
0000
0000
0100
0000
0000
0010
0000
,
1000
0000
0000
0100
0000
0000
1000
0000
,
0001
0000
0000
0100
0000
0000
0001
0000
,
2000
0000
3000
0000
,
0001
0010
0100
1000
,
0010
0000
0000
0100
0000
0000
0010
0000
,
1000
0000
0000
0001
0000
0000
1000
0000
,
0001
0100
0010
1000
,
1000
0010
0100
0001
,
0001
0010
0100
1000
,
0001
0000
0000
0000
,
1000
0000
0010
0100
0000
0000
0000
0000
,
0000
0000
0001
1000
,
0001
0000
0100
0010
0000
0000
0000
0000
,
0000
0000
1000
0001
,
1000
0000
0000
0010
0000
0000
1000
0000
,
0001
0000
0000
0010
0000
0000
0001
0000
,
1000
0000
0000
0100
0000
0000
0010
0000
,
0001
0000
0000
0100
0000
0000
0010
0000
,
2000
0000
3000
0000
,
0001
0100
0010
1000
,
0001
0000
0000
0100
0000
0000
0001
0000
,
1000
0000
0000
0100
0000
0000
1000
0000
,
0001
0010
0100
1000
,
1000
0100
0010
0001
,
2000
3000
0002
0003
,
0200
0300
0020
0030
,
1002
0003
0001
1000
,
0100
0100
0010
0000
,
0001
0100
0010
0010
,
1000
0001
0100
0000
,
2001
3000
1000
0001
,
0010
0010
0001
0000
,
2000
3000
0010
0100
,
0002
0003
2000
3000
,
0001
0000
0000
0001
0000
0000
0001
0000
,
0000
0001
0000
0000
0001
0000
1000
0000
,
0100
0000
0000
0100
0000
0000
0100
0000
,
0000
0100
0000
0000
0100
0000
1000
0000
,
0010
0000
0000
0100
0000
0000
0010
0000
,
0000
0100
0000
0000
0010
0000
1000
0000
,
0001
0000
0000
0010
0000
0000
0100
0000
,
0000
1000
0000
0000
0010
0000
0100
0000
,
0001
1000
0001
1000
,
0010
0100
0010
0100
,
0001
0010
0100
1000
,
1000
0100
0010
0001
,
2000
0000
3000
0000
,
0001
0000
0100
0000
,
0020
0000
0030
0000
,
1000
0000
0001
0000
,
0020
0000
0030
0000
,
0002
0000
0003
0000
,
1000
0000
0001
0000
,
0100
0000
0000
0010
0000
0000
1000
0000
,
0002
0003
2000
3000
,
0010
0010
0010
1000
,
0000
0001
0000
2000
,
0000
3000
0000
0001
,
0100
0010
1000
0001
,
0000
0100
0000
0000
0001
0000
1000
0000
,
0000
0100
0000
0000
1000
0000
0001
0000
,
0010
0100
1000
1000
,
0100
0010
0001
1000
,
0010
0100
0002
2000
,
0003
3000
0000
0001
,
0100
0010
0000
0000
0000
0000
0000
0000
,
0000
1000
0010
0100
,
0001
0010
0000
0000
0000
0000
0000
0000
,
0000
0001
1000
0010
,
0000
0100
0000
0000
0001
0000
0010
0000
,
0000
0100
0000
0000
1000
0000
0010
0000
,
0000
0100
0000
0000
0001
0000
1000
0000
,
0000
0010
0000
0000
0100
0000
0002
0000
,
0000
0003
0000
1000
,
0100
0010
0001
1000
,
0000
0001
0000
0000
0100
0000
0001
0000
,
0000
1000
0000
0000
0010
0000
1000
0000
,
0100
0010
0001
0001
,
0010
0100
1000
0002
,
0003
0200
0300
0020
,
0030
2000
3000
1001
,
0000
0110
0000
0000
1000
0001
0000
0000
;

//---------------dance-single - Copied from----------------
#NOTES:
     dance-single:
     Copied from:
     Medium:
     7:
     0.598,0.899,0.434,0.292,0.035:
0000
0000
0000
0000
,
0000
0000
0000
0000
,
1001
0000
0001
1000
0000
0000
0100
0000
,
0100
0000
0010
0000
0100
1000
0001
0000
,
0200
0000
0000
0300
0020
0000
0000
0030
,
1000
0010
0100
0001
,
1001
0000
0010
0100
0000
0000
0100
0000
,
0010
0000
0010
0000
1000
0001
0010
0000
,
0110
0000
0001
1000
0000
0000
0100
0000
,
0100
0000
0010
0000
0001
1000
0010
0000
,
0200
0000
0010
0000
0310
0000
0100
1000
,
0002
0000
1000
0000
1003
0000
0001
0100
,
0010
1000
0100
0010
,
0011
0000
0001
1000
,
1000
0010
1000
0001
0000
0000
0000
0000
,
0000
0000
0001
0100
,
0001
0010
0001
1000
0000
0000
0000
0000
,
0000
0000
1000
0010
,
0110
0000
0000
1010
0000
0000
1100
0000
,
1001
0000
0000
0101
0000
0000
0011
0000
,
1001
0000
0000
1010
0000
0000
1100
0000
,
1001
0000
0000
0011
0000
0000
0101
0000
,
0120
0100
0100
0130
,
0010
1000
0100
0000
0010
0000
0001
0100
,
0010
0000
0000
1000
0000
0000
0100
0000
,
0110
0000
0000
0010
0000
0000
0001
0000
,
1000
0001
1000
0000
0010
0000
0100
0000
,
0001
1000
0001
0000
0100
0000
0010
0000
,
1000
0001
1000
0000
0010
0100
0010
0100
,
0001
0000
0000
0000
,
1000
0001
1000
0010
0000
0000
0000
0000
,
0000
0000
0001
0010
,
0001
1000
0001
0010
0000
0000
0000
0000
,
0000
0000
1000
0010
,
1010
0000
0000
1100
0000
0000
0011
0000
,
1001
0000
0000
0011
0000
0000
1100
0000
,
1001
0000
0000
1010
0000
0000
0101
0000
,
1001
0000
0000
0011
0000
0000
0101
0000
,
0210
0010
0010
0310
,
0010
1000
0100
0000
0010
0000
0001
0100
,
0010
0000
0000
1000
0000
0000
0001
0000
,
0010
0000
0000
0001
0000
0000
1000
0000
,
0010
1000
0100
0000
0010
0000
0001
0000
,
0100
0010
1000
0000
0001
0000
0100
0010
,
2000
0000
0000
3000
0002
0000
0000
0003
,
0200
0000
0000
0300
0020
0000
0000
0030
,
1010
0000
1000
0000
0001
0100
0001
2000
,
0000
0000
3100
0000
0100
0010
0000
0011
,
0000
0001
0100
0010
,
1000
0000
0100
0000
0010
0001
0000
0000
,
0011
0000
0001
0000
1000
0010
1000
0002
,
0000
0000
0013
0000
0010
0001
0000
2000
,
0000
3000
0010
0100
,
0002
0003
2000
3000
,
0001
0100
0000
0100
0001
0000
0001
0100
,
0000
0100
0001
0000
1000
0000
0010
0000
,
1000
0001
0000
0001
1000
0000
1000
0001
,
0000
0001
1000
0000
0010
0000
0100
0000
,
0010
1000
0000
1000
0010
0000
0010
1000
,
0000
1000
0010
0000
0100
0000
0001
0000
,
0010
0001
0000
0001
0010
0000
0010
0001
,
0000
0001
0010
0000
0001
0000
1000
0000
,
0010
0100
0001
1000
,
0100
0010
0001
1000
,
0010
0100
0001
1000
,
0010
0100
0001
1000
,
0020
0000
0000
0000
,
0230
0000
0302
0000
,
2003
0000
3000
0000
,
0001
0000
0100
0000
0010
1000
0001
0000
,
0200
0000
0310
1000
,
0002
0000
0103
0010
,
1000
0001
1000
0000
0010
0000
0100
0010
,
0100
0000
0001
1000
,
0002
0000
0000
0000
0000
0000
0000
0000
1003
0000
0000
0000
1000
0000
0010
0000
0200
0000
0000
0000
0000
0000
0000
0300
0010
0000
0000
0000
0010
0000
1000
0000
,
0001
0000
0000
0010
0000
0000
0001
0000
1000
0000
0000
0010
0000
0000
1000
0000
0010
0000
0000
0100
0000
0000
0001
0000
1000
0000
0000
0000
0000
0000
0000
0000
,
0000
0100
0000
0000
1000
0000
0002
0000
,
0010
0000
0010
0000
0013
0000
0001
0100
,
0010
0000
1000
0000
0010
0100
0002
0000
,
0000
2003
0000
0000
3010
0000
2000
0000
,
0000
3002
0000
0000
0013
0000
0001
0100
,
0010
0000
1000
0000
0001
0000
0100
0010
,
1000
0000
0001
0000
1000
0000
0010
0100
,
0010
0000
1000
0001
1000
0001
0010
0000
,
0000
0000
0000
0000
0000
0000
0001
0010
,
0001
1000
0000
0000
0000
0000
0000
0000
,
0000
0000
1000
0000
0010
0000
1000
0010
,
1000
0001
0000
0000
0000
0000
0000
0000
,
0000
0001
0010
0011
,
0000
0101
0000
0000
1010
0000
1100
0000
,
0000
1010
0000
0000
0101
0000
0011
0000
,
0000
1010
0000
0000
1100
0000
0011
0000
,
0000
0101
0000
0000
1010
0000
0120
0000
,
0100
0000
0100
0000
0130
0000
0010
1000
,
0100
0000
0010
0000
0001
0100
0010
0000
,
0000
1000
0000
0000
0100
0000
0010
0000
,
0000
0001
0000
0000
0100
0000
0010
1000
,
0001
0000
0010
0000
0001
1000
0010
0000
,
0100
0000
0001
0010
0100
0000
2000
0000
,
3010
0020
0130
0200
,
0301
0002
1003
1001
,
0000
0110
0000
0000
0010
0010
0000
0000
;

//---------------dance-single - Copied from Copied f----------------
#NOTES:
     dance-single:
     Copied from Copied f:
     Hard:
     9:
     0.842,1.000,0.257,0.699,0.080:
0000
0000
0000
0000
,
0000
0000
0000
0110
,
1000
0010
0100
0001
0000
0000
0100
0000
,
0001
0000
1000
0000
0010
0100
0001
0000
,
2000
0000
0100
3000
0002
0000
0100
0003
,
1000
0010
0100
0001
0010
0100
1000
0000
,
0001
0100
0010
2000
3000
1000
0010
0100
,
0001
0010
0100
1000
0100
0010
0001
1000
,
0010
0100
0001
2000
3000
1000
0010
0100
,
0001
0010
0100
1000
0100
0010
0001
1000
,
0002
0000
0100
0000
0100
0000
0103
0001
,
2000
0000
0100
0000
0100
0000
3100
1000
,
0001
1000
0001
0100
0010
1000
0100
0010
,
0002
0000
2003
3020
,
1030
0010
1000
0002
0000
1003
0001
0000
,
0001
1000
0000
1000
0010
0100
0001
0010
,
0100
0010
0001
2000
0000
3001
0010
0000
,
0010
0001
0000
0001
1000
0010
0100
0001
,
1001
0000
0001
0100
0000
0010
1000
0000
,
1001
0000
1000
0010
0000
0100
0001
0000
,
0101
0000
0001
0100
0000
0010
1000
0000
,
1100
0000
1000
0010
0000
0100
0001
0000
,
0012
0000
0010
0000
0010
0000
0010
0003
,
0010
0001
0010
0001
0100
0010
1000
0100
,
0020
0000
0000
0032
0000
0000
0203
0000
,
2300
0000
0000
3200
0000
0000
0302
0000
,
0013
0001
0100
0010
1000
0100
0010
0001
,
0010
0001
0100
0010
1000
0100
0010
0001
,
0100
0010
1000
0100
0010
0100
1000
0001
,
0020
0000
0030
0000
,
0001
0010
0001
2000
0000
3001
1000
0000
,
1000
0001
0000
0001
0100
0010
1000
0100
,
0010
0100
1000
0002
0000
1003
0001
0000
,
0001
0100
0000
0100
0010
1000
0100
0010
,
0011
0000
0001
0100
0000
0010
1000
0000
,
1010
0000
1000
0100
0000
0010
0001
0000
,
1001
0000
0100
0010
0000
1000
0001
0000
,
0110
0000
1000
0001
0000
0100
0010
0000
,
2100
0000
0100
0000
0100
0000
0100
3000
,
0100
1000
0010
0100
0001
0010
0100
0010
,
0002
0000
0000
0203
0000
0000
2300
0000
,
3200
0000
0000
0302
0000
0000
0023
0000
,
0031
0100
0001
0100
0010
1000
0100
0010
,
0001
0100
0001
0100
0010
1000
0100
0010
,
0002
0000
0100
0003
0020
0000
1000
0030
,
2000
0000
0010
3000
0020
0000
0001
0030
,
1001
0000
1000
0000
0010
0100
0010
1000
,
0000
1000
0001
0000
0010
0100
0000
0110
,
0000
0000
0010
0000
0001
1000
0000
1001
,
0000
0000
0001
0000
0100
0010
0000
0000
,
1001
0000
0001
0000
1000
0010
0100
0010
,
0000
0100
0001
0000
0010
0001
0000
1002
,
0000
1003
0010
0100
,
0110
1001
0110
0000
,
1000
0010
1000
0010
0100
0010
0100
0001
,
0100
0001
1000
0001
2000
0000
3001
0000
,
0001
0100
0001
0100
0010
0100
0010
1000
,
0010
1000
0100
1000
0002
0000
1003
0000
,
1000
0010
0100
0001
0010
0100
0010
0001
,
0100
0010
1000
0100
0020
0000
0032
0000
,
0103
0010
1000
0100
0010
0001
0010
0100
,
1000
0010
0100
0001
2000
0000
3020
0000
,
0130
0001
0100
0001
0010
0100
0010
0100
,
1000
0100
1000
0100
0010
0001
0010
0001
,
0100
0010
1000
0100
0010
0001
0010
0100
,
1000
0001
0100
0010
1000
0001
1000
0100
,
0020
0000
0000
0000
,
0032
0000
0000
0000
2003
0000
0000
3000
,
0220
0000
0330
0000
,
2000
0000
3002
0000
,
0023
0000
0000
0031
,
0200
0000
0000
0310
,
1000
0001
1000
0001
,
0200
0000
0310
1000
,
0001
0100
0001
1000
0000
0000
0000
0000
0000
0000
0000
0000
1000
0010
0100
0001
0010
0001
1000
0010
0000
0000
0000
0000
0000
0000
0000
0000
0100
0001
0010
0100
,
2000
0000
0000
3020
0000
0000
0032
0000
0023
0000
0000
2030
0000
0000
3200
0000
0320
0000
0000
2030
0000
0000
3020
0000
0031
0000
0000
0000
1000
0000
0000
0000
,
0001
1000
0010
0100
0001
1000
1002
0000
,
0100
0000
0100
0000
0100
0003
0100
0010
,
1000
0100
0010
0001
0010
0100
2000
0000
,
0000
3002
0000
0000
0203
0000
2300
0000
,
0000
3200
0000
0000
0302
0000
0013
0100
,
0010
0100
0010
0001
0100
0010
1000
0010
,
1000
0010
0100
0001
0010
0100
0010
0001
,
1000
0010
0100
0001
0010
0100
2000
0000
,
0000
0000
3000
0000
0000
0000
0001
0100
,
0010
0200
0300
0100
0010
0000
0010
1000
,
0000
1000
0100
0010
0001
0010
0001
1000
,
0001
2000
3000
1000
0001
0000
0001
0100
,
0000
0100
0010
1000
0100
0010
0011
0000
,
0001
0100
0000
0010
1000
0000
1010
0000
,
1000
0010
0000
0100
0001
0000
1001
0000
,
0010
0100
0000
0001
1000
0000
0110
0000
,
1000
0001
0000
0100
0010
0000
2001
0000
,
0010
0000
0010
0000
0010
3000
0010
0100
,
0001
1000
0100
0010
0001
0100
0020
0000
,
0000
2030
0000
0000
3200
0000
0302
0000
,
0000
0203
0000
0000
2300
0000
3010
0100
,
0001
0100
0010
1000
0100
0010
0001
0010
,
0001
0100
0010
1000
0100
0010
0002
0000
,
0100
0003
0200
0000
1000
0300
2000
0000
,
0001
3000
0002
0000
0010
0003
1010
0000
,
0000
1100
0000
0000
0001
0011
0000
0000
;

//---------------dance-single - Copied from ----------------
#NOTES:
     dance-single:
     Copied from:
     Beginner:
     2:
     0.220,0.315,0.115,0.265,0.000: // measure 1
0000
0000
0000
0000
,  // measure 2
0000
0000
0000
0000
,  // measure 3
0001
0000
0000
0000
,  // measure 4
1000
0000
0000
0000
,  // measure 5
0100
0000
0000
0000
,  // measure 6
0100
0000
0000
0000
,  // measure 7
1000
0000
0000
0000
,  // measure 8
0001
0000
1000
0000
,  // measure 9
0001
0000
0000
0000
,  // measure 10
1000
0000
0010
0000
,  // measure 11
2000
0000
3000
0000
,  // measure 12
0002
0000
0003
0000
,  // measure 13
0100
0000
0100
0000
,  // measure 14
0010
0000
1000
0000
,  // measure 15
0002
0000
0003
0000
,  // measure 16
0000
0000
0001
0000
,  // measure 17
2000
0000
3000
0000
,  // measure 18
0000
0000
0001
0000
,  // measure 19
0100
0000
0000
0000
,  // measure 20
0010
0000
0000
0000
,  // measure 21
1000
0000
0000
0000
,  // measure 22
0001
0000
0000
0000
,  // measure 23
0020
0000
0030
0000
,  // measure 24
0001
0000
1000
0000
,  // measure 25
0001
0000
0000
0000
,  // measure 26
1000
0000
0000
0000
,  // measure 27
0020
0000
0030
0000
,  // measure 28
2000
0000
3000
0000
,  // measure 29
0100
0000
0010
0000
,  // measure 30
0001
0000
0000
0000
,  // measure 31
2000
0000
3000
0000
,  // measure 32
0000
0000
0001
0000
,  // measure 33
0020
0000
0030
0000
,  // measure 34
0000
0000
0001
0000
,  // measure 35
1000
0000
0000
0000
,  // measure 36
0010
0000
0000
0000
,  // measure 37
0100
0000
0000
0000
,  // measure 38
0001
0000
0000
0000
,  // measure 39
2000
0000
3000
0000
,  // measure 40
0001
0000
1000
0000
,  // measure 41
0001
0000
0000
0000
,  // measure 42
1000
0000
0000
0000
,  // measure 43
0200
0000
0300
0000
,  // measure 44
0020
0000
0030
0000
,  // measure 45
0001
0000
0010
0000
,  // measure 46
0100
0000
1000
0000
,  // measure 47
0002
0000
0003
0000
,  // measure 48
0001
0000
1000
0000
,  // measure 49
0200
0000
0300
0000
,  // measure 50
0100
0000
1000
0000
,  // measure 51
0020
0000
0030
0000
,  // measure 52
0010
0000
0100
0000
,  // measure 53
0002
0000
0003
0000
,  // measure 54
1000
0000
0001
0000
,  // measure 55
1001
0000
0000
0000
,  // measure 56
0000
0000
0000
0000
,  // measure 57
1100
0000
0000
0000
,  // measure 58
0000
0000
0000
0000
,  // measure 59
0011
0000
0000
0000
,  // measure 60
0000
0000
0000
0000
,  // measure 61
1001
0000
0000
0000
,  // measure 62
0000
0000
0000
0000
,  // measure 63
0001
0000
0001
0000
,  // measure 64
1000
0000
1000
0000
,  // measure 65
0010
0000
0010
0000
,  // measure 66
0100
0000
0100
0000
,  // measure 67
0002
0000
0003
0000
,  // measure 68
1000
0000
0001
0000
,  // measure 69
2000
0000
3000
0000
,  // measure 70
0010
0000
0100
0000
,  // measure 71
0020
0000
0030
0000
,  // measure 72
2000
0000
3000
0000
,  // measure 73
0001
0000
1000
0000
,  // measure 74
0020
0000
0030
0000
,  // measure 75
1000
0000
0001
0000
,  // measure 76
0100
0100
0100
0010
,  // measure 77
0000
0000
0000
1001
,  // measure 78
0000
0000
0000
1000
,  // measure 79
0000
0001
0000
0100
,  // measure 80
0000
0100
0000
0001
,  // measure 81
0000
1000
0000
0020
,  // measure 82
0000
0030
0000
0200
,  // measure 83
0000
0300
0000
0001
,  // measure 84
0000
0010
0000
0200
,  // measure 85
0000
0300
0000
1100
,  // measure 86
0000
0000
0000
1000
,  // measure 87
0000
0010
0000
0110
,  // measure 88
0000
0000
0000
0100
,  // measure 89
0000
0001
0000
0011
,  // measure 90
0000
0000
0000
1100
,  // measure 91
0000
0000
0000
1010
,  // measure 92
0000
0000
0000
0101
,  // measure 93
0000
0000
0000
0002
,  // measure 94
0000
0003
0000
1000
,  // measure 95
0000
0010
0000
0100
,  // measure 96
0000
0100
0000
0010
,  // measure 97
0000
1000
0000
2020
,  // measure 98
0000
3030
0000
0202
,  // measure 99
0000
0303
0000
0001
,  // measure 100
0000
0010
0000
0100
,  // measure 101
0000
1000
0000
0020
,  // measure 102
0000
0000
0000
0000
0000
0130
0000
0000
;
