#TITLE:Theme of Infinite;
#SUBTITLE:Sonic Forces;
#ARTIST:SEGA/Sonic Team;
#TITLETRANSLIT:;
#SUBTITLETRANSLIT:;
#ARTISTTRANSLIT:;
#CREDIT:;
#BANNER:Sonic Forces_bn.png;
#BACKGROUND:Sonic Forces_bg.png;
#LYRICSPATH:;
#CDTITLE:CD_Title.png;
#MUSIC:Theme of Infinite.ogg;
#OFFSET:-0.220;
#SAMPLESTART:69.659;
#SAMPLELENGTH:18.640;
#SELECTABLE:YES;
#BPMS:0.000=70.000;
#STOPS:;
#BGCHANGES:;

//---------------dance-single - ----------------
#NOTES:
     dance-single:
     :
     Hard:
     8:
     0.540,0.478,0.417,0.205,0.743:
1000
0000
0100
0000
1000
0000
0010
0000
1000
0000
0100
0000
1000
0010
M010
0010
,
0001
0000
0100
0000
0001
0000
0010
0000
0001
0000
0100
0000
0001
0010
001M
0010
,
1000
0000
0100
0000
1000
0000
0010
0000
1000
0000
0100
0000
1000
0010
M010
0010
,
0001
0000
0000
0100
0000
0000
0001
0000
0000
0010
0000
0000
0001
0010
0001
0010
0000
0000
1000
0010
1000
0010
0000
0000
,
1100
0000
0000
1100
0000
0000
1000
0000
0000
0000
0001
0000
0010
0000
0000
0000
0011
0000
0000
0011
0000
0000
0001
0000
0100
0000
0010
0000
1000
0000
0000
0000
,
1100
0000
0000
1100
0000
0000
0100
0000
0000
0000
1000
0000
0010
0000
0000
0000
0110
0000
0000
0110
0000
0000
0100
0000
0001
0000
0010
0000
0100
0000
0000
0000
,
1100
0000
0000
1001
0000
0000
1000
0000
0000
0000
0001
0000
0100
0000
0000
0000
0101
0000
0000
0011
0000
0000
0001
0000
0100
0000
0010
0000
1000
0000
0000
0000
,
1100
0000
0000
1010
0000
0000
0010
0000
0000
0000
0100
0000
0001
0000
0000
0000
0011
0000
0000
0101
0000
0000
0100
0000
0010
0000
1000
0000
0100
0000
0010
0000
,
0001
0100
0001
0010
0010
0100
1000
0010
1000
1000
0100
0020
0M00
0000
0130
1000
,
0001
0001
0100
0010
0010
1000
0100
0010
0100
0100
1000
0020
M000
1030
0010
0100
,
0110
0000
0000
1010
0000
0000
1100
0000
0000
0000
0000
0000
MMMM
0000
0000
0000
1010
0000
0000
1100
0000
0000
0101
0000
0000
0000
0000
0000
MMMM
0000
0000
0000
,
0011
0000
0000
1100
0000
0000
1001
0000
0000
0000
0000
0000
MMMM
0000
0000
0000
1010
0000
0000
0101
0000
0000
0011
0000
0000
0000
0001
0000
0100
0000
0010
0000
,
0100
0001
0010
0100
0100
1000
0010
0100
0001
0010
0010
0001
0100
0010
0M10
0010
,
0100
0001
0100
0010
0010
1000
0100
0010
0001
1000
0100
M100
0100
1000
0010
0100
,
0101
0000
0000
0011
0000
0000
1001
0000
0000
0000
0000
0000
MMMM
0000
0000
0000
1100
0000
0000
0101
0000
0000
1001
0000
0000
0000
0000
0000
MMMM
0000
0000
0000
,
0011
0000
0000
1100
0000
0000
1001
0000
0000
0000
0000
0000
MMMM
0000
0000
0000
1010
0000
0000
0101
0000
0000
1001
0000
0000
0000
0001
0000
0100
0000
0010
0000
,
0200
0000
0000
0320
0000
0M00
2030
0000
00M0
0000
3001
M000
0010
0000
0001
0000
,
0100
0010
0100
0001
0010
0100
0010
0001
1000
0010
0002
0000
0000
0013
1000
0100
,
0020
0000
0000
0032
0000
00M0
0203
0000
000M
0300
0010
0M00
1000
0000
0100
0000
,
1000
0010
1000
0100
0010
0001
0100
0001
1000
0010
0002
0000
0010
0013
1000
0100
,
0010
0000
0100
0000
0010
0000
0001
0000
0000
0000
0000
0000
0100
0000
0010
0000
0100
0000
0001
0000
0000
0010
0000
0000
0110
0000
0000
0000
0000
0000
0000
0000
0000
0011
0000
0000
0000
0000
0000
0000
0000
0000
0101
0000
0000
0000
0000
0000
,
0000
0110
0000
0000
1020
0000
0000
1030
0100
0100
1000
0010
0002
0000
2000
0003
,
0001
3010
0010
1000
0200
0000
1000
0300
1010
0000
0000
1100
0000
0000
0101
0000
,
0000
0011
0000
0000
0010
0000
0001
0000
0100
0100
0001
0100
2000
0000
0002
3000
,
1000
0103
0100
0010
2000
0000
0002
3000
0010
0003
0000
0011
0000
0000
0101
0000
,
0000
1100
0000
0000
1010
0000
0000
1000
0001
0010
0010
1000
0002
0000
2000
0003
,
0010
3100
0100
1000
0002
0000
2000
0003
0020
3000
0000
0000
0130
0000
0001
0000
,
0010
0000
0000
0001
1001
0000
1000
0001
1000
0010
0010
0001
2000
0000
0001
3010
,
2000
0000
0000
0000
0001
0000
0001
0000
3000
0000
0000
0000
MMMM
0000
0000
0000
0001
0000
0100
0000
0001
0000
0010
0000
0100
0000
0000
1000
0000
0000
0010
0000
,
0001
0010
0100
0001
0010
1000
1MMM
0000
0010
0100
1000
0010
0100
0001
0001
0010
,
0100
0000
0000
1000
0000
0000
0010
0000
0100
0000
1000
0000
1MMM
0000
0000
0000
0100
0000
0001
0000
0010
0000
0100
0000
0100
0000
1000
0000
0010
0000
0100
0000
,
0001
0010
0010
0100
1000
0010
MMM1
0000
0000
0010
0100
0010
1000
0100
0010
0000
,
0001
0010
0001
0000
1000
0000
0010
1000
0010
0000
1000
0000
MMM1
0000
0000
0000
1000
0000
0010
0000
1000
0000
0100
0000
0010
0000
0000
0001
0000
0000
0100
0000
,
1000
0100
0010
1000
0100
0001
MMM1
0000
0100
0010
0001
0100
0010
1000
1000
0100
,
0010
0000
0000
0001
0000
0000
0100
0000
0010
0000
0001
0000
MMM1
0000
0000
0000
0010
0000
1000
0000
0100
0000
0010
0000
0010
0000
0001
0000
0100
0000
0010
0000
,
1000
0100
0100
0010
0001
0100
1MMM
0000
0000
0100
0010
0100
0001
0010
0100
0000
,
1000
0100
1000
0000
0001
0000
0100
0001
0100
0000
0001
0000
1000
0000
0000
0000
2002
0000
0000
0000
0000
0000
0000
0000
0000
0000
0000
0000
0000
0000
0000
0000
,
3003
M00M
0000
0000
0000
0000
0000
0000
0000
0000
0000
0000
0000
0000
0000
0000
;

//---------------dance-single - Copied from----------------
#NOTES:
     dance-single:
     Copied from:
     Medium:
     6:
     0.444,0.393,0.000,0.174,0.474:
1000
0010
1000
0100
1000
0010
1000
0100
,
0010
0001
0100
0001
0010
0001
0100
0001
,
1000
0010
1000
0100
1000
0010
1000
0100
,
0010
0001
0100
0001
2000
0000
3002
0000
,
1003
0000
0001
0000
0010
0001
0010
0000
0001
0000
1000
0000
0010
1000
0010
0000
,
1000
0000
0100
0000
0010
0001
0010
0000
0001
0000
0100
0000
0010
1000
0010
0000
,
1000
0000
0100
0000
1000
0010
0100
0000
0001
0000
0010
0000
0001
0100
0010
0000
,
1000
0000
0001
0000
0010
0001
1000
0000
0010
0000
1000
0000
0100
0010
0001
1000
,
0001
0000
0100
0000
0010
1000
0010
0000
1000
0000
0100
0000
0010
0001
0010
0000
,
0001
0000
0100
0000
0010
1000
0010
0000
1000
0000
0100
0000
0010
0001
0010
0000
,
0001
0000
0000
0001
0000
0000
0001
0000
0000
0000
0010
0000
0001
0000
0000
0000
1000
0000
0000
1000
0000
0000
1000
0000
0000
0000
0010
0000
1000
0000
0000
0000
,
0100
0000
0000
0100
0000
0000
0100
0000
0000
0000
0010
0000
0001
0000
0000
0000
0100
0000
0000
0100
0000
0000
0100
0000
0000
0000
0010
0000
1000
0000
0100
0000
,
1000
0001
0010
0000
0001
0000
0100
0000
0010
1000
0100
0000
1000
0000
0001
0000
,
0010
0001
0100
0000
0001
0000
1000
0000
0010
1000
0100
0000
1000
0000
0001
0000
,
0010
0000
0000
0001
0000
0000
1000
0000
0000
0000
0001
0000
1000
0000
0000
0000
0010
0000
0000
1000
0000
0000
0001
0000
0000
0000
1000
0000
0001
0000
0000
0000
,
0010
0000
0000
0001
0000
0000
0100
0000
0000
0000
0001
0000
1000
0000
0000
0000
0010
0000
0000
1000
0000
0000
0100
0000
0000
0000
1000
0000
0001
0000
1000
0000
,
0002
0000
0000
0203
0000
0000
2300
0000
0000
3000
0100
0000
0001
0000
0010
0000
,
0100
0010
0100
0010
0100
0010
0100
1000
0010
0100
0100
0000
0000
0100
0100
0010
,
2000
0000
0000
3200
0000
0000
0302
0000
0000
0000
0103
0000
1000
0000
0010
0000
,
0100
0010
0100
0010
0100
0010
0100
0010
1000
0100
0100
0000
0100
0100
1000
0010
,
2000
0000
0000
0000
3002
0000
1000
0003
1000
0000
0001
0000
0010
0001
0100
0000
,
0010
0000
1000
0000
0001
0010
0100
0000
0010
0001
0010
0001
0200
0000
0320
0000
,
1030
0100
1000
0100
0010
0000
0002
0000
2003
0000
3001
0000
0010
0001
0100
0000
,
0010
0000
1000
0000
0100
1000
0001
0000
0100
0010
0100
0010
2000
0000
3200
0000
,
0310
0001
0010
0001
0200
0000
0320
0000
1030
0000
0100
0000
1000
0010
0100
0000
,
0001
0000
0010
0000
0001
0100
0010
0000
1000
0001
1000
0001
0020
0000
0130
0000
,
1000
0001
1000
0001
0200
0000
0320
0000
1030
0000
0010
0000
0100
0001
0010
0000
,
0001
0000
1000
0000
0010
1000
0100
0000
1000
0001
1000
0001
0100
0000
0010
1000
,
0100
0000
0000
0000
0100
0000
0010
0000
0000
0000
0010
0000
0001
0000
1000
0000
0001
0000
1000
0000
0001
0000
1000
0000
0100
0000
0000
0100
0000
0000
0100
0000
,
0010
0001
0100
0010
1000
1000
1000
0000
0010
1000
0001
1000
0010
0000
0100
0000
,
0010
0000
0000
0010
0000
0000
0010
0000
1000
0000
0001
0000
1000
0000
0000
0000
0001
0000
0000
0000
0100
0000
0000
0000
0010
0000
1000
0000
0100
0000
0000
0000
,
1000
0010
1000
0100
0010
0001
0001
0000
0100
0000
0001
0000
0010
0100
1000
0000
,
0010
0000
0100
0000
0001
0000
1000
0000
0100
0000
0100
0000
0100
0000
0000
0000
1000
0000
0001
0000
1000
0000
0001
0000
0010
0000
0000
0010
0000
0000
0010
0000
,
0100
1000
0010
0100
0001
0001
0001
0000
0100
0001
1000
0001
0100
0000
0010
0000
,
0100
0000
0000
0100
0000
0000
0100
0000
0001
0000
1000
0000
0001
0000
0000
0000
1000
0000
0000
0000
0010
0000
0000
0000
0100
0000
0001
0000
0010
0000
0000
0000
,
0001
0100
0001
0010
0100
1000
1000
0000
0010
0000
1000
0000
0100
0010
0001
0000
,
0100
0010
1000
0001
0010
0010
0020
0000
0002
0000
0000
0000
0000
0000
0000
0000
,
0033
0000
0000
0000
;

//---------------dance-single - Copied from Copied f----------------
#NOTES:
     dance-single:
     Copied from Copied f:
     Easy:
     4:
     0.251,0.238,0.068,0.190,0.000:
1000
0010
1000
0100
,
0010
0001
0100
0001
,
1000
0010
1000
0100
,
0010
0000
0001
0000
2000
3000
0002
0003
,
1000
0010
0100
0000
0001
0010
0100
0000
,
0010
0001
1000
0000
0010
1000
0100
0000
,
0010
0001
1000
0000
0010
0100
0001
0000
,
1000
0010
0100
0000
0001
0010
0100
0010
,
0001
0000
1000
0000
0010
1000
0100
0000
,
1000
0000
0010
0000
0100
0001
0010
0001
,
1000
1001
0010
0110
,
0100
1001
0010
1001
,
1000
0000
0001
0000
0010
0001
0100
0000
,
0010
0000
1000
0000
0100
0010
0001
0000
,
0100
1001
0010
1001
,
1000
0110
0001
0110
,
2000
0000
3002
0000
0103
0010
0010
0100
,
0010
0000
1000
0000
0100
0100
0000
0010
,
0002
0000
2003
0000
3010
0100
0100
0010
,
1000
0000
0001
0000
0100
0100
0000
0010
,
2002
0000
3003
1000
0001
0000
1000
0000
,
0010
0000
0100
0000
0001
1000
0100
0100
,
0010
0001
0100
0100
0010
0000
1000
0000
,
0001
0000
0010
0000
0001
0100
0010
0010
,
1000
0100
0010
0010
0001
0000
1000
0000
,
0010
0000
1000
0000
0100
1000
0010
0010
,
0100
0001
0010
0010
0001
0000
1000
0000
,
0010
0000
1000
0000
0100
0010
0001
0100
,
0010
0010
0010
0000
2000
0000
3002
0000
,
0013
0001
0100
1000
0200
0000
0320
0000
,
1030
0100
0001
0100
0020
0000
0032
0000
,
1003
0010
0001
0010
0200
0000
0302
0000
,
0013
1000
0010
0001
0200
0000
0320
0000
,
0031
0010
1000
0100
0020
0000
0230
0000
,
0310
0001
0100
1000
0200
0000
0320
0000
,
1030
0100
0001
0100
0020
0000
0032
0000
,
0103
1000
0001
0010
2000
0000
0000
0000
,
3000
0000
0000
0000
;

//---------------dance-single - Copied from Copied f----------------
#NOTES:
     dance-single:
     Copied from Copied f:
     Beginner:
     1:
     0.105,0.125,0.008,0.000,0.000:
1000
1000
1000
1000
,
0001
0001
0001
0001
,
0100
0100
0100
0100
,
0010
0010
0000
0000
,
1000
0000
0001
0000
,
0100
0000
0010
0000
,
1000
0000
0100
0000
,
0010
0000
0001
0000
,
1000
0000
0001
0000
,
0010
0000
0001
0000
,
1000
0000
0010
0000
,
1000
0000
0100
0000
,
1000
0000
0010
0000
,
0100
0000
0001
0000
,
0010
0000
0001
0000
,
1000
0000
0001
0000
,
0100
0000
0010
0000
,
1000
0000
1000
0000
,
0100
0000
0010
0000
,
0001
0000
0001
0000
,
0001
0000
1001
0000
,
1000
0000
0010
0010
,
0010
0010
1000
0000
,
0001
0000
0010
0010
,
0010
0010
0001
0000
,
1000
0000
0100
0100
,
0100
0100
1000
0000
,
0001
0000
0100
0100
,
0100
0100
1000
0000
,
0001
1000
0001
0000
,
0100
0010
0100
0000
,
0010
1000
0010
0000
,
1000
0001
1000
0000
,
0010
1000
0001
0000
,
0010
0100
1000
0000
,
0010
0100
0001
0000
,
1000
0010
0001
0000
;

//---------------dance-single - Copied from----------------
#NOTES:
     dance-single:
     Copied from:
     Challenge:
     10:
     0.830,0.824,0.986,0.644,1.000: // measure 1
1000
0000
0000
0100
1000
0000
0010
0000
1000
0000
0000
0100
1000
0000
0010
0000
1000
0000
0000
0100
1000
0000
0010
0000
1000
0000
0010
0100
M010
0000
0010
0M00
,  // measure 2
0001
0000
0000
0100
0001
0000
0010
0000
0001
0000
0000
0100
0001
0000
0010
0000
0001
0000
0000
0100
0001
0000
0010
0000
0001
0000
0010
0100
001M
0000
0010
0M00
,  // measure 3
1000
0000
0000
0100
0010
0000
0100
0000
1000
0000
0000
0010
0100
0000
0010
0000
1000
0000
0000
0100
0010
0000
0100
0000
1000
0000
0010
0100
0010
M000
0010
0000
,  // measure 4
0M01
0000
0000
0000
0000
0000
0000
0000
0000
0000
0000
0000
0000
0000
0000
0000
0000
0000
0100
0000
0000
0000
0000
0000
1000
0000
0000
0000
0000
0000
0000
0000
0000
0000
0000
0000
0100
0000
0000
0000
0000
0000
0000
0000
0000
0000
0000
0000
0001
0000
0000
0000
0000
0000
0000
0000
0000
0000
0000
0000
0000
0000
0000
0000
0000
0000
0010
0000
0000
0000
0000
0000
1000
0000
0000
0000
0000
0000
0000
0000
0000
0000
0000
0000
0010
0000
0000
0000
0000
0000
0000
0000
0000
0000
0000
0000
0001
0000
0000
0000
0000
0000
0000
0000
0100
0000
0000
0000
0000
0000
0000
0000
0010
0000
0000
0000
0000
0000
0000
0000
0100
0000
0000
0000
0000
0000
0000
0000
1000
0000
0000
0000
0000
0000
0000
0000
0100
0000
0000
0000
0010
0000
0000
0000
0100
0000
0000
0000
0000
0000
0000
0000
0001
0000
0000
0000
0000
0000
0000
0000
0010
0000
0000
0000
0000
0000
0000
0000
0100
0000
0000
0000
0000
0000
0000
0000
0010
0000
0000
0000
0000
0000
0000
0000
1000
0000
0000
0000
0000
0000
0000
0000
,  // measure 5
0020
0000
0000
0002
0000
0000
1000
0000
0000
0030
0013
0000
0001
0000
0000
0000
0020
0000
0000
0002
0000
0000
1000
0030
0013
0000
0001
0000
1000
0000
0000
0000
,  // measure 6
0020
0000
0000
2000
0000
0000
0001
0000
0000
0030
3010
0000
1000
0000
0000
0000
0020
0000
0000
2000
0000
0000
0001
0030
3010
0000
1000
0000
0001
0000
0000
0000
,  // measure 7
0200
0000
0000
0002
0000
0000
1000
0000
0300
0000
0103
0000
0001
0000
0000
0000
0200
0000
0000
0002
0000
0000
1000
0300
0103
0000
0001
0000
1000
0000
0000
0000
,  // measure 8
0020
0000
0000
2000
0000
0000
0001
0000
0030
3000
M010
0000
0001
0000
0000
0000
0020
0000
0000
0002
0000
0000
0100
0033
001M
0000
1000
0000
0100
0000
0100
0000
,  // measure 9
0010
0000
0001
0000
0100
0000
0010
0000
0010
0000
0001
0000
0010
1000
0010
1000
0100
0000
0010
0000
1000
0000
0010
0000
0010
0000
0100
0000
1000
0010
1000
0010
,  // measure 10
0001
0000
0010
0000
0100
0000
0001
0000
0001
0000
0010
0000
0100
0001
0100
0001
0010
0000
0100
0000
0001
0000
0100
0000
0100
0000
1000
0000
1001
0000
0100
0000
,  // measure 11
0202
0000
0000
0020
0000
0303
2200
0000
0000
0000
3330
0000
MMM0
0000
0000
0000
2200
0000
0000
0020
0000
3300
0202
0000
0000
0000
0333
0000
0MMM
0000
0000
0000
,  // measure 12
0022
0000
0000
2000
0000
0033
0022
0000
0000
0000
3033
0000
M0MM
0000
0000
0000
2020
0000
0000
0002
0000
3030
2020
0000
0000
0000
3033
0000
M0MM
0000
0000
0000
,  // measure 13
0010
0000
0000
0000
1000
0000
0000
0000
0100
0000
0000
0000
0010
0000
0000
0000
0001
0000
0000
0000
0100
0000
0000
0000
0001
0010
0001
0010
0001
0010
0001
0010
0001
0000
0000
0000
0010
0000
0000
0000
0001
0000
0000
0000
0100
0000
0000
0000
0010
0000
0000
0000
1000
0000
0000
0000
0100
1000
0100
1000
0100
1000
0100
1000
,  // measure 14
0100
0000
0000
0000
1000
0000
0000
0000
0010
0000
0000
0000
0100
0000
0000
0000
0001
0000
0000
0000
0010
0000
0000
0000
0001
1000
0001
1000
0001
1000
0001
1000
0001
0000
0000
0000
1000
0000
0000
0000
0010
0000
0000
0000
0100
0000
0000
0000
0001
0000
0000
0000
0010
0000
0000
0000
0100
1000
0100
1000
0100
0000
0000
0000
,  // measure 15
1110
0000
0000
0111
0000
0000
1110
0000
0000
0000
MMMM
0000
0000
0000
0000
0000
1110
0000
0000
0111
0000
0000
1110
0000
0000
0000
MMMM
0000
0000
0000
0000
0000
,  // measure 16
0111
0000
0000
1011
0000
0000
0111
0000
0000
0000
MMMM
0000
0000
0000
0000
0000
0111
0000
0000
1011
0000
0000
0111
0000
0000
0000
0010
0000
1000
0000
0100
0000
,  // measure 17
0020
0000
0000
0000
MM00
0000
0002
0000
0000
0000
0030
0000
02M0
0000
0000
0000
0003
0000
0000
000M
2000
0000
0000
0000
0001
0000
0000
0000
0301
0000
0000
0000
,  // measure 18
3100
0000
0001
0000
0010
1000
0010
0000
0001
0000
0100
0000
1000
0100
0001
0000
0010
0000
0001
0100
2000
0000
0000
0000
0000
0000
3100
0000
0001
0000
0010
0000
,  // measure 19
0200
0000
00MM
2000
0000
0300
0M20
0000
3000
0000
M002
0000
1000
0000
1030
0000
,  // measure 20
0013
0000
1000
0000
0100
0001
0100
0000
0010
0000
0001
0000
1000
0010
0001
0000
0010
0000
1000
0100
0001
0000
0000
0000
010M
0000
0010
0000
0001
0000
0100
0000
,  // measure 21
0010
0000
0100
0000
0010
0000
0001
0000
0010
0000
1000
0100
0010
0000
0100
0000
0001
0000
0100
0000
0000
1000
0000
0000
1100
0000
0000
1000
0000
0000
M100
0000
0000
0101
0000
0000
0M01
0000
0000
0010
0000
0000
0011
0000
0000
001M
0000
0000
,  // measure 22
1000
1010
10M0
0100
1100
M1M0
M1M0
0101
0011
1010
1010
0011
0202
0000
10M0
0303
,  // measure 23
1100
0101
0101
1100
2020
0000
0M01
3030
0011
0001
010M
1100
1M00
0010
0011
001M
,  // measure 24
1000
1100
M100
0001
0011
0M1M
0M1M
1010
0011
0101
0101
0011
2020
0000
0M01
3030
,  // measure 25
1000
0100
0001
0000
1100
0000
1000
0010
0001
0000
0010
0001
0010
1000
0100
0010
0011
0000
0001
0000
0010
0000
1010
0000
M010
0000
0001
0000
0101
0000
010M
0000
,  // measure 26
1000
1100
M100
0001
0011
0M1M
0M1M
1010
1100
0101
0101
1100
0022
0000
1M00
0033
,  // measure 27
0011
1010
1010
0011
0202
0000
M010
0303
120M
0000
0000
0000
2000
0000
0320
0M00
,  // measure 28
3002
M000
0230
00M0
2003
000M
0300
3100
M101
0000
0011
0010
1010
0000
1100
0101
,  // measure 29
0001
0100
1000
0100
0010
1000
0100
0001
0100
0010
0001
0100
1000
0100
0010
1000
1100
0000
1010
0000
1010
0000
1100
0000
0202
0000
0000
0010
0000
0000
1303
0000
,  // measure 30
1010
0000
0011
0000
0011
0000
1010
0000
2200
0000
0010
0000
0001
3300
MMMM
0000
0101
0000
1100
0000
1100
0000
0101
0000
0001
0000
0010
0000
1000
0000
0100
0000
,  // measure 31
0101
0000
0000
1100
0000
0000
0101
0000
2200
0000
0010
0000
0001
3300
MMMM
0000
0101
0000
0011
0000
0011
0000
0101
0000
1100
0000
1001
0000
1001
0000
1100
0000
,  // measure 32
1000
0000
0010
0000
0001
0000
0100
0000
2200
0000
0001
0300
0202
0000
3303
0000
MMMM
0000
0001
0000
0100
0000
0M1M
0000
0M1M
0000
0001
0000
0020
0000
0M0M
0000
,  // measure 33
1030
0100
0001
0000
0110
0000
0001
0100
1000
0000
0100
0001
0100
0001
0010
0100
0011
0000
1010
0000
1010
0000
0011
0000
2200
0000
0000
0010
0000
0000
3301
0000
,  // measure 34
0101
0000
0011
0000
0011
0000
0101
0000
2200
0000
0010
0000
0001
3300
MMMM
0000
1010
0000
0011
0000
0011
0000
1010
0000
1000
0000
0100
0000
0001
0000
0010
0000
,  // measure 35
1010
0000
0000
0011
0000
0000
1010
0000
0202
0000
0010
0000
1000
0303
MMMM
0000
1010
0000
1100
0000
1100
0000
1010
0000
0011
0000
1001
0000
1001
0000
0011
0000
,  // measure 36
0001
0000
0100
0000
1000
0000
0010
0000
0022
0000
1000
0030
2020
0000
3033
0000
MMMM
0000
1000
0000
0010
0000
M1M0
0000
M1M0
0000
1000
0000
0200
0000
M0M0
0000
,  // measure 37
0301
0010
1000
0000
0110
0000
1000
0010
0001
0000
0010
1000
0010
1000
0100
0010
2002
0000
0000
0000
00M0
0000
0000
0000
0000
0000
0000
0000
0M00
0000
0000
0000
,  // measure 38
0000
00M0
0000
0M00
3003
0000
0000
0000
;
