#TITLE:The Fate of (Remix);
#SUBTITLE:eXceed 3rd ~Jade Penetrate BLACK PACKAGE~;
#ARTIST:S.S.H.;
#TITLETRANSLIT:;
#SUBTITLETRANSLIT:;
#ARTISTTRANSLIT:;
#CREDIT:;
#BANNER:eXceed 3rd_bn.png;
#BACKGROUND:Fierce Fight_bg.jpg;
#LYRICSPATH:;
#CDTITLE:CD_Title.png;
#MUSIC:The Fate of (Remix).mp3;
#OFFSET:-0.500;
#SAMPLESTART:37.680;
#SAMPLELENGTH:25.040;
#SELECTABLE:YES;
#DISPLAYBPM:308.000;
#BPMS:0.000=155.000,12.000=155.000,20.000=154.000,24.000=155.000,25.000=155.500,26.000=156.000,28.000=155.000,32.000=154.800,36.000=155.600,40.000=155.100,44.000=155.000,48.000=155.200,56.000=154.500,60.000=156.000,61.000=157.500,62.000=159.500,63.000=160.500,64.000=308.000;
#STOPS:;
#BGCHANGES:;

//---------------dance-single - ----------------
#NOTES:
     dance-single:
     :
     Easy:
     6:
     0.467,0.823,0.079,0.594,0.000:
2000
0000
0000
0000
,
0000
0000
0000
0000
,
3002
0000
0000
0000
,
1003
0000
0000
0001
0000
0000
0100
0000
,
0020
0000
0000
0000
,
0130
0000
0000
0001
0000
0000
1000
0000
,
0002
0000
0000
0000
,
2003
0000
3000
0000
,
0020
0000
0000
0000
0000
0000
0000
0030
,
0100
0000
0000
0001
0000
0000
1000
0000
,
0002
0000
0000
0000
,
1003
0000
0000
0001
0000
0000
0100
0000
,
0020
0000
0000
0000
,
0130
0000
0000
0010
0000
0000
1000
0000
,
0002
0000
0000
0000
,
2003
0000
3000
0000
,
0002
0000
0010
0000
,
0010
0000
0010
0000
,
0010
0000
0013
0002
,
0000
0000
2003
0000
,
3200
0000
0010
0000
,
0010
0000
0010
0000
,
0320
0000
0000
0032
,
0000
0000
2003
0000
,
3020
0000
1000
0000
,
1000
0000
1000
0000
,
1000
0000
1030
0002
,
0000
0000
0203
0000
,
0302
0000
1000
0000
,
1000
0000
1000
0003
,
2000
0000
0001
0000
,
0001
0000
0001
3000
,
0020
0000
0100
0000
,
1000
0000
0100
0000
,
1000
0000
0130
0002
,
0000
0000
2003
0000
,
3200
0000
0010
0000
,
0001
0000
0010
0300
,
2000
0000
0000
3002
,
0000
0000
0203
0000
,
0302
0000
1000
0000
,
0010
0000
1000
0000
,
0010
0000
1003
0002
,
0000
0000
0203
0000
,
0320
0000
1000
0000
,
0100
0000
0001
0030
,
0200
0000
0001
0000
,
0010
0000
1000
0300
,
0020
0000
0230
0000
,
0310
1000
0001
0000
,
0200
0000
0320
0000
,
1030
0001
0100
0000
,
0002
0000
2003
0000
,
3010
1000
0001
0000
,
0100
0000
0000
0010
0000
0000
0100
0000
,
0001
0000
0000
1000
0000
0000
0001
0000
,
2000
0000
3002
0000
,
0103
0010
1000
0000
,
0002
0000
2003
0000
,
3010
0100
0001
0000
,
0200
0000
0320
0000
,
1030
0001
0010
0000
,
0001
0000
0000
1000
0000
0000
0001
0000
,
0100
0000
0000
0010
0000
0000
0100
0000
,
0010
1000
0010
1000
,
0002
0003
2000
3000
,
0001
0100
0001
0100
,
0020
0030
2000
3000
,
0001
1000
0001
1000
,
0020
0030
0200
0300
,
0001
0000
0000
1000
0000
0000
0001
0000
,
0100
0000
0000
0010
0000
0000
0100
0000
,
0001
1000
0010
0100
,
0002
0003
2000
3000
,
0010
0100
0001
1000
,
0002
0003
2000
3000
,
0001
0100
0010
1000
,
0200
0300
0020
0030
,
0100
0000
0000
1000
0000
0000
0010
0000
,
0100
0000
0000
0001
0000
0000
0010
0000
,
0001
0100
0001
0000
,
1000
0100
1000
0000
,
0020
0000
0000
0000
,
0000
0030
0100
0100
,
0010
1000
0001
0000
,
1000
0010
1000
0000
,
0002
0000
0000
0000
,
2003
0000
0000
0000
,
3001
0000
0000
1000
0000
0000
0001
0000
,
0100
0000
0000
0010
0000
0000
0100
0000
,
0020
0000
0000
0000
,
0030
0000
1000
0001
,
2000
0000
0000
3020
,
0000
0000
0230
0000
,
0302
0000
0000
1003
,
1001
0000
0000
0000
,
0002
0000
0000
0000
,
0103
0000
0000
0010
0000
0000
1000
0000
,
0002
0000
0000
0000
,
2003
0000
3010
1000
,
0002
0000
0000
0000
,
0203
0000
0000
0000
,
0310
0000
0000
0100
0000
0000
1001
0000
,
0000
0000
0001
1000
,
0001
0000
0000
1000
0000
0000
1001
0000
,
0000
0000
0001
1000
,
0010
0000
0000
0100
0000
0000
0110
0000
,
0000
0010
0100
0001
,
2000
0000
0000
0000
,
3002
0000
0103
0010
,
2000
0000
0000
0000
,
3001
0000
0100
0000
,
0010
0000
0000
1000
0000
0000
0010
0000
,
0000
0100
0001
1000
,
0020
0000
0000
0000
,
0000
0000
0000
0000
,
1030
0000
0100
0000
,
1000
0000
0001
0000
,
0010
0000
0001
0000
,
1000
0000
0001
0000
,
0100
0000
0000
0010
0000
0000
1000
0000
,
0000
0001
1000
0010
,
0200
0000
0000
0000
,
0000
0000
0000
0000
,
0310
0000
0100
0000
,
0001
1000
0001
0100
,
0010
0000
1000
0000
,
0001
0100
0010
1000
,
0001
0000
0000
0100
0000
0000
0010
0000
,
0000
1000
0001
0100
,
0020
0000
0000
0000
,
0000
0000
0000
0000
,
1030
0000
0000
0100
0000
0000
1000
0000
,
0001
0010
0010
0001
,
2000
0000
0000
3001
,
0200
0000
0000
0310
,
1000
0000
0000
0010
0000
0000
0100
0000
,
0000
0001
0010
0100
,
2000
0000
0000
0000
,
0000
0000
3001
0100
,
0010
0000
0000
1000
0000
0000
0001
0000
,
0100
0100
0010
1000
,
0001
0000
0000
0100
0000
0000
0001
0000
,
1000
0010
0010
0100
,
0002
0000
0000
0000
,
0000
0000
0000
0000
,
0000
0000
0000
0000
,
0000
0000
0000
0000
,
2003
0000
0000
0000
,
0000
0000
0000
0000
,
3020
0000
0000
0000
,
0230
0000
0000
0000
,
0301
0000
0100
0000
,
0001
0000
1000
0000
,
0010
0000
0100
0000
,
0001
0000
1000
0000
,
0010
0000
1000
0000
,
0001
0000
0100
0000
,
0010
0000
1000
0000
,
0001
0000
0100
0000
,
0020
0000
0000
0000
,
0000
0000
0000
0000
,
1030
0000
0001
0000
,
1000
0010
0010
1000
,
0001
0000
0100
0000
,
0010
1000
1000
0001
,
0010
0000
0001
0000
,
0100
0001
0001
1000
,
0010
0000
1000
0000
,
0100
0000
0001
0000
,
0010
0001
1000
1000
,
0001
0001
0100
0010
,
1000
0000
0010
0000
,
0001
0000
0100
0000
,
2000
0000
0000
0000
,
3001
0000
0000
1000
0000
0000
0001
0000
,
0100
0000
0000
0010
0000
0000
0100
0000
,
0000
0010
0000
0000
1000
0000
0001
0000
,
0010
0000
0000
0001
0000
0000
0010
0000
,
0000
0001
0000
0000
0010
0000
0001
0000
,
1000
0000
0000
0100
0000
0000
0010
0000
,
0000
0001
0000
0000
0100
0000
0010
0000
,
1000
0001
1000
1000
,
0001
0001
0100
0010
,
2000
0000
0000
3200
0000
0000
0302
0000
,
0000
0023
0000
0000
0001
0000
0031
0000
,
0020
0000
0000
0032
0000
0000
0203
0000
,
0000
2300
0000
0000
0010
0000
3010
0000
,
1000
0001
1000
0001
,
0101
1001
1100
1001
,
0002
0000
0000
0000
2003
0000
0000
3000
,
1010
1001
0011
1001
,
0220
0000
0000
0000
,
0000
0000
0000
0000
,
0330
0000
0000
0000
;

//---------------dance-single - Copied from----------------
#NOTES:
     dance-single:
     Copied from:
     Medium:
     9:
     0.711,1.000,0.394,0.539,0.000:
2002
0000
0000
0000
,
0000
0000
0000
0000
0000
0000
0000
0003
,
3002
0000
0000
0000
,
0103
0000
0000
0010
0000
0000
1000
0000
,
0002
0000
0000
0000
,
0103
0000
0000
0010
0000
0000
1000
0000
,
0002
0000
0000
0000
,
2003
0000
3000
0000
,
0020
0000
0000
0000
0000
0000
0000
0030
,
0100
0000
0000
0010
0000
0000
1000
0000
,
0200
0000
0000
0000
0000
0000
0000
0300
,
0010
0000
0000
0001
0000
0000
0100
0000
,
0020
0000
0000
0000
0000
0000
0000
0030
,
0100
0000
0000
0010
0000
0000
1000
0000
,
0200
0000
0000
0000
,
0020
0000
0330
0000
,
0002
0000
0100
0000
,
1000
0000
0100
0000
,
1000
0000
0100
2003
,
0000
0000
3002
0000
,
0203
0000
0010
0000
,
1000
0000
0010
0000
,
0302
0000
2000
3203
,
0000
0002
0323
0000
,
0032
0000
1000
0000
,
0010
0000
1000
0000
,
0010
0000
2003
3002
,
0000
0200
0323
0000
,
2030
0000
0010
0000
,
0001
0000
0010
0000
,
3002
0100
0100
0103
,
0001
1000
0010
0100
,
0002
0010
0020
0000
,
1030
1000
2000
0000
,
3010
0010
0020
2033
,
0000
3002
0013
0000
,
2000
0010
0020
0000
,
0031
0001
0002
0000
,
3103
0100
0010
2000
,
0000
3020
0130
0000
,
0020
1000
2000
0000
,
3001
0001
0002
0000
,
1003
1030
0001
0020
,
0000
0130
1000
0000
,
0010
0100
0010
0100
,
0001
1000
0001
1000
,
0020
0000
0000
0000
,
0030
0MM0
0000
0000
,
1000
1000
M000
0000
,
0001
0100
0010
1000
,
0100
0100
0M00
0000
,
0010
0001
0100
0010
,
1000
1000
M000
0000
,
0001
0100
0010
1000
,
0001
0000
0000
0100
0000
0000
0110
0000
,
0010
0000
0000
1000
0000
0000
1001
0000
,
0001
100M
M000
0000
,
0010
0100
0001
1000
,
0010
01M0
0M00
0000
,
0001
1000
0100
0010
,
0001
100M
M000
0000
,
0010
0001
0100
0010
,
1000
0000
0000
0001
0000
0000
1001
0000
,
0001
0000
0000
1000
0000
0000
1001
0000
,
0001
0100
0001
0100
,
0010
0000
1000
0010
0000
1000
0010
0000
,
1000
0001
1000
0001
,
0100
0000
0010
0100
0000
0010
0100
0000
,
0010
1000
0010
1000
,
0001
0000
0010
0001
0000
0010
0001
0000
,
1000
0000
0000
0010
0000
0000
0110
0000
,
0100
0000
0000
0001
0000
0000
1001
0000
,
0001
0100
0010
1000
,
0010
0100
0010
0200
0000
0000
0310
0000
,
1000
0010
0100
0001
,
1000
0001
1000
0002
0000
0000
1003
0000
,
0001
0100
0010
1000
,
0010
0100
0010
0200
0000
0000
0301
0000
,
1001
0000
0000
1001
0000
0000
1100
0000
,
1001
0000
0000
1001
0000
0000
0001
0100
,
0001
1000
0100
1000
,
0010
0100
0001
0010
,
0002
1003
2000
3010
,
0020
0130
0200
0301
,
1000
0100
0010
0001
,
0100
0010
1000
0001
,
0100
0100
0010
0010
,
1000
1000
0001
0001
,
1001
1000
0010
0100
,
0001
0010
0001
0100
,
0110
0010
1000
0100
,
1000
0010
0100
0001
,
1001
1000
0010
0110
,
0010
1000
1010
1000
,
1001
0001
0010
0100
,
2002
0000
3003
0000
,
0002
1000
1000
1003
,
0001
0000
0000
0101
0000
0000
1010
0000
,
2000
0001
0001
3001
,
2000
0000
3000
0000
0010
0100
0010
0100
,
0020
0100
0100
0130
,
0002
1000
1000
1003
,
1010
0000
0000
0101
0000
0000
1001
0000
,
0000
0000
0000
0000
0000
0000
0001
1000
,
0010
0000
0000
0100
0000
0000
0110
0000
,
0000
0000
1000
0000
0001
0000
0100
0001
,
1000
0000
0000
0010
0000
0000
0110
0000
,
0000
0000
0100
0000
0001
0000
1000
0010
,
0100
0100
0100
0100
,
0010
0000
0000
1000
0000
0000
0001
0000
,
2002
0000
3003
0000
,
0000
0000
0000
0000
0001
0100
0010
1000
,
0001
0000
0000
0101
0000
0000
1010
0000
,
0000
0001
1000
0010
,
2002
0000
0000
0000
,
0000
0000
0000
0000
0000
0000
0000
3003
,
0001
0000
0000
0100
0000
0000
0110
0000
,
0000
0010
1000
0001
,
0020
0000
0100
0000
0130
0000
0010
0001
,
1000
0000
0000
0000
1000
0010
0100
0001
,
1000
0000
0000
1010
0000
0000
0101
0000
,
0000
1000
0001
0010
,
0220
0000
0000
0000
,
0000
0000
0000
0000
0000
0000
0000
0330
,
0010
0000
0000
0001
0000
0000
0011
0000
,
0000
1000
0010
0100
,
0001
0000
0100
0010
0100
0010
1000
0001
,
2000
0000
0000
3000
0100
1000
0100
1000
,
0100
0000
0000
1100
0000
0000
1001
0000
,
0000
0001
0100
0010
,
2020
0000
0000
0000
,
0000
0000
0000
0000
0000
0000
0000
3030
,
1000
0000
0000
0001
0000
0000
0011
0000
,
0000
0001
1000
0010
,
0200
0000
0010
0000
0310
0000
0100
0001
,
2000
0000
0000
3000
0001
0010
0100
0010
,
0001
0000
0000
0011
0000
0000
1010
0000
,
0000
1000
0010
0100
,
0202
0000
0000
0000
,
0000
0303
0001
1000
,
1001
0000
0000
1100
0000
0000
1001
0000
,
1001
0101
0001
1000
,
1010
0000
0000
1001
0000
0000
0011
0000
,
0101
0000
0000
1010
0000
0000
1100
0000
,
1000
0100
1000
0000
0100
0000
1000
0100
,
1000
0000
0100
0000
1000
0001
0100
0000
,
0010
0100
0010
0000
0100
0000
0010
0100
,
0010
0000
0100
0000
0010
1000
0001
0000
,
0010
0001
0010
0000
0001
0000
0010
0001
,
0010
0000
0001
0000
0010
0001
1000
0000
,
0010
1000
0010
0000
1000
0000
0010
1000
,
0010
0000
1000
0000
0010
1000
0001
0000
,
0100
0001
0100
0000
0001
0000
1000
0100
,
1000
0000
0001
0000
1000
0001
0010
0000
,
0010
0100
0010
0000
0001
0000
0100
0010
,
0100
0000
0001
0000
0010
0001
1000
0000
,
0010
1000
0010
0000
1000
0000
0001
0010
,
0001
0000
1000
0000
0010
0100
0010
0000
,
1000
0010
1000
0000
0001
0010
0001
0000
,
1000
0010
0100
0001
0010
0100
1000
0001
,
0200
0000
0000
0000
,
0000
0000
0000
0000
,
0310
0000
1000
0010
1000
0000
0001
0020
,
0000
0031
1000
0001
,
0101
0000
0000
1010
0000
0000
1100
0000
,
0000
0101
0000
0000
0001
0100
0010
1000
,
0002
0203
2300
3200
,
0302
0023
2030
3020
,
0031
1000
0001
0100
,
0010
1000
0001
0010
,
0001
0000
1000
0000
0001
0100
0010
0100
,
0001
0000
1000
0000
0100
0010
0001
0010
,
0100
1000
0010
0100
,
0001
0010
0100
1000
,
0002
0000
1000
0000
0103
0000
1000
0001
,
0020
0000
0000
0032
0000
0000
0103
0000
,
0010
1000
0010
0000
1000
0000
0001
0010
,
0001
0000
1000
0000
0001
0100
0010
0000
,
1000
0100
0010
0000
0001
0000
0100
0010
,
1000
0000
0001
0000
1000
0010
0100
0000
,
0001
0010
0100
0000
0010
0000
0001
1000
,
0001
0000
0100
0000
0010
1000
0100
0000
,
0010
0001
0100
0000
0001
0000
1000
0001
,
1000
0000
0010
0000
0100
0001
0100
0001
,
1000
0000
0000
1001
0000
0000
0001
0000
,
0000
0101
0000
0000
1001
0000
0100
0000
,
0110
0000
0000
0010
0000
0000
1010
0000
,
0000
1000
0000
0000
1001
0000
0100
0000
,
0110
0001
1001
1000
,
0010
1000
0100
0010
0001
0010
0100
1000
,
0002
0203
0320
2030
,
3001
0100
0010
1000
0100
0010
0001
1000
,
0020
0000
0000
0000
,
0000
0000
0000
0000
,
0030
00M0
0000
0000
0000
0000
0000
0000
;

//---------------dance-single - Copied from Copied f----------------
#NOTES:
     dance-single:
     Copied from Copied f:
     Hard:
     11:
     0.985,1.000,0.545,0.394,0.173:
2002
0000
0000
0000
,
0000
0000
0000
0000
0000
0000
0000
3000
,
2003
0000
0000
0000
,
3010
0000
0000
0100
0000
0000
0001
0000
,
2000
0000
0000
0000
,
3010
0000
0000
0100
0000
0000
0001
0000
,
2000
0000
0000
0000
,
3002
0000
0003
0000
,
0200
0000
0000
0000
0000
0000
0000
0300
,
0010
0000
0000
0100
0000
0000
0001
0000
,
0020
0000
0000
0000
0000
0000
0000
0030
,
0100
0000
0000
1000
0000
0000
0010
0000
,
0200
0000
0000
0000
0000
0000
0000
0300
,
0010
0000
0000
0100
0000
0000
0001
0000
,
0020
0000
0000
0000
,
0200
0000
0330
0000
,
0001
0000
1000
0000
0001
0100
0001
0000
,
1000
0000
0010
0000
1000
0010
1000
0000
,
0001
0000
0100
0000
0010
1000
0010
0000
,
0100
0000
0001
0010
0001
0000
1000
0000
,
0010
0000
1000
0000
0001
0100
0001
0000
,
1000
0000
0010
0000
1000
0001
1000
0000
,
0010
0100
0010
0000
1000
0000
0010
0100
,
0010
0000
1000
0000
0001
0100
0001
0000
,
1000
0100
1000
0000
0010
0000
0100
0000
,
0001
0100
0001
0000
1000
0000
0010
0000
,
1000
0010
1000
0000
0001
0000
0100
0001
,
0100
0000
0010
0000
1000
0010
1000
0000
,
0001
0100
0002
0000
2003
0000
3100
0000
,
1000
0010
2000
0000
3002
0000
0013
0000
,
0001
0100
0001
0000
1000
0100
1000
0000
,
0010
1000
0010
0100
0001
0010
0100
1000
,
0001
0100
0010
0000
1000
0000
0001
0000
,
0100
0010
1000
0000
0001
0000
1000
0000
,
0010
0100
0001
0000
1000
0000
0010
1000
,
0100
0000
0010
0000
0001
0100
0010
0000
,
1000
0001
1000
0000
0010
0000
0100
0000
,
0001
1000
0001
0000
1000
0000
0010
0000
,
0100
0001
1000
0000
0001
0000
1000
0001
,
0100
0000
0010
0000
1000
0001
1000
0000
,
0010
0100
0001
0000
1000
0000
0100
0000
,
1000
0010
0100
0000
0001
0000
0010
0000
,
0001
1000
0010
0000
0100
0000
0010
1000
,
0001
0000
0100
0000
0001
1000
0010
0000
,
0100
0010
0200
0000
0320
0000
1030
0000
,
0001
0100
0002
0000
1003
0100
1000
0100
,
0020
0032
2003
3200
,
0310
0001
0010
0100
1000
0010
0100
0001
,
1000
0100
1000
0000
1000
0100
1000
0000
,
1000
0100
0010
0001
000M
0001
1000
M000
,
0001
0100
0001
0000
0001
0100
0001
0000
,
0001
0010
0100
1000
M000
1000
0001
000M
,
1000
0010
1000
0000
1000
0010
1000
0000
,
1000
0001
0010
0100
0M00
0100
0010
00M0
,
0011
0000
0001
0100
0M00
0010
1000
M000
,
1010
0000
1000
0100
0M00
0010
0001
000M
,
1000
0010
1000
0000
1000
0001
1000
0000
,
0001
0010
0001
0100
0M00
0010
1000
M000
,
0001
0010
0001
0000
0001
1000
0001
0000
,
1000
0010
1000
0100
0M00
0010
0001
000M
,
1000
0001
1000
0000
1000
0010
1000
0000
,
0001
0010
0100
0010
00M0
0010
0001
000M
,
1010
0000
1000
0010
00M0
1000
0001
000M
,
0011
0000
0001
0100
0M00
0001
1000
M000
,
0001
0000
0100
0001
0100
0001
0100
0001
,
0010
0100
1000
0100
0M00
0100
1000
M000
,
1000
0000
0010
1000
0010
1000
0010
1000
,
0100
0010
0001
0010
00M0
0010
0001
000M
,
0001
0000
1000
0001
1000
0001
1000
0001
,
0100
0010
1000
0001
000M
0001
1000
M000
,
1001
0000
0010
0100
0000
0001
1000
0000
,
1001
0000
0100
0010
0000
1000
0001
0000
,
1000
0000
0010
1000
0010
1000
0010
1000
,
0001
0010
1000
0010
00M0
0010
0001
000M
,
1000
0000
0010
1000
0010
1000
0010
1000
,
0100
0001
0100
1000
M000
1000
0001
000M
,
0001
0000
0100
0010
0100
0010
0100
0010
,
0001
0010
1000
0100
0M00
0100
0010
00M0
,
0011
0000
0001
0100
0000
0010
1000
0000
,
1010
0000
0000
1000
0000
0000
1000
0000
0000
1000
0010
1000
,
0010
0100
0001
1000
,
1001
0001
1000
0100
,
0120
0031
0201
0310
,
1020
1030
1200
0310
,
0011
0001
0100
0010
,
1010
1000
0100
0010
,
0021
0001
0001
0031
,
1020
1000
1000
1030
,
1010
0000
1000
0000
0010
0100
0010
0000
,
0100
0001
1000
0010
,
0110
0000
0100
0000
0001
1000
0001
0000
,
0100
0010
1000
0001
,
0101
0000
0001
0000
1000
0100
1000
0000
,
1100
0000
1000
0000
0001
0100
0001
0000
,
1000
0000
1000
0000
1000
0000
0001
0100
,
0001
0000
0000
0000
,
2010
0010
0010
3010
,
0021
0032
0203
0310
,
1020
1000
1000
1030
,
1010
0000
1000
0000
0010
0100
0001
1000
,
0010
0010
0010
0010
,
0100
0100
0100
0100
,
0101
0001
1000
0100
,
1200
0000
0000
1000
0000
0000
1300
0000
0000
1000
0010
1000
,
0010
0000
0000
0100
0000
0000
0110
0000
,
0000
0000
0000
0010
0000
0000
0100
0000
0000
0001
1000
0001
,
1000
0000
0000
0001
0000
0000
1001
0000
,
0000
0000
0100
0000
0010
0000
1000
0001
,
0100
0110
0010
1010
,
1000
1001
0001
0101
,
1001
1100
1001
0011
,
1001
0000
0000
1000
0000
0000
0001
0100
0010
1000
0010
0100
,
0001
1000
0010
0100
,
0110
0010
1001
0110
,
2001
0001
0001
3001
,
1002
1000
1000
1003
,
0110
0010
1000
0100
,
0110
0010
0001
0100
,
0010
1000
0010
1000
0001
0100
0001
0100
,
0010
0000
0000
0000
0000
0000
1000
0001
0010
0100
1000
0001
,
0010
0001
0100
0010
,
1010
1000
0110
0011
,
0201
0001
0001
0301
,
1200
1000
1000
1300
,
1010
1000
0001
0010
,
0011
0001
0100
0010
,
1000
0010
0100
0001
0010
0100
1000
0010
,
0100
0000
0000
0000
0000
0000
0001
0100
0010
1000
0010
0100
,
0001
1000
0010
0100
,
0110
0010
1010
1001
,
0021
0001
0100
1030
,
1020
0001
0100
1030
,
1010
1000
0010
0100
,
0101
0001
0010
0100
,
1000
0010
0100
0001
0010
0100
1000
0001
,
1000
0000
0000
0000
0000
0000
0010
0100
0001
1000
0100
0010
,
0001
1000
0010
0100
,
0101
0001
1001
0110
,
1002
0000
0010
0000
1000
0000
0100
0003
,
2001
0000
0010
0000
0001
0000
0100
3000
,
1100
1000
0010
0100
,
0101
0001
1010
0011
,
1010
1000
0001
0100
,
0101
0001
0101
1100
,
1000
0010
0100
0000
0101
0000
0001
0100
,
0010
0000
1010
0000
1000
0001
1000
0000
,
0001
0100
0010
0000
1010
0000
0010
0100
,
0001
0000
1001
0000
1000
0001
0100
0000
,
0010
1000
0001
0000
1001
0000
0001
1000
,
0010
0000
1010
0000
0010
1000
0100
0000
,
0010
0001
0100
0000
0110
0000
0010
1000
,
0100
0000
0110
0000
0010
0001
1000
0000
,
0001
0100
0010
0000
1001
0000
1000
0010
,
0100
0000
1001
0000
0010
1000
0100
0000
,
0010
0001
0100
0000
0101
0000
0100
0001
,
0010
0000
0011
0000
0001
1000
0010
0000
,
1000
0010
0100
0000
0010
0100
0001
0000
,
0010
0100
1000
0000
0010
0100
0001
0000
,
1000
0100
0010
0001
0010
0100
1000
0010
,
0100
0000
0001
0000
0100
0000
0001
0000
1000
0000
0010
0000
0100
0000
0000
0010
0000
0000
1000
0000
0000
0002
0000
0000
,
2000
0000
0000
0000
,
0000
0000
0000
0000
0000
0000
0000
0003
,
3001
0000
0100
0010
1000
0100
0010
0001
,
0000
1000
0001
1000
0010
0100
0001
1000
,
0200
0000
0310
0002
0000
1003
0020
0000
,
0130
0002
0000
1003
0001
0100
0010
0100
,
0001
0000
1000
0000
0001
0000
1000
0000
0000
0010
0000
0000
0100
0000
0000
0001
0000
0000
0100
0000
0000
0010
0000
0000
,
1000
0100
0010
0001
0010
0100
1000
0001
,
2000
0000
3001
0100
1000
0100
0001
2000
,
0000
3001
0010
1000
0010
0001
1000
0001
,
0200
0000
0000
0000
0000
0000
0320
0000
0000
0000
0000
0000
1030
0000
0010
0000
1000
0000
0010
0000
0000
0100
0000
0000
,
0001
0000
1000
0000
0001
0000
1000
0000
0000
0001
0000
0000
0100
0000
0000
0010
0000
0000
1000
0000
0000
0100
0000
0000
,
0020
0000
0031
0010
0001
0001
1000
0020
,
0030
0010
1000
0010
1000
1000
0001
0010
,
0002
0000
0000
0000
0000
0000
1003
0010
,
0002
0000
0000
0203
0000
0000
2300
0000
,
3001
1000
0001
0100
0010
0100
0001
1000
,
0001
0000
0000
0100
0000
0000
0010
0000
0000
0100
0000
0000
0001
0000
0100
0000
0010
0000
1000
0000
0000
0000
0000
0000
,
0001
0100
0001
0100
0010
0100
0010
1000
,
0010
0000
0000
1000
0000
0000
0100
0000
0000
1000
0000
0000
0001
0000
0100
0000
0010
0000
1000
0000
0000
0000
0000
0000
,
0001
0010
0100
0010
0001
1000
0010
0100
,
0010
0000
0000
1000
0000
0000
0001
0000
0000
0010
0000
0000
0100
0000
0001
0000
1000
0000
0001
0000
0000
1000
0000
0000
,
0001
0000
0000
0010
0000
0000
0100
0000
1000
0000
0001
0000
1000
0000
0000
0100
0000
0000
1000
0000
0000
0100
0000
0000
,
0010
0000
0001
0000
1000
0000
0001
0000
0000
0010
0000
0000
0001
0000
0000
1000
0000
0000
0001
0000
0000
1000
0000
0000
,
0010
0000
1000
0010
0000
0100
0001
0000
,
0010
0100
0000
1000
0010
0000
0100
0000
,
0110
0000
0010
1000
0000
0010
0100
0000
,
0001
0010
0000
0100
1000
0000
0001
0000
,
0101
1001
1100
1020
,
0130
0001
0100
0001
1000
0001
1000
0100
1000
0100
0010
0100
,
2000
3020
0230
0302
,
1003
0000
0100
0000
0010
0000
0100
0000
1000
0000
0001
0000
0100
0000
0000
0010
0000
0000
0100
0000
0000
0002
0000
0000
,
2000
0000
0000
0000
,
0000
0000
0000
0000
0000
0000
0000
0000
0000
0000
0000
0000
0000
0000
0000
0000
0000
0000
0000
0000
0000
0003
000M
0000
,
300M
M00M
M000
M000
0000
0000
0000
0000
0000
0000
0000
0000
;

//---------------dance-single - Copied from Copied f----------------
#NOTES:
     dance-single:
     Copied from Copied f:
     Challenge:
     14:
     1.000,1.000,0.545,0.679,0.370: // measure 1
2002
0000
0000
0000
,  // measure 2
0020
0000
0000
0000
,  // measure 3
0200
0000
0000
0000
0000
0000
3333
MMMM
,  // measure 4
0020
0000
0000
0200
0000
0000
0002
0000
,  // measure 5
2000
0000
0000
0000
0000
0000
0333
0MMM
,  // measure 6
3020
0000
0000
0200
0000
0000
0002
0000
,  // measure 7
2000
0000
0000
0000
0000
0000
0000
0000
0000
0000
0000
0000
0000
0000
3003
M00M
,  // measure 8
2002
0000
0000
0000
3333
MMMM
0000
0000
,  // measure 9
0220
0000
0000
0000
0000
0000
0000
0030
,  // measure 10
00M2
0300
0M00
0200
0000
0000
0020
0000
,  // measure 11
2000
0000
0000
0000
0000
0000
0000
3333
,  // measure 12
M2MM
0000
0000
2000
0000
0000
0020
0000
,  // measure 13
0002
0000
0000
0000
0000
0000
0000
3333
,  // measure 14
MM2M
0000
0000
0002
0000
0000
2000
0000
,  // measure 15
0200
0000
0000
0000
0000
0000
0033
00MM
,  // measure 16
0022
0000
0000
0000
0000
0000
0000
0000
3333
MMMM
0000
0000
0000
0000
0000
0000
,  // measure 17
1000
0010
0100
0001
0010
010M
10M0
0M00
,  // measure 18
M001
0100
0010
1000
0100
M010
0M01
00M0
,  // measure 19
100M
0010
1000
0010
0110
0000
0001
0010
,  // measure 20
0001
0010
0110
0000
1000
0010
1000
0010
,  // measure 21
0100
0001
0010
0001
0010
010M
10M0
0M00
,  // measure 22
M001
0100
0001
1000
0100
M010
0M01
00M0
,  // measure 23
100M
0010
1000
0010
0110
0000
0001
0010
,  // measure 24
0001
0010
0110
0000
0010
0001
0010
0001
,  // measure 25
1000
0010
0100
0001
0010
010M
10M0
0M00
,  // measure 26
M001
0010
0001
1000
0100
M010
0M01
00M0
,  // measure 27
100M
0010
1000
0001
0011
0000
0001
0100
,  // measure 28
0001
1000
1100
0000
1000
0001
1001
0000
,  // measure 29
0010
0001
0001
0010
0001
1000
0010
0000
,  // measure 30
1000
0010
0010
1000
0010
0100
0001
0000
,  // measure 31
1000
0100
0001
0000
0001
0010
1000
0000
,  // measure 32
0001
0000
0100
0000
1000
0000
0010
0000
1000
0001
0010
0001
1000
0010
0100
0001
,  // measure 33
1000
0010
0100
0001
0010
1000
0010
MM00
,  // measure 34
00M1
0100
1000
0100
0010
1000
0001
MM00
,  // measure 35
100M
0010
0100
1000
0100
M000
01M0
0001
,  // measure 36
0010
1000
0010
0M0M
0010
0100
1000
0010
,  // measure 37
0001
0010
1000
0100
0001
0100
0010
MM00
,  // measure 38
00M1
0100
1000
0100
0010
1000
0001
MM00
,  // measure 39
001M
0100
1000
0100
M0M1
0000
0010
0001
,  // measure 40
0100
10MM
0100
0000
0010
1000
0100
0010
,  // measure 41
0010
0001
0100
1000
0100
0001
0010
0M0M
,  // measure 42
00M1
0010
1000
0010
0001
1000
0010
MM00
,  // measure 43
10M0
0010
0001
0010
100M
00M0
MM01
0010
,  // measure 44
1000
0010
MM01
00M0
100M
0010
0001
0010
,  // measure 45
1000
0100
0010
0001
0100
0100
0001
0000
,  // measure 46
1000
0010
0100
0001
0001
0010
0100
0000
,  // measure 47
1000
0010
0001
0000
0001
0100
1000
0000
,  // measure 48
1000
0000
0010
0000
0001
0000
0100
0000
0001
1000
0010
1000
0001
0010
0100
1000
,  // measure 49
0001
0010
0011
0000
0001
0100
0101
0000
,  // measure 50
1000
0010
0100
0101
0000
0001
1001
0000
,  // measure 51
1000
0010
1010
0000
0010
0100
0101
0000
,  // measure 52
0001
0100
0010
1010
0000
1000
1001
0000
,  // measure 53
0001
0010
0011
0000
1000
0010
1010
0000
,  // measure 54
0010
0100
0001
1001
0000
0100
0110
0000
,  // measure 55
1010
0000
0010
0110
0000
0100
0101
0000
,  // measure 56
1001
0000
0001
0101
0000
0100
0110
0000
,  // measure 57
1000
0001
0101
0000
0001
1000
1100
0000
,  // measure 58
1000
0010
0100
0101
0000
0001
1001
0000
,  // measure 59
1000
0010
0110
0000
0001
0100
0110
0000
,  // measure 60
0010
1000
0100
0110
0000
0010
0011
0000
,  // measure 61
0001
0100
0110
0000
1000
0010
0110
0000
,  // measure 62
0100
0001
0010
0110
0000
0100
1100
0000
,  // measure 63
1010
0000
0010
0100
0000
0010
0011
0000
,  // measure 64
0101
0000
0100
0010
0000
0100
1100
0000
,  // measure 65
1000
01M0
0101
00M0
0001
01M0
1100
00M0
,  // measure 66
1000
0001
0010
0110
0000
0100
1100
0000
,  // measure 67
00M1
0100
11M0
0000
10M0
0100
01M1
0000
,  // measure 68
0010
0001
1000
1010
0000
0001
0101
0000
,  // measure 69
0M10
1000
1M10
0000
0M10
0001
0M11
0000
,  // measure 70
1000
0010
0100
0011
0000
0100
1100
0000
,  // measure 71
0101
0000
0001
0010
0000
1000
0100
0000
,  // measure 72
1010
0000
1000
0010
0000
0001
0100
0000
,  // measure 73
01M0
0001
11M0
0000
01M0
0001
11M0
0000
,  // measure 74
0001
0100
0010
1010
0000
0100
0101
0000
,  // measure 75
0M10
1000
0M11
0000
0M10
1000
0M11
0000
,  // measure 76
0100
0010
1000
1010
0000
0001
0110
0000
,  // measure 77
1M00
0001
1M10
0000
1M00
0001
1M10
0000
,  // measure 78
1000
0001
0010
0011
0000
1000
1010
0000
,  // measure 79
0010
0100
0001
0010
0000
0110
0110
0000
,  // measure 80
0100
0000
1000
0000
0010
0000
0100
0000
0001
0100
0010
1000
0100
0010
0001
1000
,  // measure 81
0010
1000
0010
0100
0001
0010
0100
0010
,  // measure 82
0001
1000
0010
0100
0001
0100
0010
1000
,  // measure 83
0001
0001
0100
0010
1000
1000
0010
0100
,  // measure 84
0001
0001
0100
0010
1000
1000
0001
0100
,  // measure 85
0100
0010
1000
0100
0010
0001
0100
0010
,  // measure 86
1000
0010
0100
0001
0010
0100
1000
0010
,  // measure 87
0100
0100
0010
1000
0100
0100
0010
0001
,  // measure 88
1000
1000
0010
0100
0001
0001
0011
MMMM
,  // measure 89
0001
0100
0010
1000
0100
0010
0001
0100
,  // measure 90
0010
1000
0100
0010
0100
1000
0001
0010
,  // measure 91
0001
0001
0100
1000
0100
0100
0001
0010
,  // measure 92
1000
1000
0010
0001
0100
0100
0010
1000
,  // measure 93
0100
0100
0010
0001
0100
1000
0100
0010
,  // measure 94
1000
1000
0100
0010
0001
0100
0010
1000
,  // measure 95
0001
0000
0001
0000
0100
0000
0010
0000
1000
0000
0100
0000
0010
0001
0010
0001
,  // measure 96
0010
MMMM
MMMM
MMMM
,  // measure 97
0001
0100
0010
1000
0100
0001
0100
1000
,  // measure 98
0010
0100
0001
0010
1000
0010
0001
0100
,  // measure 99
0010
0010
1000
0100
0001
0001
0100
1000
,  // measure 100
0010
0000
0010
0000
0100
0000
0001
0000
2000
3000
0200
0300
0002
0003
0020
0030
,  // measure 101
1000
0100
1000
1000
0001
0010
0001
0001
,  // measure 102
0100
0010
0100
0100
0001
1000
0001
0001
,  // measure 103
0200
0001
0301
0020
1000
1030
0002
1000
,  // measure 104
1000
0000
0100
0000
1003
0000
0001
0000
0010
0000
0100
0000
1000
0000
0010
0100
,  // measure 105
0001
0000
1000
1100
0000
0001
0101
0000
,  // measure 106
0110
0000
0010
0000
1000
0000
0100
0000
0001
0000
0100
0000
0010
0000
0001
0100
,  // measure 107
0010
0000
1000
1010
0000
0001
0011
0000
,  // measure 108
1010
1000
0100
0000
0011
0001
0100
0010
,  // measure 109
0110
0010
0010
0100
0010
1000
0100
0010
,  // measure 110
0011
0001
0001
0010
0001
0100
0010
1000
,  // measure 111
0001
0100
0001
0000
1000
0000
0100
1000
0100
0000
1000
0000
0010
0100
0010
0000
,  // measure 112
1000
0000
0001
0100
0001
0000
1000
0000
0010
0100
0001
1000
0010
0100
0001
1000
,  // measure 113
0020
0100
0130
0020
0001
0031
0020
1030
,  // measure 114
0200
0001
0301
0200
1000
1300
0200
0310
,  // measure 115
0020
0001
0130
0002
0100
1003
2000
0010
,  // measure 116
3001
0020
1000
0130
2000
3001
0001
1000
,  // measure 117
1010
0010
1000
0200
0010
0310
0M01
0200
,  // measure 118
0010
0310
1M00
0001
MMM1
100M
1000
0001
,  // measure 119
M001
0100
0001
0010
0100
1000
0100
0010
,  // measure 120
0002
0000
0000
0000
1000
0000
0003
0000
0001
0100
0010
1000
0001
0100
0010
1000
,  // measure 121
0002
0010
0013
2000
0010
3010
0002
0013
,  // measure 122
0200
1000
1300
0200
0001
0301
2000
3010
,  // measure 123
0020
1000
0130
2000
0001
3010
0002
0010
,  // measure 124
1003
0200
1000
0310
0002
1003
0200
0310
,  // measure 125
1010
0000
0010
0000
1000
0000
0MM2
0000
M010
0003
001M
0000
0001
0000
0200
0000
,  // measure 126
0010
0310
1M00
0100
0020
0000
0032
00M0
,  // measure 127
0103
001M
1000
01M0
0001
MM10
0001
02M0
,  // measure 128
2000
0000
0000
0000
0000
0000
0300
0000
3001
0100
0010
1000
0100
0010
0001
1000
,  // measure 129
0020
0100
0130
0020
0001
0031
0020
1030
,  // measure 130
0200
0001
0301
0200
1000
1300
0200
0310
,  // measure 131
0020
0001
0130
0002
0100
1003
2000
0010
,  // measure 132
3001
0020
1000
0130
2000
3001
0001
1000
,  // measure 133
1010
0010
1000
0200
0010
0310
0M01
0200
,  // measure 134
0010
0310
1M00
0001
MMM1
100M
1000
0001
,  // measure 135
M001
0100
0010
1000
0100
0010
0001
0100
,  // measure 136
0002
0000
0000
0000
0010
0000
0003
0000
0001
0100
0010
1000
0100
0010
0001
0100
,  // measure 137
0002
0010
0013
2000
0010
3010
0002
0013
,  // measure 138
0200
1000
1300
0200
0001
0301
2000
3010
,  // measure 139
0020
1000
0130
2000
0001
3010
0002
0010
,  // measure 140
1003
0200
1000
0310
0002
1003
0200
0310
,  // measure 141
1010
0000
1000
1100
0000
0001
0101
0000
,  // measure 142
0100
0010
0110
0000
1000
0000
0001
0100
,  // measure 143
0001
1000
0001
0000
1000
0000
0010
0100
0010
0000
0100
0000
0001
0010
0001
0000
,  // measure 144
1000
0000
0010
1000
0010
0000
0100
0000
0001
0100
0010
0000
1000
0100
0010
0000
,  // measure 145
0001
0100
1000
0100
0001
0010
1000
0010
,  // measure 146
0100
1000
0010
0001
0010
1000
0100
0001
,  // measure 147
0100
0010
0001
0100
1000
0100
0010
1000
,  // measure 148
0100
0010
0001
0010
0100
1000
0001
0100
,  // measure 149
1000
0100
0001
0010
0100
0010
0001
1000
,  // measure 150
0100
0001
0100
0010
0001
0100
1000
0100
,  // measure 151
0010
1000
0100
0001
0100
0010
0001
0100
,  // measure 152
1000
0100
0010
1000
0100
0010
0100
1000
,  // measure 153
0001
0100
0100
1000
0010
0010
0001
0100
,  // measure 154
0100
0001
1000
0010
1000
1000
0100
0001
,  // measure 155
0001
0010
1000
1000
0010
0001
0100
1000
,  // measure 156
0001
0010
0010
1000
0100
0100
0001
0010
,  // measure 157
0001
1000
0010
0010
0001
0100
0001
0001
,  // measure 158
0010
1000
1000
0001
0100
0001
0001
1000
,  // measure 159
0010
1000
0010
0000
0100
0000
0001
0000
0010
0001
0010
0000
0001
0000
1000
0000
,  // measure 160
0010
0000
0000
0000
1000
0000
0000
0000
0100
0000
0000
0000
0010
0000
0000
0001
0000
0000
0010
0000
0000
0100
0000
0000
1000
0000
0000
0000
0010
0000
0000
0000
0100
0000
0000
0000
0001
0000
0000
0000
0000
0000
0002
0000
0000
0000
0000
0000
,  // measure 161
2000
0000
0000
0000
,  // measure 162
0000
0000
0000
0000
0000
0000
0000
0003
,  // measure 163
3001
0000
1000
0100
0010
0100
1000
1000
,  // measure 164
M0M0
0001
0100
0010
0010
1000
0100
1000
,  // measure 165
0100
1000
0000
0000
0010
0000
0100
0010
0000
0000
0100
0000
0001
0100
0000
0000
,  // measure 166
0001
0000
0000
0000
0000
0000
0010
0000
0000
0001
0000
0000
0000
0000
0000
0000
0000
0000
1000
0000
0000
0000
0000
0000
0100
0000
0000
0000
1000
0000
0000
0000
0100
0000
0000
0000
1000
0000
0000
0000
0000
0000
0010
0000
0000
0000
0000
0000
,  // measure 167
1000
0000
0010
0000
0100
0000
0001
0000
0010
0000
0100
0000
1000
0000
0000
0010
0000
0000
0100
0000
0000
0001
0000
0000
,  // measure 168
1000
0010
0001
0010
1000
0100
0010
0100
,  // measure 169
0001
1000
0001
0100
1000
0010
0001
0010
,  // measure 170
0100
0001
0010
1000
0100
1000
0010
0001
,  // measure 171
0200
0000
0000
0302
0000
0000
1003
0100
0010
0100
1000
0001
,  // measure 172
0100
0010
0100
0001
1000
0100
1000
0001
0100
0001
0010
0100
,  // measure 173
1000
0100
0100
0010
0001
0100
1000
1000
,  // measure 174
0100
0001
0010
1000
1000
0010
0001
0100
,  // measure 175
0002
0000
0000
0000
0000
0000
1000
1000
,  // measure 176
2000
0000
0000
0020
0000
0000
3133
MMMM
,  // measure 177
0001
1000
1000
0010
1000
1000
0100
1000
,  // measure 178
1000
0000
0010
0000
1000
0000
1000
0000
0001
0100
0001
0100
0010
0000
1000
0000
,  // measure 179
1000
0001
0001
0100
0001
0001
0010
0001
,  // measure 180
0001
0000
0100
0000
0001
0000
0001
0000
1000
0010
1000
0010
0100
0000
0001
0000
,  // measure 181
0001
0100
0100
0010
0100
0100
1000
0100
,  // measure 182
0100
0000
0010
0000
0100
0000
0100
0000
0001
1000
0001
1000
0100
0000
1000
0000
,  // measure 183
1000
0000
0010
0000
0100
0001
0100
0001
0010
0000
0100
0000
1000
0000
0010
1000
,  // measure 184
0010
1000
0100
0000
1000
0000
0010
0000
0100
0001
0100
0001
1000
0000
0010
0000
,  // measure 185
0100
0001
0100
0000
0000
0000
0001
1000
0001
0000
0000
0000
1000
0010
1000
0000
,  // measure 186
0000
0000
0010
0100
0010
0000
0000
0000
1000
0010
1000
0000
0001
0010
0001
0000
,  // measure 187
1000
0010
1000
0000
0000
0000
0010
0100
0010
0000
0000
0000
0100
0001
0100
0000
,  // measure 188
0000
0000
0001
1000
0001
0000
0000
0000
1000
0100
1000
0000
0001
0100
0001
0000
,  // measure 189
1000
0001
0010
0000
0001
1000
0010
0000
1000
0001
0100
0000
0001
1000
0100
0000
,  // measure 190
1000
0000
0000
0000
0010
0000
0000
0000
0100
0000
0000
0000
0001
0000
0000
0000
0010
0000
0000
0000
0100
0000
0000
0000
1000
0000
0000
0000
0001
0000
0000
0000
0100
0000
0000
0000
0001
0000
0000
0010
0000
0000
0100
0000
0000
1000
0000
0000
,  // measure 191
0200
0302
0203
2300
3020
0032
0023
0230
,  // measure 192
0301
0000
0000
0010
0000
0000
0100
0000
0000
1000
0000
0000
0001
0000
0000
0000
0100
0000
0000
0000
1000
0000
0000
0000
0100
0000
0000
0000
0001
0000
0000
0000
0010
0000
0000
0000
1000
0000
0000
0010
0000
0000
0001
0000
0000
2000
0000
0000
,  // measure 193
0002
0000
0000
0000
,  // measure 194
0000
0000
0000
0000
0000
0000
0000
0000
0000
0000
0000
0000
0000
0000
0000
0000
0000
0000
0000
0000
0000
0000
0000
0000
0000
0000
0000
0000
0000
0000
0000
0000
0000
0000
0000
0000
0000
0000
0000
0000
0000
0000
0000
0000
0000
3000
M000
0000
,  // measure 195
M003
M00M
M00M
000M
000M
0000
0000
0000
0000
0000
0000
0000
0000
0000
0000
0000
0000
0000
0000
0000
0000
0000
0000
0000
;

//---------------dance-double - Copied from----------------
#NOTES:
     dance-double:
     Copied from:
     Easy:
     6:
     0.467,0.764,0.030,0.388,0.000:
00000002
00000000
00000000
00000000
,
00000000
00000000
00000000
00000000
,
00000203
00000000
00000000
00000000
,
00000310
00000000
00000000
00001000
00000000
00000000
00000010
00000000
,
00002000
00000000
00000000
00000000
,
00003100
00000000
00000000
00010000
00000000
00000000
00001000
00000000
,
00020000
00000000
00000000
00000000
,
00032000
00000000
00000000
00000000
,
02003000
00000000
00000000
00000000
,
03100000
00000000
00000000
10000000
00000000
00000000
00100000
00000000
,
20000000
00000000
00000000
00000000
,
30010000
00000000
00000000
00100000
00000000
00000000
00010000
00000000
,
00200000
00000000
00000000
00000000
,
00301000
00000000
00000000
00010000
00000000
00000000
00001000
00000000
,
00020000
00000000
00000000
00000000
,
00002000
00000000
00000000
00000000
00000000
00000000
00000000
00033000
,
00010000
00000000
00001000
00000000
,
00010000
00000000
00001000
00000000
,
01000000
00000000
00100000
20000000
,
00000000
00000000
00020000
30000000
,
01030000
00000000
00010000
00000000
,
01000000
00000000
00010000
00000000
,
00100000
00000000
00001000
00020000
,
00000000
00000000
00002000
00030000
,
00013000
00000000
00000010
00000000
,
00010000
00000000
00000010
00000000
,
00000100
00000000
00000001
00002000
,
00000000
00000000
00000002
00003000
,
00001003
00000000
00000001
00000000
,
00001000
00000000
00000001
00000000
,
00000010
00000000
00000100
00000000
,
00010000
00000100
00000100
00010000
,
00001000
00000000
00010000
00000000
,
00001000
00000000
00010000
00000000
,
00001000
00000000
01000000
00200000
,
00000000
00000000
20000000
00300000
,
30010000
00000000
00100000
00000000
,
00010000
00000000
00100000
00000000
,
00001000
00000000
00010000
00000020
,
00000000
00000000
00000200
00000030
,
00000301
00000000
00001000
00000000
,
00000001
00000000
00001000
00000000
,
00000010
00000000
00010000
00000200
,
00000000
00000000
00020000
00000300
,
00031000
00000000
00100000
00000000
,
00001000
00000000
00100000
00000000
,
00010000
00000000
10000000
00000000
,
00100000
10000000
10000000
00010000
,
00100000
00000000
00001000
00000000
,
00010000
00001000
00010000
00000000
,
00000010
00000000
00000100
00000000
,
00000001
00001000
00000001
00000000
,
00000100
00000000
00000010
00000000
,
00010000
00001000
00010000
00000000
,
00001000
00000000
00000000
00001000
00000000
00000000
00001000
00000000
,
00010000
00000000
00000000
00010000
00000000
00000000
00010000
00000000
,
00001000
00000000
01000000
00000000
,
00100000
10000000
00100000
00000000
,
10000000
00000000
00010000
00000000
,
00100000
00001000
00100000
00000000
,
00001000
00000000
00010000
00000000
,
00000010
00000100
00000010
00000000
,
00000100
00000000
00000000
00000100
00000000
00000000
00000100
00000000
,
00000001
00000000
00000000
00000001
00000000
00000000
00000001
00000000
,
00001000
00000000
00000001
00000000
,
00000100
00000010
00001000
00000000
,
00000100
00000000
00010000
00000000
,
00001000
01000000
00100000
00000000
,
10000000
00000000
00010000
00000000
,
10000000
00100000
01000000
00000000
,
00010000
00000000
00000000
10000000
00000000
00000000
00010000
00000000
,
00100000
00000000
00000000
00001000
00000000
00000000
00100000
00000000
,
00001000
00000000
00010000
00000000
,
00000100
00000010
00000001
00000000
,
00001000
00000000
00000001
00000000
,
00000010
00000100
00010000
00000000
,
00001000
00000000
00100000
00000000
,
01000000
10000000
00100000
00000000
,
01000000
00000000
00000000
00010000
00000000
00000000
01000000
00000000
,
00001000
00000000
00000000
00010000
00000000
00000000
00001000
00000000
,
00010000
00000000
00001000
00000000
,
00010000
00000000
00000100
00000000
,
00000020
00000000
00000032
00000000
,
00000023
00000000
00000031
00001000
,
00000001
00000000
00000100
00000000
,
00000010
00000000
00001000
00000000
,
00000200
00000000
00020300
00000000
,
00032000
00000000
00023000
00000000
,
00031000
00000000
00100000
00000000
,
00001000
00000000
01000000
00000000
,
00200000
00000000
20300000
00000000
,
30200000
00000000
10300000
00010000
,
00100000
00000000
00001000
00000000
,
00010000
00000000
00000100
00000000
,
00000020
00000000
00000031
00001000
,
00000020
00000000
00000030
00000000
,
00000100
00000000
00000010
00000000
,
00001000
00000000
00000100
00000000
,
00010000
00000000
00001000
00000000
,
00100000
00000000
00010000
10000000
,
00100000
00000000
00100000
00000000
,
01000000
00000000
01000000
00000000
,
00010000
00000000
00000000
10000000
00000000
00000000
10010000
00000000
,
00000000
00000000
00000000
10000000
,
00010000
00000000
00000000
00100000
00000000
00000000
00020000
00000000
,
00000000
00100000
00130000
00001000
,
00010000
00000000
00000000
00000010
00000000
00000000
00000200
00000000
,
00000000
00000010
00000310
00000100
,
00000110
00000000
00001010
00000000
,
00010100
00000000
00011000
00000000
,
00010000
00000000
00000000
00001000
00000000
00000000
00010000
00000000
,
00000000
00001000
00000000
00000000
00010000
00000000
00001000
00000000
,
01000000
00000000
00000000
00100000
00000000
00000000
20000000
00000000
,
00000000
30010000
00100000
01000000
,
20000000
00000000
00000000
00000000
,
00000000
00000000
00000000
30000000
,
00010000
00000000
00000000
00100000
00000000
00000000
00002000
00000000
,
00000000
00013000
00010000
00000010
,
00000100
00000000
00000001
00000000
,
00001000
00000000
00000001
00001000
,
00000010
00000000
00000000
00000100
00000000
00000000
00000002
00000000
,
00000000
00001003
00000100
00000010
,
00000002
00000000
00000000
00000000
,
00000000
00000000
00000000
00000003
,
00001000
00000000
00000000
00000100
00000000
00000000
00020000
00000000
,
00000000
00031000
00001000
01000000
,
00100000
01000000
00100000
01000000
,
00010000
00000000
10000000
00010000
,
00100000
00000000
00000000
00001000
00000000
00000000
00020000
00000000
,
00000000
00031000
00100000
01000000
,
20000000
00000000
00000000
00000000
,
00000000
00000000
00000000
30000000
,
00010000
00000000
00000000
00100000
00000000
00000000
00002000
00000000
,
00000000
00013000
00010000
00000010
,
00000100
00000000
00000001
00000000
,
00001000
00000000
00000001
00001000
,
00000010
00000000
00000000
00001000
00000000
00000000
00000200
00000000
,
00000000
00010300
00000100
00000010
,
00000002
00000000
00000000
00000000
,
00000003
00000000
00001000
00000001
,
00001000
00000000
00000000
00000100
00000000
00000000
00000100
00000000
,
00010000
00001000
00001000
00100000
,
00010000
00000000
00000000
00010000
00000000
00000000
00010000
00000000
,
10000000
00100000
00100000
01000000
,
00010000
00000000
00000000
10000000
00000000
00000000
00010000
00000000
,
00000000
10000000
00000000
00000000
00010000
00000000
10000000
00000000
,
00100000
00000000
00000000
01000000
00000000
00000000
00100000
00000000
,
00000000
01000000
00000000
00000000
00100000
00000000
01000000
00000000
,
00001000
00000000
00000000
00010000
00000000
00000000
00001000
00000000
,
00000000
00010000
00000000
00000000
00001000
00000000
00010000
00000000
,
00000100
00000000
00000000
00000010
00000000
00000000
00000100
00000000
,
00000000
00000010
00000000
00000000
00000100
00000000
00000010
00000000
,
00000001
00000000
00000000
00001000
00000000
00000000
00000001
00000000
,
00000000
00000100
00000000
00000000
00000010
00000000
00001000
00000000
,
00000100
00000000
00000000
00010000
00000000
00000000
00001000
00000000
,
00000000
00010000
00000000
00000000
00001000
00000000
01000000
00000000
,
00100000
00000000
00000000
10000000
00000000
00000000
00010000
00000000
,
00000000
00100000
00000000
00000000
00001000
00000000
00010000
00000000
,
00000100
00000100
00010000
00010000
,
00002000
00203000
02300000
23000000
,
30200000
00000000
00000000
00000000
,
00000000
00000000
00000000
00000000
00000000
00000000
00000000
00300000
,
01000000
00100000
01000000
00000000
,
00010000
00000000
10000000
00000000
,
00010000
00000000
00000000
00010000
00000000
00000000
10000000
00000000
,
00000000
10000000
00000000
00000000
00100000
00000000
01000000
00000000
,
00001000
00010000
00001000
00010000
,
00000100
00000010
00000100
00000010
,
00000001
00000000
00001000
00000000
,
00000010
00000000
00010000
00000000
,
00001000
00000000
01000000
01000000
,
00100000
10000000
01000000
00100000
,
00001000
00000000
00010000
00000000
,
00000100
00000000
00000010
00000000
,
00000002
00000000
00000000
00000013
,
00000200
00000000
00000000
00020300
00000000
00000000
00031000
00000000
,
01000000
00000000
00010000
00000000
,
10000000
00100000
00100000
00000000
,
01000000
00000000
00001000
00000000
,
00010000
00000010
00000010
00000000
,
00000100
00000000
00000001
00000000
,
00000010
00000100
00000100
00000000
,
00010000
00001000
00001000
00000000
,
00100000
00010000
01000000
00100000
,
10000000
00000000
00000000
00010000
00000000
00000000
00001000
00000000
,
00000000
00000001
00000000
00000000
00000010
00000000
00000010
00000000
,
00000001
00000000
00000000
00001000
00000000
00000000
00010000
00000000
,
00000000
10000000
00000000
00000000
00100000
00000000
00100000
00000000
,
10000000
01000000
00010000
00001000
,
00000020
00000032
00000023
00000230
,
00001300
00000001
00000100
00001000
,
00020000
00230000
20300000
32000000
,
00200000
00000000
00000000
00000000
,
00000000
00000000
00000000
00000000
,
03300000
00000000
00000000
00000000
;

//---------------dance-double - Copied from Copied f----------------
#NOTES:
     dance-double:
     Copied from Copied f:
     Medium:
     9:
     0.750,0.999,0.394,0.691,0.000:
00002000
00000000
00000000
00000000
,
00000020
00000000
00000000
00003000
,
00020000
00000000
00000000
00000030
,
00031000
00000000
00000000
01000000
00000000
00000000
00100000
00000000
,
20000000
00000000
00000000
00000000
,
30100000
00000000
00000000
01000000
00000000
00000000
00001000
00000000
,
00020000
00000000
00000000
00000000
,
00031000
00000000
00000000
00000000
,
00012000
00000000
00000000
00000000
,
00013000
00000000
00000000
00000010
00000000
00000000
00000100
00000000
,
00000002
00000000
00000000
00000000
,
00000013
00000000
00000000
00000100
00000000
00000000
00010000
00000000
,
00002000
00000000
00000000
00003000
,
01000000
00000000
00000000
00100000
00000000
00000000
10000000
00000000
,
00020000
00000000
00000000
00000000
,
20000000
00000000
00000000
30030000
,
00200000
00000000
10000000
00000000
,
01000000
00000000
00001000
00000000
,
01300000
00000000
10000000
00020000
,
00000000
00130000
00000010
00000000
,
00002000
00000000
00000001
00000000
,
00000010
00000000
00010000
00000000
,
00003010
00000000
00000001
00002000
,
00000000
00003010
00100000
00000000
,
00002000
00000000
00010000
00000000
,
00000100
00000000
00010000
00000000
,
00103000
00000000
00001000
00010000
,
00000000
00000100
01000000
00000000
,
00002000
00000000
00100000
00000000
,
10000000
00000000
01000000
00000000
,
00023000
00000000
00000010
00000000
,
00000001
00000000
00000100
00030000
,
00020000
00001000
00002000
00000000
,
01003000
01000000
02000000
00000000
,
03001000
00001000
01000000
00032000
,
00000000
01003000
00000100
00000000
,
00000200
00010000
00020000
00000000
,
00030001
00000001
00000002
00000000
,
00010003
00010000
00001000
02000300
,
00000000
03000100
01000000
00000000
,
00020000
00000010
00000020
00000000
,
00100030
00100000
00200000
00000000
,
00301000
00001000
00100000
00032000
,
00000000
01003000
00000100
00000000
,
00020000
00001000
01000000
01030000
,
00002000
00010000
00000100
00003100
,
00022000
00000000
00000000
00000000
,
00033000
00000000
00000000
00000000
,
00002000
01003000
00002000
01003000
,
00100000
00000000
10000000
00010000
00000000
10000000
00010000
00000000
,
00200000
00301000
00200000
00301000
,
00010000
00000000
00000010
00000100
00000000
00000010
00000100
00000000
,
00000002
00000013
00000002
00000013
,
00000001
00000000
00001000
00000010
00000000
00001000
00000010
00000000
,
00001010
00000000
00000000
00011000
00000000
00000000
01001000
00000000
,
01100000
00000000
00000000
10100000
00000000
00000000
10010000
00000000
,
20000000
30010000
00200000
00301000
,
00010000
00000000
00001000
01000000
00000000
00001000
00010000
00000000
,
00020000
00030010
00002000
00003001
,
00000010
00000000
00000001
00001000
00000000
00000100
00010000
00000000
,
00002000
01003000
00020000
10030000
,
00100000
00000000
10000000
00010000
00000000
00100000
00001000
00000000
,
00011000
00000000
00000000
00010100
00000000
00000000
00000110
00000000
,
00000011
00000000
00000000
00000101
00000000
00000000
00001100
00000000
,
00011000
00001000
00011000
00010000
,
00010100
00000000
00010000
00000100
00000000
01000000
00010000
00000000
,
00110000
00010000
00110000
00100000
,
00110000
00000000
00010000
01000000
00000000
00000100
00010000
00000000
,
00011000
00001000
00011000
00010000
,
00010010
00000000
00001000
00000010
00000000
00100000
00001000
00000000
,
00011000
00000000
00000000
01000100
00000000
00000000
01001000
00000000
,
10010000
00000000
00000000
00100010
00000000
00000000
00001010
00000000
,
00000120
00001030
02100000
03010000
,
00000110
00000000
00000010
00010000
00000000
00000100
01000000
00000000
,
01200000
00310000
00000210
00001300
,
01100000
00000000
10000000
00100000
00000000
01000000
00000100
00000000
,
02000100
03010000
00100020
00001030
,
01000100
00000000
00010000
00001000
00000000
00100000
00000010
00000000
,
00100010
00000000
00000000
00011000
00000000
00000000
01000100
00000000
,
01100000
00000000
00000000
10001000
00000000
00000000
00100000
00001000
,
00010000
00001000
01000000
00001000
,
00100000
01000000
10000000
00100000
,
02000000
03001000
00002000
00013000
,
00020000
00030100
00000200
00002300
,
00003001
00000010
00000001
00000100
,
00000010
00010000
00001000
01000000
,
00200000
10300000
20000000
30010000
,
00020000
00130000
00200000
00301000
,
00010000
00000100
00000100
00000010
,
00000001
00000100
00000100
00000010
,
00020000
00001000
00001000
00001000
,
00001000
00001000
00031000
01000000
,
00200000
10000000
10300000
00020000
,
00100000
00130000
00002000
00013000
,
00000020
00000000
00000100
00000000
00000130
00000000
00000010
00001000
,
00000001
00000000
00000000
00000000
,
00002000
00000010
00003010
00010000
,
00002000
00000000
00000000
02003000
00000000
00000000
03100000
00000000
,
10100000
10000000
10000000
00100000
,
01000000
00000000
00001000
00000000
00010000
00001000
00010000
00001000
,
00020000
00001000
00001000
01030000
,
00002000
00010000
00010000
00003100
,
00011000
00000000
00000000
00001010
00000000
00000000
00000022
00000000
,
00000000
00000000
00000000
00000000
00000033
00000000
00000010
00000001
,
00002000
00000000
00000000
00003020
00000000
00000030
00010010
00000000
,
00000000
00000000
00001000
00000000
01000000
00000000
00100000
10000000
,
00020000
00000000
00000000
00230000
00000000
00300000
00101000
00000000
,
00000000
00000000
00010000
00000000
00000010
00000000
00001000
00000001
,
00000010
00000010
00000010
00000010
,
00000100
00000000
00000000
00000010
00000000
00000000
00000002
00000000
,
00002000
00000000
00000000
00000000
,
00003003
00000000
00000000
00000000
00000001
00000100
00000010
00001000
,
00000100
00000000
00000000
00010000
00000000
00000000
00002000
00000000
,
00000000
00013000
00001000
01000000
,
02200000
00000000
00000000
00000000
,
00000000
00000000
00000000
03300000
,
00200000
00000000
00000000
20300000
00000000
00000000
30020000
00000000
,
00000000
00130000
00001000
00010000
,
00000020
00000000
00000100
00000000
00000130
00000000
00000010
00001000
,
00000001
00000000
00000000
00000000
00000001
00000010
00000100
00010000
,
00001000
00000000
00000000
00100000
00000000
00000000
00020000
00000000
,
00000000
00130000
00010000
10000000
,
20020000
00000000
00000000
00000000
,
00000000
00000000
00000000
30030000
,
10000000
00000000
00000000
00100000
00000000
00000000
01000000
00000000
,
00000000
00100000
10000000
00010000
,
00100000
00001000
00100000
00001000
00010000
00000100
00010000
00000100
,
00001000
00000000
00000000
00000000
00000100
00010000
00001000
00100000
,
00001000
00000000
00000000
00010000
00000000
00000000
00000200
00000000
,
00000000
00000310
00000001
00001000
,
00002020
00000000
00000000
00000000
,
00000000
00000000
00000000
00003030
,
00001000
00000000
00000000
00000001
00000000
00000000
00000020
00000000
,
00000000
00000031
00000100
00000010
,
00020000
00000000
00001000
00000000
00031000
00000000
00010000
00001000
,
00100000
00000000
00000000
00000000
00010000
01000000
00100000
10000000
,
00010000
00000000
00000000
00100000
00000000
00000000
00002000
00000000
,
00000000
00013000
00000010
00000100
,
00000220
00000000
00000000
00000000
,
00000330
00000000
00000100
00000010
,
00010000
00000000
00000000
00001000
00000000
00000000
01000000
00000000
,
00100000
10000000
01000000
00100000
,
00001000
00000000
00000000
00010000
00000000
00000000
00000100
00000000
,
00000010
00000001
00001000
00000010
,
00001000
00000001
00001000
00000000
00000001
00000000
00001000
00000001
,
00001000
00000000
00000010
00000000
00001000
00000100
00001000
00000000
,
00000100
00010000
00000100
00000000
00010000
00000000
00001000
00010000
,
00001000
00000000
00010000
00000000
00001000
01000000
00001000
00000000
,
01000000
00100000
01000000
00000000
00100000
00000000
10000000
00100000
,
10000000
00000000
00100000
00000000
10000000
00010000
10000000
00000000
,
00100000
00001000
00100000
00000000
00001000
00000000
00010000
00001000
,
00010000
00000000
00001000
00000000
00010000
00000100
00010000
00000000
,
00000100
00001000
00000001
00000000
00000010
00000000
00000001
00001000
,
00000010
00000000
00001000
00000000
00000100
00010000
00001000
00000000
,
00100000
00010000
10000000
00000000
00100000
00000000
10000000
00010000
,
00100000
00000000
00001000
00000000
00010000
00000010
00000100
00000000
,
00000010
00000100
00000010
00000000
00001000
00000000
00000001
00000000
,
00000100
00000010
00000100
00000000
00000001
00000000
00001000
00000000
,
00000100
00001000
00000100
00000000
00100000
00010000
00100000
00000000
,
00001000
01000000
00001000
00010000
00000100
00010000
00001000
01000000
,
00200000
00000000
00000000
00000000
,
00000000
00000000
00000000
00300000
,
10000000
00000000
00100000
01000000
00100000
00000000
10000000
02000000
,
00000000
13000000
00100000
01000000
,
00010000
00000000
00100000
00001000
00000000
00001000
00010000
00000000
,
00010000
00000100
00000000
00000100
00001000
00000001
00001000
00000001
,
00000020
00000032
00000203
00000320
,
00020030
00032000
02003000
03200000
,
10300000
01000000
00100000
00001000
,
00010000
00000100
00000010
00000001
,
00001000
00000000
00000010
00000000
00000100
00000001
00000100
00000001
,
00001000
00000000
00000100
00000000
00010000
00001000
00010000
00001000
,
01000000
00100000
10000000
01000000
,
00100000
00000000
00001000
00000000
00010000
00000000
00000100
00000010
,
00000002
00000000
00000000
00000000
00000000
00000000
00001003
00000010
,
00000200
00000000
00000000
00000320
00000000
00000000
00010030
00000000
,
00001000
01000000
00001000
00000000
00010000
00000000
00001000
01000000
,
00001000
00000000
00010000
00000000
00001000
00100000
00001000
00000000
,
00010000
00000010
00010000
00000000
00001000
00000000
00010000
00000010
,
00010000
00000000
00001000
00000000
00010000
00000100
00010000
00000000
,
00000100
00001000
00000001
00000000
00000010
00000000
00000001
00000100
,
00000010
00000000
00001000
00000000
00000100
00010000
00000100
00000000
,
00010000
00000000
00001000
01000000
00001000
00000000
00100000
00000000
,
10000000
00010000
10000000
00000000
00100000
01000000
00010000
00000000
,
10010000
00000000
00000000
00011000
00000000
00000000
00001001
00000000
,
00000000
00011000
00000000
00000000
10010000
00000000
00100000
00000000
,
01100000
00000000
00000000
01000100
00000000
00000000
00000110
00000000
,
00000000
01000100
00000000
00000000
01100000
00000000
00010000
00000000
,
01010000
00100000
00010100
00001000
,
00010000
00001000
00010000
00000100
00000010
00000001
00000100
00000010
,
00020000
00032000
02003000
03200000
,
10300000
00010000
00100000
01000000
10000000
00100000
01000000
00001000
,
00020000
00000000
00000000
00000000
,
00000000
00000000
00000000
00000000
,
00030000
00000000
00000000
00000000
;

//---------------dance-double - Copied from Copied f----------------
#NOTES:
     dance-double:
     Copied from Copied f:
     Hard:
     12:
     1.000,1.000,0.563,0.545,0.164:
20020000
00000000
00000000
00000000
00000000
00000000
00000000
30000000
,
00230000
00000000
00000000
00000000
,
00302000
00000000
00000000
00000000
,
00023000
00000000
00000000
00030020
00000000
00000000
00000230
00000000
,
00000302
00000000
00000000
00000000
,
00000023
00000000
00000000
00000230
00000000
00000000
00020300
00000000
,
00002000
00000000
00000000
00000000
00000000
00000000
00000000
00030000
,
02000000
00000000
00000000
00000000
00000000
00000000
00000000
03003000
,
20200000
00000000
00000000
00000000
00000000
00000000
00000000
30300000
,
20000000
00000000
00000000
30020000
00000000
00000000
00230000
00000000
,
00000020
00000000
00000000
00000000
00000000
00000000
00000000
00300030
,
00000001
00000000
00000000
00001000
00000000
00000000
00000200
00000000
,
02000000
00000000
00000000
00000000
00000000
00000000
00000000
03000300
,
00010000
00000000
00000000
01000000
00000000
00000000
00002000
00000000
,
20000000
00000000
00000000
00000000
,
00020000
00000000
00000000
00000000
00000000
00000000
00000000
30033000
,
10000000
00000000
00010000
00000000
01000000
00010000
01000000
00000000
,
00010000
00000000
00100000
00000000
00001000
00010000
00001000
00000000
,
00010000
00000100
00010000
00000000
00001000
00000000
00010000
00000100
,
00010000
00000000
00001000
00000000
00010000
00000100
00000010
00000000
,
00000001
00000100
00000001
00000000
00001000
00000000
00000001
00000000
,
00000010
00000001
00000010
00000000
00000001
00000000
00001000
00000000
,
00000100
00010000
00000100
00000000
00010000
00000000
00000100
00010000
,
00000100
00000000
00010000
00000000
00001000
00100000
01000000
00000000
,
10000000
00100000
10000000
00000000
00010000
00000000
00100000
00000000
,
00010000
10000000
00010000
00000000
01000000
00000000
00010000
00000000
,
00100000
00001000
00100000
00000000
00001000
00000000
00100000
00001000
,
00100000
00000000
00001000
00000000
00010000
00000100
00000010
00000000
,
00000001
00000100
00000020
00000000
00010030
00000000
00001000
00000000
,
00010000
00001000
00200000
00000000
00310000
00000000
01000000
00000000
,
10000000
00100000
01000000
00000000
00010000
00100000
01000000
00000000
,
00100000
00001000
00010000
00000100
00000010
00000001
00001000
00000010
,
00000100
00000001
00000010
00000000
00000100
00000000
00010000
00000000
,
00001000
00100000
01000000
00000000
10000000
00000000
00100000
00000000
,
01000000
00010000
01000000
00010000
00100000
00000000
00001000
00010000
,
00001000
00010000
00000100
00000000
00000010
00000001
00001000
00000000
,
00000001
00000100
00000010
00000000
00001000
00000000
00000100
00000000
,
00010000
00001000
01000000
00000000
00100000
00000000
10000000
00000000
,
00010000
00100000
00010000
00100000
01000000
00000000
10000000
00100000
,
10000000
00100000
01000000
00000000
00001000
00010000
00000010
00000000
,
00000100
00000001
00000010
00000000
00001000
00000000
00010000
00000000
,
00100000
10000000
01000000
00000000
00010000
00000000
00001000
00000000
,
00000010
00000001
00000010
00000001
00000100
00000000
00000010
00010000
,
00000010
00010000
00001000
00000000
00100000
00001000
01000000
00100000
,
10000000
01000000
00100000
00000000
00001000
00000000
00010000
00000000
,
00000100
00000010
00000001
00000000
00000100
00000010
00010000
00001000
,
01000000
00100000
01000000
00000000
00001000
00010000
00001000
00000000
,
00010000
00000100
00001000
00000001
00000010
00000100
00001000
00000010
,
00001000
00000100
00001000
00000000
00001000
01000000
00001000
00000000
,
01000000
00001000
00100000
02000000
00000000
00000000
03100000
00000000
,
00001000
00100000
00001000
00000000
00001000
00000010
00001000
00000000
,
00000010
00010000
00000100
00000020
00000000
00000000
00000130
00000000
,
00010000
00000100
00010000
00000000
00010000
01000000
00010000
00000000
,
01000000
00001000
00100000
02000000
00000000
00000000
03100000
00000000
,
00011000
00000000
00001000
00100000
00000000
00010000
00000010
00000000
,
00011000
00000000
00001000
01000000
00000000
00010000
00000100
00000000
,
00010000
00000100
00010000
00000000
00001000
00100000
00001000
00000000
,
00010000
00000100
00000001
00000200
00000000
00000000
00010300
00000000
,
00001000
00100000
00001000
00000000
00010000
00000100
00010000
00000000
,
00001000
01000000
10000000
02000000
00000000
00000000
03010000
00000000
,
00100000
00001000
00100000
00000000
00000100
00010000
00000100
00000000
,
00010000
00000010
00000001
00000020
00000000
00000000
00001030
00000000
,
00001010
00000000
00000001
00001000
00000000
00000010
00100000
00000000
,
00110000
00000000
10000000
00010000
00000000
00100000
00000010
00000000
,
00010000
00001000
01000000
00000000
00001000
00010000
00000100
00000000
,
00010000
00000100
00010000
02000000
00000000
13000000
00010000
00000000
,
00100000
00001000
00010000
00000000
00000010
00010000
00001000
00000000
,
00010000
00000010
00010000
02000000
00000000
13000000
00010000
00000000
,
00100000
00001000
00010000
00000000
00000010
00010000
00001000
00000000
,
00010000
01000000
00010000
00000020
00000000
00001030
00000001
00000000
,
00000101
00000000
00000010
00001000
00000000
00000100
01000000
00000000
,
10100000
00000000
01000000
00010000
00000000
00100000
00000010
00000000
,
00001010
00000000
00001000
00000001
00001000
00000001
00000010
00000100
,
00010000
00001000
01000000
20000000
00000000
31000000
00010000
00000000
,
10010000
00000000
10000000
00100000
10000000
00100000
01000000
00001000
,
00010000
00000100
00000001
00000200
00000000
00000310
00000001
00000000
,
00001001
00000000
00000001
00000100
00000001
00000100
00000010
00010000
,
00001000
00100000
10000000
00200000
00000000
01300000
10000000
00000000
,
10100000
00000000
01000000
00100000
00000000
00001000
00010000
00000000
,
00001010
00000000
00000000
00000000
00000000
00000000
00000010
00000000
00000000
00000100
00000000
00000000
00000000
00000000
00000000
00010000
00000000
00000000
00001000
00000000
00010000
00000000
00001000
00000000
,
00010000
00001000
01000000
00100000
,
10100000
10000000
01000000
00100000
,
00012000
01003000
00021000
00030100
,
00012000
01003000
00001000
00010000
,
00010010
00000010
00000100
00000001
,
00000011
00000100
00010000
00001000
,
00021000
00130000
00012000
00003010
,
00021000
00130000
00100000
00001000
,
01010000
00010000
10000000
00100000
,
01010000
00010000
00100000
00001000
,
00021000
00030010
00012000
01003000
,
00021000
00030010
00012000
01003000
,
01200000
10000000
01300000
02100000
,
00100000
03001000
00021000
00030100
,
00001002
00000000
00001000
00000000
00000013
00000000
00000100
00000001
,
00001000
00001010
00011000
00110000
,
10020000
10000000
10000000
00130000
,
01100000
01000000
00001000
00010000
,
00020010
00001000
00001000
00030100
,
00001100
00000000
00000001
00000000
00000010
00000100
00010000
00001000
,
02000000
00000000
00100000
00000000
10000000
00000000
00001000
03000000
,
00000200
00000000
00000010
00000000
00000001
00000000
00010000
00000300
,
00011000
00000000
00000000
01000100
00000000
00000000
00100010
00000000
,
00001000
00000000
00000000
00010000
00000000
00000000
00000100
00000000
00000000
00000010
00000001
00000010
,
00000001
00000000
00000000
00001010
00000000
00000000
00021000
00000000
,
00000000
00000000
00000000
00030000
00000000
00000000
00001000
00000000
00000000
00000000
00000000
00000000
01000000
00000000
00000000
00000000
00000000
00000000
00100000
00000000
10000000
00000000
00100000
00000000
,
10000000
00000000
00000000
00101000
00000000
00000000
00012000
00000000
,
00000000
00003000
00010000
00000000
00001000
00010000
00000100
00000010
,
00000002
00002003
00023000
20030000
,
32000000
00000000
03200000
00000000
00300020
00000000
00000230
00000300
,
00000110
00000101
00000011
00001100
,
00110000
00000000
00000000
11000000
00000000
00000000
10000000
00010000
10000000
01000000
00100000
00010000
,
10000000
00100000
01000000
01100000
,
00010000
00100000
00011000
00010010
,
00201000
00000000
10000000
00000000
01000000
00000000
00001000
00300000
,
00001020
00000000
00000001
00000000
00000100
00000000
00010000
00000030
,
00011000
00100000
00000010
00011000
,
00000100
01000000
01001000
00110000
,
00001100
00000000
00010000
00000000
00000100
00010000
00000100
00000010
,
00000001
00000000
00000000
00001000
00000000
00000000
00000001
00000010
00000100
00001000
00000010
00000100
,
00000001
00000100
00000010
00001010
,
00001000
00000100
00011000
00010100
,
02010000
00000000
10000000
00000000
00100000
00000000
00001000
03000000
,
00010200
00000000
00000001
00000000
00000010
00000000
00010000
00000300
,
00011000
00010000
00000001
00000110
,
00000001
00001000
00010010
01001000
,
00010000
00100000
01000000
00100000
00001000
00010000
00000100
00001000
,
00000001
00000000
00000000
00000000
00000000
00000000
00000100
00000010
00001000
00000001
00000010
00000100
,
00010000
00001000
01000000
01100000
,
10000000
00010000
00101000
00010010
,
00001200
00000000
00010000
00000000
00000001
00000000
00000010
00000300
,
00001020
00000000
00000001
00000000
00010000
00000000
00000100
00000030
,
00010010
00010000
00001000
01001000
,
01000000
00100000
10010000
01001000
,
00110000
00000000
00100000
00000000
00001000
00000000
00010000
00000010
,
00000100
00000000
00000000
00000000
00000000
00000000
00000010
00001000
00000100
00000010
00000001
00001000
,
00000010
00010000
00001000
01001000
,
01000000
00100000
10100000
11000000
,
00102000
00000000
00010000
00000000
00000100
00000000
01000000
00003000
,
00020010
00000000
00000001
00000000
01000000
00000000
00000100
00030000
,
00011000
00000000
00001000
01000000
00000000
00010000
00000100
00000000
,
00002000
00003002
00000023
00000130
,
00011000
00000000
00000100
00010000
00000000
00001000
00100000
00000000
,
00100000
01000000
00100000
00000000
00001000
00000000
00010000
00000000
,
00000100
00000010
00000001
00000010
00000000
00000001
00000100
00000010
,
00000100
00000010
00000000
00001000
00000100
00010000
00001000
00000000
,
00010000
00001000
00010000
01000000
00000000
00100000
00010000
10000000
,
00010000
00100000
00000000
00001000
00010000
00001000
00000100
00000000
,
00000001
00001000
00000001
00000010
00000000
00000100
00010000
00001000
,
00010000
00000100
00000000
00010000
00001000
00100000
00001000
00000000
,
00100000
00010000
10000000
00010000
00000000
10000000
00100000
01000000
,
00100000
10000000
00000000
00100000
01000000
00001000
00010000
00000000
,
00001000
00010000
00000100
00000010
00000000
00000001
00000100
00001000
,
00000100
00000010
00000000
00001000
00000100
00010000
00001000
00000000
,
00010000
00001000
01000000
00100000
00000000
00100000
10000000
00010000
,
00100000
00001000
00000000
00010000
00000010
00000100
00000010
00000000
,
00000100
00000001
00000100
00000001
00000010
00000100
00010000
00000000
,
00001000
00010000
00001000
00010000
01000000
10000000
00100000
00000000
,
10000000
01000000
00100000
00001000
00010000
00000010
00000100
00000001
,
00001000
00000000
00000010
00000000
00000100
00000000
00000001
00000000
00000000
00000010
00000000
00000000
00000100
00000000
00000000
00010000
00000000
00000000
00001000
00000000
00000000
01000000
00000000
00000000
,
00200000
00000000
00000000
00000000
,
00000000
00000000
00000000
00300000
,
10100000
00000000
10000000
00100000
10000000
01000000
00100000
00001000
,
00000000
00010000
00001000
00010000
00000100
00000010
00000001
00001000
,
00000001
00000000
00000010
00001000
00000000
00010000
00100000
00000000
,
10000000
01000000
00000000
00100000
00001000
00010000
00000100
00000010
,
00000001
00000000
00001000
00000000
00000001
00000000
00001000
00000000
00000000
00000010
00000000
00000000
00000100
00000000
00000000
00000001
00000000
00000000
00000010
00000000
00000000
00000010
00000000
00000000
,
00000001
00001000
00000100
00010000
00001000
01000000
00100000
00100000
,
20000000
00000000
30100000
01000000
00100000
01000000
00001000
00020000
,
00000000
00031000
00010000
00001000
00010000
00000100
00000010
00000001
,
00002000
00000000
00000000
00000000
00000000
00000000
00003001
00000000
00000000
00000000
00000000
00000000
00000010
00000000
00000001
00000000
00000010
00000000
00000001
00000000
00000000
00001000
00000000
00000000
,
00000010
00000000
00001000
00000000
00000010
00000000
00001000
00000000
00000000
00000001
00000000
00000000
00000010
00000000
00000000
00000100
00000000
00000000
00010000
00000000
00000000
00001000
00000000
00000000
,
00020000
00000000
00031000
00001000
00010000
00001000
01000000
00200000
,
00000000
10300000
10000000
00100000
01000000
00010000
00100000
00001000
,
00020000
00000000
00000000
00000000
00000000
00000000
00031000
00000010
,
00000002
00000000
00000000
00000203
00000000
00000000
00010300
00000000
,
10000000
00100000
10000000
00010000
00100000
00010000
00001000
01000000
,
00001000
00000000
00000000
00010000
00000000
00000000
00000100
00000000
00000000
00010000
00000000
00000000
00000100
00000000
00001000
00000000
00000100
00000000
00001000
00000000
00000000
00000001
00000000
00000000
,
00000010
00000100
00010000
00000100
00001000
00000001
00001000
00000010
,
00010000
00000000
00000000
00000010
00000000
00000000
00001000
00000000
00000000
00000001
00000000
00000000
00001000
00000000
00000100
00000000
00001000
00000000
00000100
00000000
00000000
00010000
00000000
00000000
,
00001000
01000000
00001000
00100000
00010000
10000000
00010000
01000000
,
00001000
00000000
00000000
01000000
00000000
00000000
00010000
00000000
00000000
10000000
00000000
00000000
00010000
00000000
00100000
00000000
00010000
00000000
00100000
00000000
00000000
00001000
00000000
00000000
,
00010000
00000000
00000000
00000100
00000000
00000000
00000010
00000000
00000001
00000000
00000010
00000000
00000001
00000000
00000000
00001000
00000000
00000000
00000010
00000000
00000000
00000100
00000000
00000000
,
00000001
00000000
00001000
00000000
00000001
00000000
00001000
00000000
00000000
00000010
00000000
00000000
00000100
00000000
00000010
00000000
00000100
00000000
00000010
00000000
00000000
00001000
00000000
00000000
,
00001001
00000000
00000001
00000100
00000000
00000010
00010000
00000000
,
00001000
01000000
00000000
00100000
10000000
01000000
00100000
00001000
,
00011000
00000000
00010000
00000100
00000000
00000010
00000001
00000000
,
00000100
00000010
00000000
00001000
00000001
00000010
00000100
00010000
,
00012000
01003000
00021000
00030100
,
00010000
00001000
00010000
00001000
01000000
00010000
01000000
00100000
10000000
00100000
10000000
00010000
,
10000000
00100000
01000000
00010000
,
00100000
00000000
00001000
00000000
00010000
00000000
00000100
00000000
00001000
00000000
00000010
00000000
00001000
00000000
00000000
00000001
00000000
00000000
00000010
00000000
00000000
00000200
00000000
00000000
,
00020000
00000000
00000000
00000000
,
00000000
00000000
00000000
00000000
,
00030300
00000000
00000000
00000000
;

//---------------dance-double - Copied from Copied f----------------
#NOTES:
     dance-double:
     Copied from Copied f:
     Challenge:
     15:
     1.000,1.000,0.491,0.885,0.336:
02000200
00000000
00000000
00000000
,
00200000
00000000
00000000
00000000
,
00020000
00000000
00000000
00000000
00000000
00000000
00000000
03330300
,
00000200
00000000
00000000
02000000
00000000
00000000
00020000
00000000
,
00002000
00000000
00000000
00000000
00000000
00000000
00000000
03033300
,
00200000
00000000
00000000
00000020
00000000
00000000
00002000
00000000
,
00000002
00000000
00000000
00000000
00000000
00000000
00000000
00303033
,
00101011
00000000
00000000
00000000
,
02100210
00000000
00000000
00000000
00000000
00000000
00000000
03000300
,
00020002
00000000
00030000
00000200
00000000
00000000
00002000
00000000
,
00000020
00000000
00000000
00000000
00000000
00000000
00000000
00003333
,
00200020
00000000
00000030
00002000
00000000
00000000
00020000
00000000
,
20000000
00000000
00000000
00000000
00000000
00000000
00000000
30333000
,
02000200
00000000
00000300
00002000
00000000
00000000
00020000
00000000
,
00000020
00000000
00000000
00000000
00000000
00000000
00000000
00030000
,
00020002
00000000
00000000
00000000
03033033
0M0MM0MM
00000000
00000000
,
00001000
01000000
00100000
10000000
01000000
00100000
00010000
MMMM0000
,
00001000
00010000
00000100
00000010
00000001
00000100
00000010
0000MMMM
,
00001000
00000100
00000001
00000100
00000010
00000000
00000001
00000100
,
00001000
00000100
00000010
00000000
00000010
00010000
00001000
00000000
,
00001000
00100000
01000000
10000000
00100000
01000000
00010000
MMMM0000
,
00100000
00001000
00010000
00000100
00000010
00000001
00001000
0000MMMM
,
00000010
00000001
00000010
00001000
00000100
00000000
00000010
00000001
,
00000100
00001000
00000100
00000000
00000010
00010000
000M1000
0000M000
,
00010000
00000100
00000010
00000001
00001000
00000010
00000100
0000MMMM
,
00000010
00000100
00010000
00001000
00100000
01000000
10000000
MMMM0000
,
00100000
10000000
01000000
00010000
01000000
00000000
00100000
00001000
,
00010000
00000100
00000001
00000000
00000100
00001000
00000010
0000MMMM
,
00000100
00000100
00000001
00000010
00001000
00000010
00000100
00000000
,
00010000
00010000
00001000
01000000
10000000
01000000
00100000
MMMM0000
,
10000000
01000000
00010000
00000000
00001000
00000010
00000001
00000000
,
00001000
00000000
00000010
00000000
00000100
00000000
00000001
00000000
00001000
00000010
00001000
00000010
00000100
00000001
00000100
00000001
,
00000010
00000001
00000100
00000001
00000010
00000100
00010000
00MMMM00
,
00001000
00100000
00010000
00100000
00001000
01000000
10000000
MMMM0000
,
01000000
00010000
00100000
10000000
00100000
00000000
00001000
00010000
,
00000010
00000001
00000010
00000000
00001000
00000100
00000001
0000MMMM
,
00000100
00001000
00000010
00000100
00001000
00100000
01000000
MMMM0000
,
00100000
00001000
00010000
00000010
00000100
00001000
00000001
0000MMMM
,
00000010
00001000
00000100
00000001
00000100
00000000
00000001
00000100
,
00001000
00000010
00010000
00000000
00001000
01000000
1M000000
M0000000
,
00100000
10000000
01000000
00100000
10000000
00100000
00001000
00MMMM00
,
00010000
00000100
00000001
00000100
00000010
00000001
00001000
0000MMMM
,
00000010
00000001
00000010
00001000
00000100
00000000
00010000
00001000
,
01000000
00100000
00010000
00000000
10000000
01000000
00010000
MMMM0000
,
10000000
01000000
00100000
10000000
00100000
00001000
00010000
00MMMM00
,
00001000
00010000
00000010
00000100
00000001
00000010
00000100
0000MMMM
,
00000001
00000100
00001000
00000000
00010000
00100000
10000000
00000000
,
00100000
00000000
10000000
00000000
00010000
00000000
01000000
00000000
00100000
10000000
00100000
10000000
00010000
01000000
00010000
01000000
,
00100000
10000000
11000000
00000000
00100000
00010000
01010000
00000000
,
01000000
00001000
00010000
00011000
00000000
00010100
00000100
00000000
,
00001000
00000010
00001010
00000000
00000001
00000010
00000011
00000000
,
00000001
00000100
00000010
00001010
00000000
00011000
00010000
00000000
,
00001000
00100000
00110000
00000000
00010000
00000100
00010100
00000000
,
00001000
00100000
00010000
00110000
00000000
10000000
10100000
00000000
,
10010000
00000000
01000000
00100000
00000000
00001000
00010000
00000000
,
00001001
00000000
00000010
00000100
00000000
00010000
00001000
00000000
,
00010000
00M001M0
00011000
00M000M0
00001000
01M000M0
00011000
00M000M0
,
00010000
00000100
00000001
00000200
00000000
00010300
00001000
00000000
,
00001000
0M100M00
00011000
0M000M00
00010000
0M000M10
00011000
0M000M00
,
00001000
00100000
10000000
00200000
00000000
00301000
00010000
00000000
,
00001000
01M00M00
00011000
00M00M00
00010000
00M00M10
00011000
00M00M00
,
00010000
00000010
00000001
00000020
00000000
00010030
00001000
00000000
,
00011000
00M00000
00001000
01M10000
00000000
10M00000
01010000
00M00000
,
00011000
00000M00
00010000
00001M10
00000000
00000M01
00001010
00000M00
,
00011000
00000000
00010000
00000100
000M0001
00000100
0001000M
00001000
,
010M1000
00001000
00100000
00210000
00000000
10000000
00010000
00300000
,
00011000
00000000
00001000
01000000
1000M000
01000000
M0001000
00010000
,
0001M100
00010000
00000100
00000210
00000000
00000001
00001000
00000300
,
00011000
00000000
00010000
00000010
000M0001
00000010
0001000M
00001000
,
00011000
00001000
001M0000
10200000
00000000
10000000
00010000
00300000
,
00M11000
00000000
00000010
00000001
00000000
00000100
00001000
00000000
,
00011000
00000000
00100000
10000000
00000000
01000000
00010000
00000000
,
00011000
00M00000
01000000
00M00100
00010000
00001M00
00000010
00100M00
,
00011000
00000100
01000000
01000200
00000000
00010000
00001000
00000300
,
00011000
00000M00
00100000
00000M10
00010000
00M01000
01000000
00M00100
,
00011000
00100000
00000010
00200010
00000000
00001000
00010000
00300000
,
00100000
00001000
00010000
00001000
00000100
00000001
00000010
00000100
,
00010000
00000000
00000000
00001000
00000000
00000000
00010000
00000000
00000000
01000000
00000000
00000000
10000000
00000000
00010000
00000000
00100000
00000000
00001000
00000000
00010000
00000000
00000100
00000000
,
00020000
00000000
00000000
00002000
00000000
00000000
01000100
00033000
,
00020000
00000000
00000000
00000000
00000000
00000000
00000020
00000000
00000000
00000000
00030030
00000000
00000100
00000010
00000100
00000010
,
00001000
00000100
00000001
00000100
00001000
00000010
00000001
00000010
,
00001000
00000100
00010000
00001000
00100000
00010000
01000000
00100000
,
10000000
01000000
00010000
01000000
10000000
00100000
00010000
00100000
,
10000000
01000000
00100000
00001000
00010000
00000100
00000010
00000001
,
00001000
00000010
00000001
00000010
00001000
00000100
00000001
00000100
,
00001000
00000010
00000100
00000001
00000010
00000100
00010000
00001000
,
01000000
01000000
00100000
00001000
00100000
10000000
01000000
00100000
,
01000000
01000000
10000000
00100000
00010000
00100000
01000000
00010000
,
00010000
00100000
10000000
00100000
00010000
01000000
10000000
01000000
,
00010000
00001000
00000010
00000001
00000010
00001000
00000100
00000001
,
00000100
00000100
00001000
00000010
00000001
00000010
00000100
00000001
,
00000010
00000010
00000100
00000001
00000100
00010000
00001000
01000000
,
00200000
00010000
00310000
00100000
10000000
01000000
00200000
00001000
,
00301000
00010000
00000100
00000010
00000002
00001000
00001003
00000010
,
00002000
00000000
00000001
00000000
00003001
00000000
00000010
00000000
00000100
00000000
00010000
00000000
00001000
00010000
00001000
00010000
,
00001000
MMMMMMMM
MMMMMMMM
MMMMMMMM
,
00010000
00000100
00000010
00000100
00010000
00000010
00000001
00000010
,
00000100
00000001
00000010
00000100
00010000
00001000
00010000
00010000
,
00001000
00100000
01000000
00100000
00001000
01000000
10000000
01000000
,
00010000
10000000
01000000
00100000
20000000
30020000
00032000
00003002
,
00000103
00001000
00000010
00010000
00000100
00001000
00000010
00010000
,
00001000
01000000
00010000
00100000
00001000
01000000
00010000
00100000
,
00002000
01000000
01003000
00020000
00000100
00030100
00002000
00100000
,
00103000
00000000
00010000
00000000
00000100
00000000
00000010
00000000
00000001
00000000
00001000
00000000
00000010
00000100
00000010
00000100
,
00000010
00000000
00000100
00000001
00000000
00000001
00000020
00000000
,
00000130
00000000
00010000
00000000
00001000
00000000
01000000
00000000
00100000
00000000
00000000
00000000
10000000
00100000
10000000
00100000
,
10000000
00000000
00100000
01000000
00000000
01000000
00020000
00000000
,
00130000
00001000
00020000
00000000
00030100
00001000
00000010
00000100
,
MMMMM1M1
MMMMMM11
MM11MMMM
1M1MMMMM
,
11MMMMMM
M1M1MMMM
MMMMM1M1
MMMMMM11
,
00000001
00000100
00000001
00000000
00001000
00000000
00000100
00001000
00000100
00000000
00010000
00000000
00001000
00010000
00001000
00000000
,
01000000
00000000
00100000
10000000
00100000
00000000
10000000
00000000
00100000
10000000
00100000
10000000
01000000
00100000
01000000
00100000
,
00020000
01000000
01030000
00200000
10000000
10300000
02000000
00100000
,
00100000
13000000
00020000
01000000
00032000
01000000
00023000
00000010
,
00032000
00000010
00003020
00001000
00001030
00000200
00000001
00000301
,
00000200
00010000
00010300
00002000
00000100
00003100
00010000
00001000
,
00012000
01000000
01003000
00020000
00000100
00030100
00002000
00100000
,
00103000
00010000
00000010
00000010
00001000
0000M000
00000001
0000000M
,
00000100
00000100
00000001
00000010
00000100
00000100
00000010
00000001
,
00002000
00000000
00000000
00000000
00000000
00000000
00000000
00000000
00003001
00000010
0000M001
00000010
00000100
00001000
00000100
00001000
,
00000002
00000100
00000103
00002000
00000100
00003100
00000020
00000001
,
00000001
00000130
00020000
00000100
00032000
01000000
00023000
00000010
,
00032000
00200000
00013000
00310000
02000000
10000000
13000000
02000000
,
00010000
03010000
00200000
00001000
00301000
00010000
00001000
00010000
,
00021000
00000010
00030010
00002000
00100000
00103000
00020000
00000100
,
00030100
00002000
01000000
01003000
00010000
000M0000
10000000
M0000000
,
10000000
01000000
00100000
00100000
00001000
01000000
00100000
00100000
,
00020000
00000000
00000000
00000000
00000000
00000000
00000000
00000000
00130000
10000000
001M0000
10000000
01000000
00100000
01000000
00100000
,
00020000
10000000
10030000
00200000
00010000
00310000
00002000
01000000
,
01000000
00013000
00000200
00010000
02000300
00001000
03200000
00001000
,
00300020
00010000
00020030
00000100
00030100
00000020
00000100
00000130
,
00000001
00000100
00010000
00000100
00010000
01000000
10000000
01000000
,
21000000
00010000
30010000
00200000
00001000
00301000
00020000
00000100
,
00030100
00010000
00000010
00000010
00001000
0000M000
00000001
0000000M
,
00000100
00000100
00000001
00000010
00000100
00000100
00010000
00000010
,
00000200
00000000
00000000
00000000
00000000
00000000
00000000
00000000
00000310
00000001
00000M10
00000100
00001000
00000010
00001000
00000001
,
00002000
00000001
00003001
00000200
00001000
00001300
00020000
00000010
,
00000010
00031000
00200000
00001000
00300020
00010000
00000230
00010000
,
02000300
00001000
03001000
00200000
01000000
01300000
20000000
00100000
,
30100000
00010000
00100000
10000000
01000000
0M000000
00100000
00M00000
,
00110000
00000000
00000010
00011000
00000000
00100000
00011000
00000000
,
00010000
00000100
00000110
00000000
00000011
00000000
00000001
00000100
,
00001100
00000000
00010000
01000100
00000000
00001000
01000100
00000000
,
00100000
00001000
00010001
00000000
10001000
00000000
01000100
00000000
,
00011000
00001000
00100000
10000000
00100000
01000000
10000000
00100000
,
00001000
00000100
00000001
00000010
00001000
00001000
10000000
10000000
,
00100000
00010000
00100000
10000000
01000000
00100000
10000000
00100000
,
00001000
00010000
00000100
00000001
00000100
00000100
01000000
01000000
,
00010000
00100000
10000000
00100000
00001000
01000000
10000000
01000000
,
00010000
00100000
01000000
00010000
10000000
10000000
00001000
00001000
,
00000100
00010000
00000010
00000001
00000010
00000100
00000001
00000010
,
00001000
01000000
00100000
00010000
10000000
10000000
00001000
00001000
,
00100000
10000000
01000000
00100000
10000000
00100000
00001000
00010000
,
01000000
00100000
00001000
00000100
00000001
00000001
00010000
00010000
,
00000100
00000001
00000100
00000010
00000001
00000100
00010000
01000000
,
00001000
00100000
00010000
00001000
00000010
00000010
00100000
00100000
,
00002000
02003000
13000000
10000000
00020000
00030200
00000301
00000001
,
00000200
00020300
00030010
00000010
00200000
00302000
01003000
01000000
,
00100000
02000000
00000100
03000100
00000010
00000200
01000000
01000300
,
00010000
00000000
00000000
00000000
10000000
00000000
00000000
00000000
01000000
00000000
00000000
00000000
00100000
00000000
00000000
00001000
00000000
00000000
00010000
00000000
00000000
00000100
00000000
00000000
00010000
00000000
00000000
00000000
00000100
00000000
00000000
00000000
00001000
00000000
00000000
00000000
00000001
00000000
00000000
00000000
00000000
00000000
00000010
00000000
00000000
00000000
00000000
00000000
,
00000220
00000000
00000000
00000000
,
00000000
00000000
00000000
00000000
00000000
00000000
00000000
00000330
,
00011000
00000000
00010000
00001000
00000100
00010000
00100000
02000000
,
00000000
03100000
00100000
01000000
10000000
00100000
10000000
01000000
,
00100000
00010000
00000000
00000000
00001000
00000000
00010000
00000010
00000000
00000000
00001000
00000000
00000001
00000010
00000000
00000000
,
00000001
00000000
00000100
00000010
00000000
00000000
00001000
00000000
00000100
00000010
00000100
00000010
00000001
00000000
00001000
00000000
,
00000010
00010000
00000010
00010000
00001000
00000000
00010000
00000000
00000200
00000000
01000000
00000000
01000300
00000000
00000100
00000000
,
00010000
00001000
00100000
01000000
00200000
00000010
00300010
00100000
,
00002000
01000000
01003000
00002000
00100000
00103000
00020000
00000010
,
00030010
00000000
00020000
00000000
00000100
00000000
00030100
00000000
00010000
00001000
00010000
00001000
00010000
00000000
00000000
00000000
,
00001000
00000000
00000000
00000000
00000000
00000000
00010000
00000000
00000000
00000000
00000000
00000000
00000100
00000000
00000000
00000000
00000000
00000000
00000010
00000000
00000000
00000000
00000000
00000000
00000001
00000000
00000000
00000100
00000000
00000000
00000001
00000000
00000000
00000100
00000000
00000000
00000010
00000000
00000000
00000000
00001000
00000000
00000000
00000000
00000100
00000000
00000000
00000000
,
00010000
00000000
00000000
00001000
00000000
00000000
00010000
00000000
00000000
00001000
00000000
00000000
00100000
00000000
00000000
00000000
01000000
00000000
00000000
00000000
10000000
00000000
00000000
00000000
00100000
00000000
00000000
00000000
01000000
00000000
00000000
00000000
00010000
00000000
00000000
00000000
00100000
00000000
00000000
00000000
00001000
00000000
00000000
00000000
00010000
00000000
00000000
00000000
,
00001000
00010000
00001000
01000000
00000100
01000000
00001000
00010000
,
00001000
00100000
00000010
00100000
00001000
00010000
00000100
00000010
,
00002000
00000000
00000000
00000000
00000000
00000000
00003001
00000100
,
00020000
00000000
00000000
00002000
00000000
00000000
00133010
00MMM0M0
,
00002000
00000000
01000000
00000000
01003000
0000M000
00002000
00000000
00100000
00000000
00103000
0000M000
00002000
00000000
01000000
00000000
,
01003000
0000M000
00002000
00000000
00100000
00000000
00103000
0000M000
00001000
00010000
00001000
00010000
00001000
00000000
0001M000
00000000
,
00020000
00000000
00000010
00000000
00030010
000M0000
00020000
00000000
00000100
00000000
00030100
000M0000
00020000
00000000
00000010
00000000
,
00030010
000M0000
00020000
00000000
00000100
00000000
00030100
000M0000
00010000
00001000
00010000
00001000
00010000
00000000
000M1000
00000000
,
00002000
00000000
01000000
00000000
01003000
0000M000
00002000
00000000
00100000
00000000
00103000
0000M000
00002000
00000000
01000000
00000000
,
01003000
0000M000
00002000
00000000
00010000
00000000
00013000
00000000
00001000
00010000
00001000
00010000
00000100
00000000
00000010
00000000
,
00000001
00000000
00000100
00000000
00000010
00001000
00000010
00001000
00000100
00000000
00010000
00000000
00001000
00000000
00100000
00000000
,
00010000
10000000
00010000
10000000
00100000
00000000
01000000
00000000
00010000
00100000
00010000
00100000
00001000
00000000
00010000
00000000
,
00011000
00000000
00000010
00000100
00000000
00100000
01000000
00000000
,
10000000
00001000
00000000
00010000
00000001
00000010
00000110
00000000
,
00011000
00000000
00100000
01000000
00000000
00000010
00000100
00000000
,
00010000
00000001
00000000
00001000
10000000
00100000
01100000
00000000
,
01000000
01000000
0M000100
00000100
00100M00
00100000
00M00010
00000010
,
000100M0
00001000
00010000
00001000
01000000
00001000
01000000
00001000
00010000
00000010
00010000
00000010
00010000
00001000
00010000
00001000
,
00010000
00001000
01000000
00000100
00010000
00001000
00100000
00000010
,
00001000
00000000
00000000
00000001
00000000
00000000
00001000
00000000
00000000
00000100
00000000
00000000
00000010
00000000
00000000
00000000
00000001
00000000
00000000
00000000
00000100
00000000
00000000
00000000
00001000
00000000
00000000
00000000
00010000
00000000
00000000
00000000
00100000
00000000
00000000
00000000
10000000
00000000
00000000
01000000
00000000
00000000
00100000
00000000
00000000
00020000
00000000
00000000
,
20000000
00000000
00000000
00000000
,
00000000
00000000
00000000
00000000
00000000
00000000
00000000
00000000
00000000
00000000
00000000
00000000
00000000
00000000
00000000
00000000
00000000
00000000
00000000
00000000
00000000
00000000
00000000
00000000
00000000
00000000
00000000
00000000
00000000
00000000
00000000
00000000
00000000
00000000
00000000
00000000
00000000
00000000
00000000
00000000
00000000
00000000
00000000
00000000
00000000
30000000
M0000000
00000000
,
M0030000
M00M0000
M00M0000
000M0000
000M0000
00000000
00000000
00000000
00000000
00000000
00000000
00000000
00000000
00000000
00000000
00000000
00000000
00000000
00000000
00000000
00000000
00000000
00000000
00000000
;

//---------------dance-single - Copied from----------------
#NOTES:
     dance-single:
     Copied from:
     Beginner:
     4:
     0.355,0.529,0.085,0.394,0.000:
0020
0000
0000
0000
,
0000
0000
0000
0000
,
0000
0000
0000
0000
,
2030
0000
0000
0000
,
3000
0000
0000
0000
,
0002
0000
0000
0000
,
0003
0000
0000
0000
,
0220
0000
0330
0000
,
2020
0000
0000
0000
0000
0000
0000
3030
,
2000
0000
0000
0000
,
3000
0000
0000
0000
,
0002
0000
0000
0000
,
0003
0000
0000
0000
,
0200
0000
0000
0000
,
0302
0000
0000
0000
,
2003
0000
0000
0000
0000
0000
0000
3000
,
0001
0000
0001
0000
,
1000
0000
1000
0000
,
0001
0000
0001
2000
,
0000
0000
3001
0000
,
0100
0000
0100
0000
,
0010
0000
0010
0000
,
0100
0000
0100
0020
,
0000
0000
0130
0000
,
0001
0000
0001
0000
,
1000
0000
1000
0000
,
0001
0000
0001
2000
,
0000
0000
3001
0000
,
1000
0000
0001
0000
,
0010
0000
0100
0000
,
2000
0000
0000
0000
,
3000
0000
0000
0000
,
0001
0000
0001
0000
,
0100
0000
0100
0000
,
0001
0000
0001
0200
,
0000
0000
0301
0000
,
1000
0000
1000
0000
,
0010
0000
0010
0000
,
1000
0000
1000
0020
,
0000
0000
1030
0000
,
0010
0000
0010
0000
,
0100
0000
0100
0000
,
0010
0000
0010
2000
,
0000
0000
3001
0000
,
0001
0000
1000
0000
,
0100
0000
0010
0000
,
0002
0000
0000
0000
,
0003
0000
0000
0000
,
1000
0000
1000
0000
,
0001
1000
0001
0000
,
0100
0000
0100
0000
,
0010
0100
0010
0000
,
1000
0000
1000
0000
,
0001
1000
0001
0000
,
1000
0000
0010
0000
,
0100
0000
0001
0000
,
0010
0000
0010
0000
,
0001
0010
0001
0000
,
1000
0000
1000
0000
,
0010
1000
0010
0000
,
1000
0000
1000
0000
,
0001
0010
0001
0000
,
0100
0000
0010
0000
,
1000
0000
0001
0000
,
1000
0000
0100
0000
,
1000
0100
1000
0000
,
0001
0000
0100
0000
,
0001
0100
0001
0000
,
1000
0000
0010
0000
,
1000
0010
1000
0000
,
0001
0000
0010
0000
,
0100
0000
1000
0000
,
0010
0000
0100
0000
,
0001
1000
0001
0000
,
1000
0000
0010
0000
,
0100
0001
0100
0000
,
0001
0000
0010
0000
,
0100
1000
0100
0000
,
2000
0000
0000
3000
,
0002
0000
0000
0003
,
1000
0000
0100
0000
,
1000
0000
0010
0000
,
2000
0000
3002
0000
,
2003
0000
3001
0000
,
0010
0000
0001
0000
,
0100
0000
0010
0000
,
2000
0000
0000
0000
,
3002
0000
0000
0000
,
0103
0000
0010
0000
,
1000
0000
0100
0000
,
0020
0000
0000
0000
,
0000
0000
0031
0000
,
0001
0000
0000
1000
,
0000
0000
0010
0000
,
0200
0000
0000
0010
,
0310
0000
0000
0000
,
2002
0000
0000
3003
,
0001
0000
1000
0000
,
0200
0000
0000
0000
,
2300
0000
0010
0000
,
3020
0000
0000
0000
,
0230
0000
0000
0000
,
0301
0000
0000
1001
,
0000
0000
0000
0000
,
1001
0000
0000
1100
,
0000
0000
1000
0000
,
1001
0000
0000
0011
,
0000
0000
0001
0000
,
1000
0000
1000
0000
,
0001
0000
1000
0000
,
2002
0000
0000
0000
,
3003
0000
0000
0000
,
1000
0000
0000
0010
,
0000
0000
0100
0000
,
0202
0000
0000
0000
,
0000
0000
0000
0303
,
0001
0000
0000
1000
,
0000
0000
0010
0000
,
1000
0000
0001
0000
,
1000
0000
0010
0010
,
0010
0000
0000
0100
,
0000
0000
0001
0000
,
2020
0000
0000
0000
,
0000
0000
0000
3030
,
1000
0000
0000
0001
,
0000
0000
0010
0000
,
0001
1000
0001
1000
,
0001
0000
0100
0000
,
0010
0000
0000
1000
,
0000
0000
0100
0000
,
0022
0000
0000
0000
,
0000
0000
0000
0033
,
0001
0000
0000
0100
,
0000
0000
0010
0000
,
2000
0000
0000
0000
,
3200
0000
1300
0000
,
0010
0000
0000
0100
,
0000
0000
0001
0000
,
2020
0000
0000
0000
,
0000
0000
0000
3030
1000
0000
0001
0000
,
1000
0000
0000
0001
,
0000
0000
0100
0000
,
0001
0000
0000
1000
,
0000
0000
0010
0000
,
2000
0000
0000
0000
,
0000
0000
0000
0000
,
0000
0000
0000
0000
,
0000
0000
0000
0000
,
3020
0000
0000
0000
,
0000
0000
0000
0000
,
0230
0000
0000
0000
,
0000
0000
0000
0000
,
0302
0000
0000
0000
,
1000
0000
0000
0000
,
2003
0000
0000
0000
,
0010
0000
0000
0000
,
3010
0000
1000
0000
,
0001
0000
1000
0000
,
0010
0000
0100
0000
,
0010
1000
0001
0000
,
2002
0000
0000
0000
,
0000
0000
0000
3003
,
0001
0000
0100
0000
,
0010
0000
1000
0001
,
1000
0000
1000
0000
,
0001
0000
0010
0001
,
0020
0000
0032
0000
,
0203
0000
0320
0000
,
1030
0000
1000
0000
,
0001
0000
0001
0000
,
1000
0000
0001
1000
,
0001
1000
0001
1000
,
0001
0000
0100
0000
,
0010
0000
1000
0000
,
0002
0000
0000
0000
,
1003
0000
0010
0000
,
1000
0000
1000
0000
,
0001
0100
0010
0000
,
1000
0000
0001
0000
,
0100
0010
1000
0000
,
0001
0000
1000
0000
,
0010
0100
0001
0000
,
1000
0000
0001
0000
,
0100
0010
1000
0001
,
0010
0000
0001
0000
,
0010
0001
0010
0001
,
1000
0000
0010
0000
,
1000
0010
1000
0010
,
0200
0000
0302
0000
,
1003
0100
0010
0001
,
2000
0000
3002
0000
,
0013
0100
1000
0002
,
2000
0000
0000
0000
,
0000
0000
0000
0000
,
3003
0000
0000
0000
;
