#TITLE:The Altitude Demon;
#SUBTITLE:;
#ARTIST:Jason Koohi;
#TITLETRANSLIT:;
#SUBTITLETRANSLIT:;
#ARTISTTRANSLIT:;
#CREDIT:;
#BANNER:No Banner.png;
#BACKGROUND:;
#LYRICSPATH:;
#CDTITLE:;
#MUSIC:The Altitude Demon.ogg;
#OFFSET:-0.080;
#SAMPLESTART:89.179;
#SAMPLELENGTH:24.500;
#SELECTABLE:YES;
#BPMS:0.000=237.001;
#STOPS:;
#BGCHANGES:;

//---------------dance-single - Copied from----------------
#NOTES:
     dance-single:
     Copied from:
     Medium:
     9:
     0.780,0.702,0.015,1.000,0.000:
0000
0000
0000
0000
,
0000
0000
0000
0000
,
0000
0000
0000
0000
,
0000
0000
0000
0000
,
0000
0000
0000
0000
,
0000
0000
0000
0000
,
0000
0000
0000
0000
,
0000
0000
0000
0000
,
0020
1030
0020
0130
,
0010
1000
0100
0110
,
0020
0031
0020
0130
,
0010
0001
0100
0110
,
0020
1030
0020
0130
,
0010
0000
1000
0000
0100
0000
0010
0002
,
0000
0203
0000
0320
0000
0032
0000
0023
,
0000
0000
0000
0000
2030
0000
3100
0010
,
0002
0013
0002
0103
,
0002
0000
0013
0002
0000
0000
1003
0001
,
0200
0310
0200
1300
,
0200
0000
0310
2000
0000
0000
3100
0010
,
0002
0013
0002
0103
,
0002
0000
0013
0002
0000
0003
1000
0020
,
0000
0230
0000
0320
0000
0032
0000
2003
,
0000
0000
0000
0000
3200
0000
0301
0010
,
0100
1000
0100
0000
0100
1000
0100
0000
,
0100
0010
0001
0200
0000
0000
0301
0000
,
0010
0001
0010
0000
0010
0001
0010
0000
,
0010
0001
0100
0020
0000
0000
0031
0000
,
0010
1000
0010
0000
0010
1000
0010
0000
,
0010
1000
0100
0020
0000
0030
0001
0200
,
0000
0320
0000
0032
0000
0023
0000
2030
,
0000
0000
0000
0000
3002
0000
0013
0100
,
2000
0000
0001
0000
0100
0000
0100
3000
,
0002
1000
0100
0100
,
2003
0000
0001
0000
0010
0000
0010
3000
,
0002
0000
1000
0000
0010
0000
0010
0003
,
1000
0001
1000
0000
0010
0100
0010
0000
,
0100
0001
0100
0000
0001
0010
0100
2000
,
0000
3200
0000
0302
0000
0203
0000
0320
,
0000
0000
0000
0000
0032
0000
1003
0010
,
0200
0000
2300
0000
0000
0000
3100
0001
,
0010
0100
0010
0100
0010
0001
0010
2000
,
0000
3010
0002
0000
0000
0000
0000
0000
,
0000
0000
0200
0003
0320
0000
0032
0000
,
0000
0013
1000
0100
0010
0100
0010
0100
,
1000
0010
0001
0010
0001
0010
1000
0200
,
0000
0320
0000
2030
0000
3020
0000
0032
,
0000
0000
0000
0003
1000
0000
0010
0100
,
2000
3100
0020
0130
,
2000
0000
3100
0002
0000
0000
0013
0100
,
0002
0103
0020
0130
,
0002
0000
0103
2000
0000
0000
3010
0100
,
2000
3100
0020
0130
,
2000
0000
3100
0001
0000
0000
0001
0020
,
0000
0230
0000
0302
0000
0203
0000
0320
,
0000
0000
0000
0000
0032
0000
1003
0010
,
0100
1000
0100
0000
0100
1000
0100
0000
,
0100
0001
0010
0100
0000
0000
0100
1000
,
0010
0001
0010
0000
0010
0001
0010
0000
,
0010
1000
0100
0010
0000
0000
0010
0001
,
0100
1000
0100
0000
0100
1000
0100
0000
,
0100
0010
1000
0200
0000
0000
0310
0002
,
0000
2003
0000
3020
0000
0032
0000
0023
,
0000
0000
0000
0000
0230
0000
0310
1000
,
2000
0000
3100
0010
0100
0010
0100
0010
,
0100
0000
0010
0001
0000
0000
0001
0100
,
2000
0000
3100
0010
0100
0010
0100
0010
,
0100
0000
0010
1000
0000
0000
1000
0100
,
0002
0000
0103
1000
0100
1000
0100
1000
,
0100
0000
1000
0001
0000
0000
1000
0010
,
0002
0000
0013
1000
0010
1000
0010
1000
,
0010
0000
1000
0100
0000
0001
0100
1000
,
0001
0100
0001
0000
1000
0100
1000
0000
,
0001
0100
0010
0001
0000
0001
0010
1000
,
0100
0010
0100
0000
0010
0001
0010
0000
,
0001
1000
0010
0100
0000
1000
0100
0001
,
0010
0001
0010
0000
0001
1000
0001
0000
,
1000
0010
0100
1000
0000
0000
1000
0200
,
0000
0302
0000
0023
0000
0230
0000
0302
,
0000
0000
0000
0003
0200
0000
0310
0001
,
2000
3100
2000
3010
,
2000
0000
3100
2000
0000
0000
3001
1000
,
0020
0130
0020
0031
,
0020
0000
0130
0002
0000
0000
0013
0100
,
2000
3100
2000
3010
,
2000
0000
3100
2000
0000
3000
0001
0200
,
0000
0320
0000
0230
0000
2300
0000
3002
,
0000
0000
0000
0000
0023
0000
1030
0100
,
0010
0001
0010
0000
0010
0001
0010
0000
,
0010
0100
1000
0020
0000
0000
1030
0000
,
0100
1000
0100
0000
0100
1000
0100
0000
,
0100
1000
0010
0200
0000
0000
1300
0000
,
0100
0001
0100
0000
0100
0001
0100
0000
,
0100
0001
0010
0200
0000
0300
1000
0020
,
0000
0230
0000
2300
0000
3200
0000
0302
,
0000
0000
0000
0000
2003
0000
3100
0010
,
0002
0000
1000
0000
0010
0000
0010
0003
,
2000
0001
0010
0010
,
3002
0000
1000
0000
0100
0000
0100
0003
,
2000
0000
0001
0000
0100
0000
0100
3000
,
0001
1000
0001
0000
0100
0010
0100
0000
,
0010
1000
0010
0000
1000
0100
0010
0002
,
0000
0023
0000
2030
0000
3020
0000
0230
,
0000
0000
0000
0000
2300
0000
3001
0100
,
0020
0000
0032
0000
0000
0000
0013
1000
,
0100
0010
0100
0010
0100
1000
0100
0002
,
0000
0103
2000
0000
0000
0000
0000
0000
,
0000
0000
0020
3000
0230
0000
2300
0000
,
0000
3100
0001
0010
0100
0010
0100
0010
,
0001
0100
1000
0100
1000
0100
0001
0020
,
0000
0230
0000
0302
0000
0203
0000
2300
,
0000
0000
0000
3000
0001
0000
0100
0010
,
0002
0013
0200
0310
,
0002
0000
0013
2000
0000
0000
3100
0010
,
2000
3010
0200
0310
,
2000
0000
3010
0002
0000
0000
0103
0010
,
0002
0013
0200
0310
,
0002
0000
0013
1000
0000
0000
1000
0200
,
0000
0320
0000
2030
0000
3020
0000
0230
,
0000
0000
0000
0000
2300
0000
3001
0100
,
0010
0001
0010
0000
0010
0001
0010
0000
,
0010
1000
0100
0010
0000
0000
0001
2000
,
0002
0000
3003
0000
;

//---------------dance-single - Copied from Copied f----------------
#NOTES:
     dance-single:
     Copied from Copied f:
     Easy:
     7:
     0.621,0.702,0.520,0.772,0.000:
0000
0000
0000
0000
,
0000
0000
0000
0000
,
0000
0000
0000
0000
,
0000
0000
0000
0000
,
0000
0000
0000
0000
,
0000
0000
0000
0000
,
0000
0000
0000
0000
,
0000
0000
0000
0000
,
0020
0000
1000
0000
,
0100
0000
0000
0030
0010
0000
1000
0000
,
0200
0000
0001
0000
,
0010
0000
0000
0000
0001
0300
1000
0000
,
0020
0000
0001
0000
,
0100
0000
0000
0000
0001
0000
0001
0030
,
0001
0010
1000
0100
,
0002
0000
0103
1000
,
1002
0000
0000
0000
0100
0000
0000
0003
,
0001
0100
1000
0000
,
2001
0000
0000
0000
0100
0000
0000
3000
,
1000
0100
0001
0000
,
1002
0000
0000
0000
0100
0000
0000
0003
,
0001
0010
2000
0000
,
3010
0001
0100
2000
,
3002
0000
0013
1000
,
1002
0103
2001
3100
,
1002
0000
1003
0100
0000
0000
0000
0000
,
2001
3100
1002
0103
,
2001
0000
3001
0100
0000
0000
0000
0000
,
0210
0301
0120
1030
,
0200
0000
0301
0010
0000
0000
0010
0001
,
0000
0100
0000
1000
0000
0100
0000
0002
,
0000
0000
0013
0001
,
0002
0000
0100
0000
0100
0000
0100
0003
,
2000
0000
0100
0000
0100
0000
0100
3000
,
0002
0000
0010
0000
0010
0000
0010
0003
,
2000
0000
0010
0000
0010
0000
0010
3000
,
0002
0000
0010
0000
0010
0000
1000
0003
,
2000
0000
0100
0000
0100
0000
0001
3000
,
0010
0001
0100
2000
,
3002
0000
0013
1000
,
1001
0000
0200
0000
0000
0300
0010
0001
,
0010
0001
0100
0100
,
0010
0002
0000
0000
,
0000
0003
0010
0000
0010
0000
1000
0000
,
2000
0000
0100
0000
0100
0000
0001
3000
,
0002
0000
0010
0000
0010
0000
1000
0003
,
0100
0001
0100
1000
,
0002
0000
1003
0010
,
1002
0013
2001
3010
,
1002
0000
1003
0100
0000
0000
0000
0000
,
2001
3100
1002
0103
,
2001
0000
3001
0100
0000
0000
0000
0000
,
0120
1030
0210
0301
,
0120
0000
1030
0100
0000
0000
0100
1000
,
0000
0010
0000
0001
0000
0010
0000
2000
,
0000
0000
3001
0010
,
0012
1003
0021
1030
,
0012
0000
1003
0010
0000
0000
0000
0000
,
2010
3001
1020
0031
,
2010
0000
3001
0010
0000
0000
0000
0000
,
0102
1003
0201
1300
,
0102
0000
1003
0100
0000
0000
0100
0010
,
0000
0001
0000
0100
0000
1000
0000
0002
,
0000
0000
0013
1000
,
1010
1000
0100
0100
,
0010
0001
0100
0110
,
1010
1000
0100
0100
,
1000
0010
0100
0110
,
0101
0001
0010
0010
,
0100
1000
0010
0110
,
1010
1000
0100
0100
,
0010
0001
0100
0110
,
2001
0000
0001
0000
0100
0000
0100
3000
,
0001
1000
0010
0110
,
1002
0000
1000
0000
0100
0000
0100
0003
,
1000
0010
0100
0110
,
0102
0000
1000
0000
0010
0000
0010
0003
,
1000
0000
0001
0000
0100
0000
0100
0010
,
0000
1000
0000
0100
0000
0001
0000
2000
,
0000
0000
3010
0001
,
2001
0000
0000
0000
0010
0000
0000
3000
,
1000
0010
0001
0000
,
1002
0000
0000
0000
0010
0000
0000
0003
,
0001
0010
1000
0000
,
2001
0000
0000
0000
0010
0000
0000
3000
,
1000
0100
0002
0000
,
0103
1000
0010
0002
,
2003
0000
3100
0001
,
2001
3010
1002
0013
,
2001
0000
3001
0010
0000
0000
0000
0000
,
1002
0013
2001
3010
,
1002
0000
1003
0010
0000
0000
0000
0000
,
0120
1030
0210
0301
,
0020
0000
1030
0100
0000
0000
0100
1000
,
0000
0010
0000
0001
0000
0010
0000
2000
,
0000
0000
3100
1000
,
2000
0000
0010
0000
0010
0000
0010
3000
,
0002
0000
0010
0000
0010
0000
0010
0003
,
2000
0000
0100
0000
0100
0000
0100
3000
,
0002
0000
0100
0000
0100
0000
0100
0003
,
2000
0000
0100
0000
0100
0000
0001
3000
,
0002
0000
0010
0000
0010
0000
1000
0003
,
0100
1000
0010
0002
,
2003
0000
3100
0001
,
1001
0000
0020
0000
0000
0030
0100
1000
,
0100
1000
0010
0010
,
0100
2000
0000
0000
,
0000
3000
0100
0000
0100
0000
0001
0000
,
0002
0000
0010
0000
0010
0000
1000
0003
,
2000
0000
0100
0000
0100
0000
0001
3000
,
0010
1000
0010
0001
,
2000
0000
3001
0100
,
2001
3100
1002
0103
,
2001
0000
3001
0010
0000
0000
0000
0000
,
1002
0013
2001
3010
,
1002
0000
1003
0010
0000
0000
0000
0000
,
0210
0301
0120
1030
,
0210
0000
0301
0010
0000
0000
0010
0001
,
0000
0100
0000
1000
0000
0100
0000
0002
,
0000
0000
1003
0100
,
2100
3001
1200
0301
,
2100
0000
3001
0010
0000
0000
0000
0000
,
2002
0000
3003
0000
;

//---------------dance-single - Copied from Copied f----------------
#NOTES:
     dance-single:
     Copied from Copied f:
     Beginner:
     4:
     0.300,0.328,0.000,0.130,0.000:
0000
0000
0000
0000
,
0000
0000
0000
0000
,
0000
0000
0000
0000
,
0000
0000
0000
0000
,
0000
0000
0000
0000
,
0000
0000
0000
0000
,
0000
0000
0000
0000
,
0000
0000
0000
0000
,
1000
0000
0100
0000
,
0100
0000
0010
0000
,
0001
0000
0100
0000
,
0100
0000
0010
0000
,
1000
0000
0100
0000
,
0100
0000
0010
0000
,
0001
0000
0100
0000
,
1000
0000
0001
0000
,
0010
0000
0010
0000
,
0001
0000
0100
0000
,
0010
0000
0010
0000
,
1000
0000
0100
0000
,
0010
0000
0010
0000
,
0001
0000
0100
0000
,
0001
0000
0010
0000
,
1000
0000
0001
0000
,
0100
0000
0100
0000
,
1000
0000
0010
0000
,
0100
0000
0100
0000
,
0001
0000
0010
0000
,
0100
0000
0100
0000
,
1000
0000
0010
0000
,
1000
0000
0100
0000
,
0001
0000
1000
0000
,
0002
0000
0100
0000
,
0100
0000
0000
0000
0100
0000
0000
0003
,
2000
0000
0100
0000
,
0100
0000
0000
0000
0100
0000
0000
3000
,
0001
0000
0100
0000
,
0001
0000
0100
0000
,
0010
0000
1000
0000
,
0100
0000
0001
0000
,
1000
0000
0001
0000
,
1000
1000
1000
0000
,
0001
0000
0010
0000
,
0001
0000
0001
0000
,
0100
0000
0010
0000
,
1000
0000
1000
0000
,
0001
0000
0010
0000
,
1000
0000
0001
0000
,
0200
0000
0310
0000
,
0100
0100
0100
0000
,
0002
0000
1003
0000
,
0001
0001
0001
0000
,
2000
0000
3001
0000
,
1000
1000
1000
0000
,
0001
0000
0010
0000
,
1000
0000
0001
0000
,
0200
0000
0310
0000
,
0100
0100
0100
0000
,
0020
0000
1030
0000
,
0100
0100
0100
0000
,
0020
0000
0031
0000
,
1000
1000
1000
0000
,
0001
0000
0010
0000
,
1000
0000
0001
0000
,
0100
0000
0100
0000
,
0010
0000
1000
1000
,
0001
0000
0010
0000
,
0001
0000
1000
1000
,
0001
0000
0010
0000
,
0001
0000
1000
1000
,
0001
0000
0010
0000
,
0001
0000
1000
1000
,
0001
0000
0100
0000
,
0010
0000
0100
0100
,
0001
0000
0010
0000
,
0100
0000
0100
0100
,
1000
0000
0010
0000
,
0100
0000
0010
0010
,
1000
0000
0100
0000
,
0001
0000
1000
0000
,
0010
0000
0010
0000
,
0100
0001
0100
0000
,
0001
0000
0001
0000
,
0010
0001
0010
0000
,
0001
0000
0001
0000
,
1000
0001
1000
0000
,
0001
0000
0100
0000
,
1000
0000
0001
0000
,
0010
0000
0010
0000
,
0010
0001
0100
0000
,
0010
0000
0010
0000
,
0010
1000
0100
0000
,
0100
0000
0100
0000
,
0010
0001
0100
0000
,
0010
0000
1000
0000
,
0001
0000
0100
0000
,
2000
0000
0100
0000
,
0100
0000
0100
0000
,
3002
0000
0100
0000
,
0100
0000
0100
0000
,
1003
0001
1000
0000
,
0001
0010
0001
0000
,
1000
0000
0100
0000
,
0001
0000
1000
0000
,
0010
0000
0001
0000
,
0100
0100
0100
0100
,
0100
0000
0200
0000
0000
0300
0000
0000
,
0000
0010
0010
0010
,
0010
0000
1000
0000
,
0100
0000
0100
0000
,
0010
0000
0001
0000
,
0100
0000
1000
0000
,
0002
0000
0103
0000
,
0001
0100
0001
0000
,
2000
0000
3100
0000
,
1000
0100
1000
0000
,
0002
0000
0013
0000
,
0001
0010
0001
0000
,
1000
0000
0010
0000
,
0001
0000
1000
0000
,
0002
0000
0000
0000
0010
0000
0000
0003
,
0001
0010
2000
0000
,
0020
0000
3030
0000
;

//---------------dance-single - Copied from Copied f----------------
#NOTES:
     dance-single:
     Copied from Copied f:
     Hard:
     10:
     0.877,0.796,0.260,0.970,0.015: // measure 1
0000
0000
0000
0000
,  // measure 2
0000
0000
0000
0000
,  // measure 3
0000
0000
0000
0000
,  // measure 4
0000
0000
0000
0000
,  // measure 5
0000
0000
0000
0000
,  // measure 6
0000
0000
0000
0000
,  // measure 7
0000
0000
0000
0000
,  // measure 8
0000
0000
0000
0000
,  // measure 9
0110
0000
0010
1000
0010
1000
0100
0010
,  // measure 10
0001
0100
0001
0100
0010
1000
0100
0100
,  // measure 11
0000
0M00
0010
0001
0010
0001
0100
0010
,  // measure 12
1000
0100
1000
0100
0010
0001
0100
0100
,  // measure 13
0000
0M00
0010
1000
0010
1000
0100
0010
,  // measure 14
0001
0100
0001
0100
0010
1000
0100
0200
,  // measure 15
0000
0320
0000
0032
0000
0203
0000
2300
,  // measure 16
0000
0MMM
0000
0000
3100
0000
0001
0010
,  // measure 17
0200
0001
0301
0000
0200
1000
1300
0000
,  // measure 18
0100
0010
0001
0200
0000
0000
0310
1000
,  // measure 19
2000
0100
3100
0000
0020
0100
0130
0000
,  // measure 20
1000
0010
0100
2000
0000
0000
3100
0100
,  // measure 21
0002
1000
1003
0000
0002
0010
0013
0000
,  // measure 22
0001
1000
0010
0002
0000
0003
0001
0020
,  // measure 23
0000
2030
0000
3200
0000
0302
0000
2003
,  // measure 24
0000
0MMM
0000
0000
3010
0000
0001
0100
,  // measure 25
0101
0001
0100
0000
0101
0001
0100
0000
,  // measure 26
0101
0100
0010
0002
0000
0000
0010
0003
,  // measure 27
1010
1000
0100
0000
1010
1000
0100
0000
,  // measure 28
1010
1000
0100
0020
0000
0000
1000
0030
,  // measure 29
0011
0001
1000
0000
1010
1000
0001
0000
,  // measure 30
0011
0001
1000
0020
0000
0000
0130
2000
,  // measure 31
0000
3200
0000
0302
0000
0023
0000
0230
,  // measure 32
0000
M0MM
0000
0000
0010
0300
0001
0100
,  // measure 33
0101
0000
0100
0001
0100
0001
0010
1000
,  // measure 34
0020
0000
0130
1000
0100
1000
0010
0001
,  // measure 35
0020
0000
0031
0010
0001
0010
1000
0100
,  // measure 36
0020
0000
0130
0001
0100
0001
0100
1000
,  // measure 37
0010
1000
0100
0100
0010
0001
0100
0100
,  // measure 38
0001
1000
0100
0100
0010
0001
0100
0200
,  // measure 39
0000
0320
0000
0032
0000
0023
0000
2030
,  // measure 40
0000
0MMM
0000
0000
3100
0000
0010
0001
,  // measure 41
0200
0000
0000
0320
0000
0000
0000
0000
0000
1030
0010
1000
,  // measure 42
0010
1000
0100
0100
0010
0001
1000
0002
,  // measure 43
0000
0013
2000
0000
0000
0000
0000
0000
,  // measure 44
0000
0000
0010
0000
0001
0000
0010
3000
,  // measure 45
0001
0100
1000
0100
0001
0010
1000
0010
,  // measure 46
0001
1000
0100
0001
0100
1000
0010
0002
,  // measure 47
0000
0023
0000
2030
0000
3200
0000
0302
,  // measure 48
0000
MMM0
0000
0000
0103
0000
1000
0001
,  // measure 49
2000
0100
3100
0000
0020
0100
0130
0000
,  // measure 50
1000
0010
0100
2000
0000
0000
0100
3000
,  // measure 51
0002
0010
0013
0000
0002
0100
0103
0000
,  // measure 52
0001
0010
0100
0002
0000
0000
0100
0003
,  // measure 53
2000
0010
3010
0000
2000
0100
3100
0000
,  // measure 54
1000
0010
0100
2000
0000
0000
3100
0002
,  // measure 55
0000
0023
0000
2030
0000
3002
0000
2003
,  // measure 56
0000
0MMM
0000
0000
3010
0000
0001
0100
,  // measure 57
0110
0010
1000
0000
0110
0010
1000
0000
,  // measure 58
0110
0010
1000
0200
0000
0000
0010
0300
,  // measure 59
0011
0001
1000
0000
1010
1000
0001
0000
,  // measure 60
0011
0001
1000
0020
0000
0000
0100
0030
,  // measure 61
1010
1000
0001
0000
0011
0001
1000
0000
,  // measure 62
1010
1000
0001
0020
0000
0000
0031
0200
,  // measure 63
0000
2300
0000
3002
0000
0023
0000
2030
,  // measure 64
0000
0MMM
0000
0000
3100
0000
0001
0010
,  // measure 65
0110
0000
0100
1000
0100
1000
0010
0001
,  // measure 66
0010
1000
0100
0010
0000
00M1
0100
1000
,  // measure 67
0000
M100
0001
0100
0001
0010
0100
0001
,  // measure 68
0100
0010
0001
0100
0000
0M01
0010
1000
,  // measure 69
0000
M010
0001
0010
0001
0100
1000
0100
,  // measure 70
0010
1000
0100
0010
0000
10M0
0010
0001
,  // measure 71
0000
100M
0010
1000
0010
0100
1000
0100
,  // measure 72
0001
0010
0100
0001
0M00
0001
0100
1000
,  // measure 73
0010
M000
0010
0100
0010
0100
0001
0010
,  // measure 74
0100
0001
0100
1000
0000
M010
0100
1000
,  // measure 75
0000
M100
0010
0100
0010
1000
0100
0001
,  // measure 76
0100
0010
0001
0100
0000
0M10
0100
1000
,  // measure 77
0000
M100
0001
0100
0001
0010
0100
0001
,  // measure 78
0100
0010
0001
1000
0000
M000
0010
0200
,  // measure 79
0000
2300
0000
3200
0000
0302
0000
0023
,  // measure 80
0000
MM0M
0000
0000
0130
0000
1000
0001
,  // measure 81
0020
1000
1030
0000
0020
0001
0031
0000
,  // measure 82
0010
0100
1000
0020
0000
0000
0130
0001
,  // measure 83
0002
0010
0013
0000
0200
0010
0310
0000
,  // measure 84
0001
0100
0010
0002
0000
0000
0013
0010
,  // measure 85
2000
0001
3001
0000
2000
0100
3100
0000
,  // measure 86
1000
0001
0100
2000
0000
3000
1000
0200
,  // measure 87
0000
0302
0000
0023
0000
2030
0000
3002
,  // measure 88
0000
MMM0
0000
0000
0103
0000
1000
0010
,  // measure 89
1010
1000
0010
0000
1010
1000
0010
0000
,  // measure 90
1010
0010
0100
2000
0MMM
0000
0100
3000
,  // measure 91
0101
0001
0010
0000
0101
0001
0010
0000
,  // measure 92
0101
0001
0010
0200
M0MM
0000
0001
0300
,  // measure 93
1100
1000
0001
0000
0101
0001
1000
0000
,  // measure 94
1100
1000
0001
0200
M0MM
0000
0310
0002
,  // measure 95
0000
0023
0000
2030
0000
3200
0000
0320
,  // measure 96
0000
MM0M
0000
0000
0100
0030
1000
0010
,  // measure 97
1010
0000
0010
1000
0010
1000
0100
0001
,  // measure 98
0200
0000
0310
0001
0010
0001
0100
1000
,  // measure 99
0200
0000
1300
0100
1000
0100
0001
0010
,  // measure 100
0200
0000
0310
1000
0010
1000
0010
0001
,  // measure 101
0100
0001
0010
0010
0100
1000
0010
0010
,  // measure 102
1000
0001
0010
0010
0100
1000
0010
0020
,  // measure 103
0000
0230
0000
2300
0000
3200
0000
0302
,  // measure 104
0000
MMM0
0000
0000
0013
0000
0100
1000
,  // measure 105
0020
0000
0000
0230
0000
0000
0000
0000
0000
0301
0100
0001
,  // measure 106
0100
0001
0010
0010
0100
1000
0001
2000
,  // measure 107
0000
3100
0002
0000
0000
0000
0000
0000
,  // measure 108
0000
0000
0100
0000
1000
0000
0100
0003
,  // measure 109
1000
0010
0001
0010
1000
0100
0001
0100
,  // measure 110
1000
0001
0010
1000
0010
0001
0100
2000
,  // measure 111
0000
3200
0000
0302
0000
0023
0000
2030
,  // measure 112
0000
0MMM
0000
0000
3010
0000
0001
1000
,  // measure 113
0002
0010
0013
0000
0200
0010
0310
0000
,  // measure 114
0001
0100
0010
0002
0000
0000
0010
0003
,  // measure 115
2000
0100
3100
0000
2000
0010
3010
0000
,  // measure 116
1000
0100
0010
2000
0000
0000
0010
3000
,  // measure 117
0002
0100
0103
0000
0002
0010
0013
0000
,  // measure 118
0001
0100
0010
0002
0000
0000
0013
2000
,  // measure 119
0000
3200
0000
0302
0000
2003
0000
3002
,  // measure 120
0000
0000
MMM0
0000
0103
0000
1000
0001
,  // measure 121
1001
1000
0100
0000
1001
0001
0100
0000
,  // measure 122
1000
0010
0100
2000
0000
0000
3100
0001
,  // measure 123
2002
0000
3003
0000
;
