#TITLE:Take A Step Forward;
#SUBTITLE:Short Song;
#ARTIST:TAG feat. Sydney Powers;
#TITLETRANSLIT:;
#SUBTITLETRANSLIT:;
#ARTISTTRANSLIT:;
#CREDIT:;
#BANNER:Take A Step Forward.png;
#BACKGROUND:Take A Step Forward-bg.png;
#LYRICSPATH:;
#CDTITLE:CD_Title.png;
#MUSIC:Take A Step Forward.ogg;
#OFFSET:-0.040;
#SAMPLESTART:47.560;
#SAMPLELENGTH:15.000;
#SELECTABLE:YES;
#DISPLAYBPM:145.000;
#BPMS:0.000=144.997;
#STOPS:;
#BGCHANGES:;

//---------------dance-single - Copied from----------------
#NOTES:
     dance-single:
     Copied from:
     Challenge:
     9:
     0.595,0.646,0.557,0.245,0.373:
0000
0000
0000
0000
,
0000
0000
0000
0000
,
0000
0000
0000
0000
,
0000
0000
0000
0000
,
0000
0000
0000
0000
,
1000
0000
0100
0000
0010
0001
0000
0010
0001
0000
0100
0010
0000
1000
0100
0000
,
1000
0000
0010
0000
0100
0001
0000
0100
0001
0000
0100
0010
0000
1000
0100
0000
,
0010
0000
0001
0000
1000
0010
0000
1000
0010
0000
0100
0001
0000
0010
0100
0000
,
1000
0000
0010
0000
0100
0001
0000
0100
0001
0000
0100
0010
0000
1000
0100
0000
,
0010
0000
0100
0000
1000
0010
0000
0010
0001
0000
0001
0010
0000
0010
1000
0000
,
0100
0000
0010
0000
0001
0100
0000
0100
1000
0000
1000
0100
0000
0100
0001
0000
,
0010
0000
0100
0000
1000
0010
0000
0010
0001
0000
0001
0010
0000
0010
1000
0000
,
2200
0000
0000
0000
0000
0300
3001
0000
,
1001
0000
0001
0000
0010
0000
0100
0000
1000
0010
0000
0110
0000
0000
0100
0000
,
0001
0000
0010
0000
0100
1000
0000
1100
0000
0000
1000
0000
0010
0000
0100
0000
,
0101
0000
0000
0011
0000
0000
0110
0000
0000
1010
0000
0000
1000
0200
0000
0000
,
0000
0000
0310
0000
0011
0001
0110
0000
,
1001
0000
1000
0000
0100
0000
0010
0000
0001
0100
0000
0110
0000
0000
0010
0000
,
1000
0000
0100
0000
0010
0001
0000
0011
0000
0000
0010
0000
0100
0000
1000
0000
,
1100
0000
0000
1010
0000
0000
0110
0000
0101
0000
0001
0000
0010
0000
0100
2000
,
0000
0000
0000
0000
3010
1000
0100
0010
,
0021
0000
0001
0000
0130
0010
0001
0200
,
0000
0000
0000
0000
1300
0000
0010
0000
1000
0000
0000
0100
0000
0000
0010
0000
,
0011
0000
0001
0100
0000
0100
1000
0010
,
0000
0010
0002
0000
0000
0000
1003
0000
,
0001
0000
0010
0000
0100
0000
1000
0010
0000
0100
0000
0001
0010
0000
0001
0000
,
1000
0000
0100
0000
0010
0000
0001
0100
0000
0010
0000
1000
0100
0000
0010
0000
,
0001
0100
1000
0100
0020
0000
1000
0000
,
0032
0000
0000
0000
0000
0000
0000
0000
0000
0000
0000
0000
0013
1000
0100
0000
,
0110
0000
0000
0010
0000
0000
0001
0000
0011
0000
0000
0001
0000
0000
0100
0000
,
0110
0000
0000
0010
0000
0000
1000
0000
1100
0000
0000
0000
1010
0000
0000
0000
,
0021
0000
0000
0031
0010
1000
0010
0100
,
0000
1000
0020
0001
0000
0001
0030
0000
,
0110
0000
0000
0010
0000
0000
1000
0000
1100
0000
0000
0100
0000
0000
0010
0000
,
0011
0000
0000
0001
0000
0000
0100
0000
0110
0000
0000
0010
0000
0000
1010
0000
,
0000
0000
1200
0000
0000
0000
0000
0000
0000
0000
0000
0000
0301
0100
1000
0000
,
0010
0000
0010
0000
0100
0000
0001
0000
0011
0000
0000
0100
0000
0000
0010
0000
,
2200
0000
0000
0000
,
3020
0000
0000
0000
,
2300
0000
0000
0000
,
0032
0000
0000
0000
,
3113
0010
0001
0100
1000
0100
0001
0010
,
0110
0100
1000
0010
0001
0010
1000
0100
,
0110
0010
0001
0100
1000
0001
1000
0100
,
0110
0010
1000
0100
0001
1000
0001
0100
,
0110
0000
0000
0001
0000
0000
1000
0000
0110
0000
0000
1000
0000
0000
0001
0000
,
1001
0000
0000
0100
0000
0000
0010
0000
1001
0000
0000
0000
0011
0000
0000
0000
,
1020
0000
0000
0000
0000
0000
1000
0030
0010
0000
0001
0000
0010
0000
0100
0000
,
0000
0001
0020
1000
0000
1000
0030
0000
,
0011
0000
0000
0100
0000
0000
0010
0000
1100
0000
0000
0010
0000
0000
1000
0000
,
0101
0000
0000
0010
0000
0000
1000
0000
0110
0000
0000
0001
0000
0000
0100
0000
,
0000
1020
0000
0000
0000
0000
0000
0000
,
0032
0000
0000
0000
0000
0000
0000
0000
0000
0000
0000
0000
0013
1000
0100
0000
,
0110
0000
0010
0001
0000
0100
0010
0000
0110
0000
0010
1000
0000
0100
1000
0000
,
1100
0000
1000
0010
0000
0100
0001
0000
0011
0000
0000
0000
1010
0000
0000
0000
,
1200
0000
0000
0301
0100
1000
0010
0100
,
0000
0001
0020
1000
0000
1000
0030
0000
,
0011
0000
0001
0100
0000
1000
0100
0000
0110
0000
1000
0100
0000
0001
0100
0000
,
0101
0000
0100
1000
0000
0100
0010
0000
0011
0000
0001
0000
0100
0000
1000
0000
,
0100
0000
0020
0000
0000
0000
0000
0000
0000
0000
0000
0000
1030
0100
0001
0000
,
0010
0001
0100
1000
0010
1000
0100
0001
,
0102
0100
0100
0100
,
0200
0303
0000
0000
;

//---------------dance-double - Copied from Copied f----------------
#NOTES:
     dance-double:
     Copied from Copied f:
     Challenge:
     9:
     0.525,0.617,0.255,0.312,0.363: // measure 1
00000000
00000000
00000000
00000000
,  // measure 2
00000000
00000000
00000000
00000000
,  // measure 3
00000000
00000000
00000000
00000000
,  // measure 4
00000000
00000000
00000000
00000000
,  // measure 5
00000000
00000000
00000000
00000000
,  // measure 6
10000000
00000000
00010000
00000000
00100000
00001000
00000000
00100000
00001000
00000000
00010000
00000100
00000000
00001000
00000001
00000000
,  // measure 7
00001000
00000000
00000001
00000000
00000100
00000001
00000000
00000100
00000001
00000000
00001000
00000010
00000000
00010000
00001000
00000000
,  // measure 8
00010000
00000000
00001000
00000000
01000000
00100000
00000000
01000000
00100000
00000000
10000000
00100000
00000000
01000000
00010000
00000000
,  // measure 9
00100000
00000000
00001000
00000000
00010000
00000100
00000000
00000100
00000010
00000000
00000001
00000100
00000000
00000001
00000010
00000000
,  // measure 10
00000001
00000000
00001000
00000000
00000100
00010000
00000000
00010000
00001000
00000000
00001000
00100000
00000000
00100000
10000000
00000000
,  // measure 11
00100000
00000000
00001000
00000000
00010000
00000100
00000000
00000100
00000001
00000000
00000001
00000100
00000000
00000100
00010000
00000000
,  // measure 12
00022000
00000000
00000000
00000000
00000000
00000000
00000000
00030000
,  // measure 13
02000000
00000000
03003000
00000000
,  // measure 14
10010000
00000000
00100000
00000000
01000000
00000000
00001000
00000000
00010000
00001000
00000000
00011000
00000000
00000000
00010000
00000000
,  // measure 15
00000100
00000000
00001000
00000000
00000001
00000010
00000000
00000011
00000000
00000000
00000001
00000000
00000100
00000000
00000010
00000000
,  // measure 16
00001000
00000000
00000000
00000100
00000000
00000000
00000001
00000000
00000000
00000100
00000000
00000000
00010000
00001000
00000000
00000000
,  // measure 17
00010000
00000000
00001000
00000000
00011000
01001000
10010000
00000000
,  // measure 18
01100000
00000000
00100000
00000000
10000000
00000000
01000000
00000000
00100000
00001000
00000000
00011000
00000000
00000000
00001000
00000000
,  // measure 19
00010000
00000000
00000010
00000000
00000100
00000001
00000000
00001001
00000000
00000000
00001000
00000000
00000010
00000000
00000100
00000000
,  // measure 20
00000001
00000000
00000000
00000010
00000000
00000000
00001000
00000000
00000010
00000000
00000001
00000000
00000100
00000000
00000010
00020000
,  // measure 21
00000000
00000000
00000000
00030000
00001000
01000000
00000100
00010000
,  // measure 22
00012000
00000000
01003000
00000000
00100000
10000000
01000000
01100000
,  // measure 23
00000000
00000000
00000000
00000000
00100000
00000000
00001000
00000000
00010000
00000000
00000000
00000100
00000000
00000000
00000010
00000000
,  // measure 24
00000002
00000000
00000103
00000010
00000000
00001000
00000100
00000002
,  // measure 25
00000000
00001003
00020000
00000000
00000000
00000000
00031000
00000000
,  // measure 26
01000000
00000000
10000000
00000000
01000000
00000000
00001000
00010000
00000000
00000100
00000000
00010000
00001000
00000000
00010000
00000000
,  // measure 27
00000100
00000000
00000001
00000000
00000100
00000000
00010000
00001000
00000000
01000000
00000000
00001000
00010000
00000000
00001000
00000000
,  // measure 28
01000000
10000000
01000000
00001000
00010000
00000100
00000001
00000100
,  // measure 29
00022000
00000000
00000000
00000000
00000000
00000000
00000000
00000000
00000000
00000000
00033000
00000000
00010000
00000100
00000001
00000000
,  // measure 30
00000100
00000000
00000000
00010000
00000000
00000000
00001000
00000000
01000000
00000000
00000000
10000000
00000000
00000000
01000000
00000000
,  // measure 31
00100000
00000000
00000000
10000000
00000000
00000000
01000000
00000000
00010000
00000000
00000000
00000000
00010010
00000000
00000000
00000000
,  // measure 32
00001001
00000000
00000000
00000010
00010000
00001000
01000000
00000100
,  // measure 33
00000000
00010000
00000200
00000001
00000000
00000001
00000300
00000000
,  // measure 34
00000100
00000000
00000000
00010000
00000000
00000000
00001000
00000000
01000000
00000000
00000000
10000000
00000000
00000000
01000000
00000000
,  // measure 35
00010000
00000000
00000000
00100000
00000000
00000000
00001000
00000000
00010000
00000000
00000000
00000100
00000000
00000000
00010100
00000000
,  // measure 36
00000000
00000000
00001001
00000000
00000000
00000000
00000000
00000000
00000000
00000000
00000000
00000000
00000001
00000010
00001000
00000000
,  // measure 37
00000010
00000000
00000001
00000000
00000100
00000000
00000010
00000000
00010000
00000000
00000000
00001000
00000000
00000000
00010000
00000000
,  // measure 38
00022000
00000000
00000000
00000000
,  // measure 39
02000000
00000000
00000000
00000000
,  // measure 40
03000200
00000000
00000000
00000000
,  // measure 41
20000302
00000000
00000000
00000000
00000000
00000000
00000003
30000000
,  // measure 42
10000000
00000001
01000000
00000100
,  // measure 43
00000001
10000000
00000010
00100000
,  // measure 44
10000000
00000000
00000001
00000000
00100000
00000100
00100000
00033000
,  // measure 45
00022000
00000000
00000000
00000000
02000020
00000000
00000000
03033030
,  // measure 46
00010000
00000000
00000000
00001000
00000000
00000000
01000000
00000000
10000000
00000000
00000000
01000000
00000000
00000000
00001000
00000000
,  // measure 47
00010000
00000000
00000000
00000100
00000000
00000000
00000001
00000000
00000100
00000000
00000000
00000000
00010000
00000000
00000000
00000000
,  // measure 48
00002000
00000000
00000000
01003000
00100000
10000000
01000000
00100000
,  // measure 49
00000000
00001000
00200000
10000000
00000000
10000000
00300000
00000000
,  // measure 50
00100000
00000000
00000000
00001000
00000000
00000000
00010000
00000000
00000100
00000000
00000000
00000001
00000000
00000000
00000100
00000000
,  // measure 51
00000010
00000000
00000000
00000001
00000000
00000000
00000100
00000000
00010000
00000000
00000000
00001000
00000000
00000000
01001000
00000000
,  // measure 52
00000000
20020000
00000000
00000000
00000000
00000000
00000000
30030000
,  // measure 53
02200000
00000000
00000000
00000000
00000000
00000000
00000000
00000000
00000000
00000000
03300000
00000000
10000000
00100000
00001000
00000000
,  // measure 54
00100000
00000000
10000000
01000000
00000000
01000000
00100000
00000000
00010000
00000000
00100000
00001000
00000000
00001000
00010000
00000000
,  // measure 55
00001000
00000000
00010000
00000100
00000000
00000100
00000010
00000000
00000001
00000000
00000000
00000000
00000100
00000000
00000000
00000000
,  // measure 56
00000020
00000000
00000030
00000100
00000001
00001000
00000100
00000010
,  // measure 57
00000000
00000001
00000200
00010000
00000000
00010000
00000300
00000000
,  // measure 58
00000100
00000000
00000010
00001000
00000000
00001000
00000001
00000000
00000010
00000000
00000001
00000100
00000000
00000100
00000010
00000000
,  // measure 59
00001000
00000000
00000100
00010000
00000000
00010000
00001000
00000000
01000000
00000000
00000000
00100000
00000000
00000000
10100000
00000000
,  // measure 60
00000000
00000000
02002000
00000000
00000000
00000000
00000000
00000000
00000000
00000000
03003000
00000000
00001000
00100000
10000000
00000000
,  // measure 61
00100000
00000000
00001000
00000000
00010000
00000000
00000010
00000000
00001000
00000000
00000000
00000001
00000000
00000000
00000010
00000000
,  // measure 62
00000120
00000100
00000100
00000100
,  // measure 63
00000200
00000330
00000000
00000000
;
