#TITLE:Take a Chance;
#SUBTITLE:Granada (Genesis);
#ARTIST:Motoi Sakuraba;
#TITLETRANSLIT:;
#SUBTITLETRANSLIT:;
#ARTISTTRANSLIT:;
#CREDIT:;
#BANNER:Take a Chance_bn.png;
#BACKGROUND:Take a Chance_bg.png;
#LYRICSPATH:;
#CDTITLE:CD_Title.png;
#MUSIC:Take a Chance (Genesis).ogg;
#OFFSET:-0.220;
#SAMPLESTART:3.780;
#SAMPLELENGTH:16.400;
#SELECTABLE:YES;
#BPMS:0.000=263.681;
#STOPS:;
#BGCHANGES:;

//---------------dance-single - ----------------
#NOTES:
     dance-single:
     :
     Easy:
     3:
     0.277,0.322,0.135,0.219,0.000: // measure 1
0001
0000
0000
0000
,  // measure 2
0000
0000
0000
0000
,  // measure 3
1000
0000
0000
0000
,  // measure 4
0001
0000
0000
0000
,  // measure 5
1000
0000
0001
0000
,  // measure 6
0100
0000
0000
0000
,  // measure 7
0001
0000
1000
0000
,  // measure 8
0100
0000
0100
0000
,  // measure 9
1000
0000
0001
0000
,  // measure 10
0100
0000
0000
0000
,  // measure 11
0001
0000
1000
0000
,  // measure 12
0100
0000
1000
0000
,  // measure 13
0020
0000
0000
0000
,  // measure 14
0230
0000
0000
0000
,  // measure 15
0302
0000
0000
0000
,  // measure 16
1003
0000
0001
0000
,  // measure 17
2000
0000
0000
0000
,  // measure 18
3010
0000
0100
0000
,  // measure 19
0020
0000
0000
0000
,  // measure 20
1030
0000
0001
0000
,  // measure 21
2000
0000
0000
0000
,  // measure 22
3002
0000
0000
0000
,  // measure 23
1003
0000
0001
0000
,  // measure 24
0010
0000
0000
0000
,  // measure 25
0001
0000
1000
0000
,  // measure 26
0010
0000
0010
0000
,  // measure 27
1000
0000
0001
0000
,  // measure 28
0010
0000
0000
0000
,  // measure 29
0001
0000
1000
0000
,  // measure 30
0010
0000
0010
0000
,  // measure 31
0200
0000
0000
0000
,  // measure 32
0320
0000
0000
0000
,  // measure 33
2030
0000
0000
0000
,  // measure 34
3001
0000
1000
0000
,  // measure 35
0002
0000
0000
0000
,  // measure 36
0103
0000
0010
0000
,  // measure 37
0200
0000
0000
0000
,  // measure 38
0310
0000
1000
0000
,  // measure 39
0002
0000
0000
0000
,  // measure 40
1003
0000
0001
0000
,  // measure 41
1001
0000
0000
0000
,  // measure 42
1100
0000
0000
0000
,  // measure 43
1001
0000
0000
0000
,  // measure 44
0011
0000
0000
0000
,  // measure 45
0101
0000
0000
0000
,  // measure 46
1100
0000
0000
0000
,  // measure 47
1010
0000
0000
0000
,  // measure 48
0011
0000
0000
0000
,  // measure 49
1000
0000
0000
0001
0000
0000
0100
0000
,  // measure 50
0000
0000
0000
0000
,  // measure 51
0001
0000
0000
1000
0000
0000
0100
0000
,  // measure 52
0000
0000
0000
0000
,  // measure 53
1000
0000
0010
0000
,  // measure 54
1000
0000
0010
0000
,  // measure 55
0100
0000
0001
0000
,  // measure 56
0100
0000
0001
0000
,  // measure 57
1000
0000
0000
0001
0000
0000
0010
0000
,  // measure 58
0000
0000
0000
0000
,  // measure 59
0001
0000
0000
1000
0000
0000
0010
0000
,  // measure 60
0000
0000
0000
0000
,  // measure 61
1000
0000
0010
0000
,  // measure 62
1000
0000
0010
0000
,  // measure 63
0100
0000
0001
0000
,  // measure 64
0100
0000
0001
0000
,  // measure 65
1000
0000
0000
0000
,  // measure 66
0000
0000
0000
0000
,  // measure 67
0001
0000
0000
0000
,  // measure 68
1000
0000
0000
0000
,  // measure 69
0001
0000
1000
0000
,  // measure 70
0010
0000
0000
0000
,  // measure 71
1000
0000
0001
0000
,  // measure 72
0010
0000
0010
0000
,  // measure 73
0001
0000
1000
0000
,  // measure 74
0010
0000
0000
0000
,  // measure 75
1000
0000
0001
0000
,  // measure 76
0010
0000
0001
0000
,  // measure 77
0200
0000
0000
0000
,  // measure 78
0320
0000
0000
0000
,  // measure 79
2030
0000
0000
0000
,  // measure 80
3001
0000
1000
0000
,  // measure 81
0002
0000
0000
0000
,  // measure 82
0103
0000
0010
0000
,  // measure 83
0200
0000
0000
0000
,  // measure 84
0301
0000
1000
0000
,  // measure 85
0002
0000
0000
0000
,  // measure 86
2003
0000
0000
0000
,  // measure 87
3001
0000
1000
0000
,  // measure 88
0100
0000
0000
0000
,  // measure 89
1000
0000
0001
0000
,  // measure 90
0100
0000
0100
0000
,  // measure 91
0001
0000
1000
0000
,  // measure 92
0100
0000
0000
0000
,  // measure 93
1000
0000
0001
0000
,  // measure 94
0100
0000
0100
0000
,  // measure 95
0020
0000
0000
0000
,  // measure 96
0230
0000
0000
0000
,  // measure 97
0302
0000
0000
0000
,  // measure 98
1003
0000
0001
0000
,  // measure 99
2000
0000
0000
0000
,  // measure 100
3010
0000
0100
0000
,  // measure 101
0020
0000
0000
0000
,  // measure 102
0130
0000
0010
0000
,  // measure 103
2000
0000
0000
0000
,  // measure 104
3001
0000
1000
0000
,  // measure 105
1001
0000
0000
0000
,  // measure 106
0101
0000
0000
0000
,  // measure 107
1001
0000
0000
0000
,  // measure 108
1010
0000
0000
0000
,  // measure 109
1100
0000
0000
0000
,  // measure 110
0101
0000
0000
0000
,  // measure 111
0011
0000
0000
0000
,  // measure 112
1010
0000
0000
0000
,  // measure 113
0001
0000
0000
1000
0000
0000
0010
0000
,  // measure 114
0000
0000
0000
0000
,  // measure 115
1000
0000
0000
0001
0000
0000
0010
0000
,  // measure 116
0000
0000
0000
0000
,  // measure 117
0001
0000
0100
0000
,  // measure 118
0001
0000
0100
0000
,  // measure 119
0010
0000
1000
0000
,  // measure 120
0010
0000
1000
0000
,  // measure 121
0001
0000
0000
1000
0000
0000
0100
0000
,  // measure 122
0000
0000
0000
0000
,  // measure 123
1000
0000
0000
0001
0000
0000
0100
0000
,  // measure 124
0000
0000
0000
0000
,  // measure 125
0001
0000
0100
0000
,  // measure 126
0001
0000
0100
0000
,  // measure 127
0010
0000
1000
0000
,  // measure 128
0010
0000
1000
0000
;

//---------------dance-single - Copied from----------------
#NOTES:
     dance-single:
     Copied from:
     Medium:
     8:
     0.679,0.646,0.202,0.371,0.000:
0010
0000
0000
0010
0000
0000
0010
0000
,
0010
0000
0000
0010
0000
0000
0010
0000
,
1000
0000
0000
0001
0000
0000
1000
0000
,
0001
0000
0000
0100
0000
0000
0010
0000
,
1000
0000
0001
1000
0000
0001
0000
0010
,
0000
0000
0000
0000
,
0001
0000
1000
0010
0000
1000
0000
0100
,
0000
0000
1000
0000
,
0001
0000
0010
0001
0000
1000
0000
0010
,
0000
0000
0000
0000
,
0100
0000
0001
1000
0000
0010
0000
1000
,
0000
0010
1000
0100
,
0020
0001
0031
0100
,
0020
1000
1030
0100
,
0020
0001
0031
0100
,
0010
1000
0001
0100
,
0020
1000
1030
0001
,
0020
0001
0031
1000
,
0200
1000
1300
0001
,
0200
0001
0301
0010
,
0200
1000
1300
0001
,
0020
0001
0031
1000
,
0010
0000
1000
0001
0000
0010
0000
0001
,
0000
0000
0000
0000
,
0001
0000
1000
0010
0000
1000
0000
0100
,
0000
0000
0010
0000
0001
0010
0001
0000
,
1000
0000
0001
0010
0000
0001
0000
0100
,
0000
0000
0000
0000
,
0010
0000
1000
0001
0000
0010
0000
0001
,
0000
0000
0100
0000
0010
1000
0010
0000
,
2000
0100
3100
1000
,
0002
0010
0013
0001
,
2000
0010
3010
1000
,
0001
1000
0010
0100
,
0002
0100
0103
0001
,
2000
0100
3100
1000
,
0002
1000
1003
0010
,
0200
0001
0301
0010
,
0200
0000
1000
0000
0010
0300
1000
0000
,
0020
0000
1000
0000
0100
0030
1000
0000
,
1001
0001
0001
0001
,
0101
0100
0100
0100
,
0110
0010
0010
0010
,
1010
1000
1000
1000
,
1001
0001
1000
0001
,
0110
0100
0010
0100
,
0101
0001
0010
0001
,
1010
1000
0010
1000
,
1001
0000
0001
1000
0000
0010
0200
0000
,
0000
0010
0010
0310
,
0110
0000
1000
0001
0000
0100
0020
0000
,
0000
0100
0100
0130
,
0010
1000
0010
0000
1000
0000
0100
0000
,
0010
0001
0010
0000
0001
0000
0100
0000
,
0010
1000
0010
0000
1000
0000
0100
0000
,
0010
0001
0010
0000
0001
0000
0100
0000
,
0110
0000
0010
1000
0000
0001
0020
0000
,
0000
0001
0001
0031
,
0011
0000
0001
0100
0000
0010
2000
0000
,
0000
0100
0100
3100
,
1000
0010
1000
0000
0001
0000
0010
0000
,
0100
1000
0100
0000
0010
0000
0001
0000
,
0100
0001
0100
0000
0010
0000
1000
0000
,
0001
1000
0001
0000
0100
0000
0010
0000
,
0100
0000
0000
0100
0000
0000
0100
0000
,
0100
0000
0000
0100
0000
0000
0100
0000
,
0001
0000
0000
1000
0000
0000
0001
0000
,
1000
0000
0000
0010
0000
0000
0100
0000
,
0001
0000
1000
0001
0000
1000
0000
0100
,
0000
0000
0000
0000
,
1000
0000
0001
0100
0000
0001
0000
0010
,
0000
0000
0001
0000
,
1000
0000
0100
1000
0000
0001
0000
0100
,
0000
0000
0000
0000
,
0010
0000
1000
0001
0000
0100
0000
0001
,
0000
0100
0001
0010
,
0200
1000
1300
0010
,
0200
0001
0301
0010
,
0200
1000
1300
0010
,
0100
0001
1000
0010
,
0200
0001
0301
1000
,
0200
1000
1300
0001
,
0020
0001
0031
1000
,
0020
1000
1030
0100
,
0020
0001
0031
1000
,
0200
1000
1300
0001
,
0100
0000
0001
1000
0000
0100
0000
1000
,
0000
0000
0000
0000
,
1000
0000
0001
0100
0000
0001
0000
0010
,
0000
0000
0100
0000
1000
0100
1000
0000
,
0001
0000
1000
0100
0000
1000
0000
0010
,
0000
0000
0000
0000
,
0100
0000
0001
1000
0000
0100
0000
1000
,
0000
0000
0010
0000
0100
0001
0100
0000
,
0002
0010
0013
0001
,
2000
0100
3100
1000
,
0002
0100
0103
0001
,
1000
0001
0100
0010
,
2000
0010
3010
1000
,
0002
0010
0013
0001
,
2000
0001
3001
0100
,
0020
1000
1030
0100
,
0020
0000
0001
0000
0100
0030
0001
0000
,
0200
0000
0001
0000
0010
0300
0001
0000
,
1001
1000
1000
1000
,
1010
0010
0010
0010
,
0110
0100
0100
0100
,
0101
0001
0001
0001
,
1001
1000
0001
1000
,
0110
0010
0100
0010
,
1010
1000
0100
1000
,
0101
0001
0100
0001
,
1001
0000
1000
0001
0000
0100
0020
0000
,
0000
0100
0100
0130
,
0110
0000
0001
1000
0000
0010
0200
0000
,
0000
0010
0010
0310
,
0100
0001
0100
0000
0001
0000
0010
0000
,
0100
1000
0100
0000
1000
0000
0010
0000
,
0100
0001
0100
0000
0001
0000
0010
0000
,
0100
1000
0100
0000
1000
0000
0010
0000
,
0110
0000
0100
0001
0000
1000
0200
0000
,
0000
1000
1000
1300
,
1100
0000
1000
0010
0000
0100
0002
0000
,
0000
0010
0010
0013
,
0001
0100
0001
0000
1000
0000
0100
0000
,
0010
0001
0010
0000
0100
0000
1000
0000
,
0010
1000
0010
0000
0100
0000
0001
0000
,
1000
0001
1000
0000
0010
0000
0100
0000
;

//---------------dance-single - Copied from Copied f----------------
#NOTES:
     dance-single:
     Copied from Copied f:
     Hard:
     10:
     0.999,0.970,0.303,0.405,0.017:
0010
0000
0000
0010
0000
0000
0010
0000
,
0010
0000
0000
0010
0000
0000
0010
0000
,
1000
0000
0000
0001
0000
0000
1000
0000
,
0001
0000
0100
0000
0100
0010
1000
0010
,
1000
0001
0010
0001
0000
1000
0000
0020
,
0000
0000
0100
0000
0100
0000
0100
0030
,
0100
0001
1000
0001
0000
0010
0000
0001
,
0000
0100
0000
0010
1000
0010
0100
0001
,
0010
0001
0010
0100
0000
1000
0000
0020
,
0000
0000
0100
0000
0100
0000
0100
0030
,
0010
1000
0001
1000
0000
0010
0000
0100
,
0000
0001
0010
0001
1000
0010
1000
0100
,
0020
0000
0000
0000
0000
0000
0000
0000
0000
0000
0000
0000
0001
0000
0000
0000
0000
0000
0000
0000
0000
0000
0000
0000
0031
0000
0000
0000
0000
0000
0000
0100
0000
0000
0000
0000
0000
0000
0000
0000
0000
0000
0020
0000
0000
0000
0000
0000
,
0000
0000
0000
0000
0000
0000
1000
0000
0000
0000
0000
0000
1000
0030
0000
0100
0000
0000
0010
0000
0000
0001
0000
0000
,
0200
0000
0010
0000
0001
0000
0010
0300
,
0010
1000
0010
1000
0100
0010
0001
0100
,
0002
0000
0010
0003
0001
1000
0010
0100
,
0020
0000
1000
0030
1010
0000
1001
0000
,
0021
0000
0001
0030
0001
0100
0010
1000
,
0002
0000
0100
0003
0101
0000
1001
0000
,
2010
0000
0001
3000
1000
0010
0100
0001
,
0021
0000
0001
0000
0100
0000
0001
0030
,
0001
1000
0010
1000
0000
0010
0100
0001
,
0000
1000
0001
1000
0010
0100
0001
0000
,
1000
0010
1000
0001
0000
0010
0001
0100
,
0000
0010
1000
0010
1000
0001
0010
0001
,
1000
0010
1000
0001
0000
0100
0010
1000
,
0000
0001
0010
0001
1000
0010
1000
0100
,
0010
0001
0100
0001
0000
1000
0010
0100
,
0000
0010
0100
0001
0010
0100
1000
0010
,
2000
0000
0000
0000
0000
0000
0000
0000
0000
0000
0000
0000
0001
0000
0000
0000
0000
0000
0000
0000
0000
0000
0000
0000
3001
0000
0000
0000
0000
0000
0000
0010
0000
0000
0000
0000
0000
0000
0000
0000
0000
0000
0200
0000
0000
0000
0000
0000
,
0000
0000
1000
0000
1300
0010
0100
0001
,
0020
0000
0100
0000
0001
0000
0100
0030
,
0100
1000
0100
1000
0010
0100
0001
0010
,
0002
0000
0100
0003
1000
0010
0100
0001
,
2000
0000
0010
3000
1010
0000
1100
0000
,
0201
0000
0001
0300
0001
1000
0100
0010
,
0012
0000
0100
0003
0101
0000
0011
0000
,
2010
0000
0001
3000
1000
0010
0100
0001
,
0021
0000
0100
0000
1000
0000
0100
0030
,
0001
1000
0001
1000
0010
0100
0001
0000
,
1000
0010
1000
0010
0100
0001
0010
0000
,
0001
0100
0001
0100
0010
1000
0100
0000
,
0010
0001
0010
0001
0100
0010
1000
0000
,
1000
0001
1000
0001
0100
0010
0100
0010
,
1000
0001
0100
0010
1000
0100
0010
0001
,
0100
0001
0100
0001
1000
0010
1000
0010
,
1000
0100
0010
0001
0100
0010
1000
0001
,
1000
0000
0001
1000
0000
0010
0200
0000
,
0000
0010
0010
0310
,
0110
0000
1000
0001
0000
0100
0020
0000
,
0000
0100
0100
0130
,
0010
1000
0010
1000
0100
0010
0100
0010
,
0001
0010
0001
0010
0100
1000
0100
1000
,
0010
1000
0100
0010
0001
0010
0100
1000
,
0010
0100
0001
1000
0001
0100
0010
1000
,
1001
0000
0010
1000
0000
0001
0020
0000
,
0000
0001
0001
0031
,
0011
0000
0001
0100
0000
0010
2000
0000
,
0000
0100
0100
3100
,
1000
0010
1000
0010
0100
0001
0100
0001
,
0010
0100
0010
0100
1000
0010
1000
0010
,
0100
0001
0010
0100
1000
0100
0010
0001
,
1000
0010
1000
0100
0010
0001
1000
0010
,
0100
0000
0000
0100
0000
0000
0100
0000
,
0100
0000
0000
0100
0000
0000
0100
0000
,
0001
0000
0000
1000
0000
0000
0001
0000
,
1000
0000
0010
0000
0010
0100
0001
0100
,
0001
1000
0100
1000
0000
0001
0000
0200
,
0000
0000
0010
0000
0010
0000
0010
0300
,
0010
1000
0001
1000
0000
0100
0000
1000
,
0000
0010
0000
0100
0001
0100
0010
1000
,
0100
1000
0100
0010
0000
0001
0000
0200
,
0000
0000
0010
0000
0010
0000
0010
0300
,
0100
0001
1000
0001
0000
0100
0000
0010
,
0000
1000
0100
1000
0001
0100
0001
0010
,
0200
0000
0000
0000
0000
0000
0000
0000
0000
0000
0000
0000
1000
0000
0000
0000
0000
0000
0000
0000
0000
0000
0000
0000
1300
0000
0000
0000
0000
0000
0000
0010
0000
0000
0000
0000
0000
0000
0000
0000
0000
0000
0200
0000
0000
0000
0000
0000
,
0000
0000
0000
0000
0000
0000
0001
0000
0000
0000
0000
0000
0001
0300
0000
0010
0000
0000
0100
0000
0000
1000
0000
0000
,
0020
0000
0100
0000
1000
0000
0100
0030
,
0100
0001
0100
0001
0010
0100
1000
0010
,
2000
0000
0100
3000
1000
0001
0100
0010
,
0200
0000
0001
0300
0101
0000
1001
0000
,
1200
0000
1000
0300
1000
0010
0100
0001
,
2000
0000
0010
3000
1010
0000
1001
0000
,
0102
0000
1000
0003
0001
0100
0010
1000
,
1200
0000
1000
0000
0010
0000
1000
0300
,
1000
0001
0100
0001
0000
0100
0010
1000
,
0000
0001
1000
0001
0100
0010
1000
0000
,
0001
0100
0001
1000
0000
0100
1000
0010
,
0000
0100
0001
0100
0001
1000
0100
1000
,
0001
0100
0001
1000
0000
0010
0100
0001
,
0000
1000
0100
1000
0001
0100
0001
0010
,
0100
1000
0010
1000
0000
0001
0100
0010
,
0000
0100
0010
1000
0100
0010
0001
0100
,
0002
0000
0000
0000
0000
0000
0000
0000
0000
0000
0000
0000
1000
0000
0000
0000
0000
0000
0000
0000
0000
0000
0000
0000
1003
0000
0000
0000
0000
0000
0000
0100
0000
0000
0000
0000
0000
0000
0000
0000
0000
0000
0020
0000
0000
0000
0000
0000
,
0000
0000
0001
0000
0031
0100
0010
1000
,
0200
0000
0010
0000
1000
0000
0010
0300
,
0010
0001
0010
0001
0100
0010
1000
0100
,
2000
0000
0010
3000
0001
0100
0010
1000
,
0002
0000
0100
0003
0101
0000
0011
0000
,
1020
0000
1000
0030
1000
0001
0010
0100
,
2100
0000
0010
3000
1010
0000
1100
0000
,
0102
0000
1000
0003
0001
0100
0010
1000
,
1200
0000
0010
0000
0001
0000
0010
0300
,
1000
0001
1000
0001
0100
0010
1000
0000
,
0001
0100
0001
0100
0010
1000
0100
0000
,
1000
0010
1000
0010
0100
0001
0010
0000
,
0100
1000
0100
1000
0010
0100
0001
0000
,
0001
1000
0001
1000
0010
0100
0010
0100
,
0001
1000
0010
0100
0001
0010
0100
1000
,
0010
1000
0010
1000
0001
0100
0001
0100
,
0001
0010
0100
1000
0010
0100
0001
1000
,
0001
0000
1000
0001
0000
0100
0020
0000
,
0000
0100
0100
0130
,
0110
0000
0001
1000
0000
0010
0200
0000
,
0000
0010
0010
0310
,
0100
0001
0100
0001
0010
0100
0010
0100
,
1000
0100
1000
0100
0010
0001
0010
0001
,
0100
0001
0010
0100
1000
0100
0010
0001
,
0100
0010
1000
0001
1000
0010
0100
0001
,
1001
0000
0100
0001
0000
1000
0200
0000
,
0000
1000
1000
1300
,
1100
0000
1000
0010
0000
0100
0002
0000
,
0000
0010
0010
0013
,
0001
0100
0001
0100
0010
1000
0010
1000
,
0100
0010
0100
0010
0001
0100
0001
0100
,
0010
1000
0100
0010
0001
0010
0100
1000
,
0001
0100
0001
0010
0100
1000
0001
0100
;

//---------------dance-single - Copied from Copied f----------------
#NOTES:
     dance-single:
     Copied from Copied f:
     Challenge:
     13:
     1.000,1.000,1.000,0.995,0.455:
0020
0031
0100
0020
1030
0100
0020
0031
,
0020
0031
0100
0020
1030
0100
0020
0031
,
0020
0031
0100
0020
1030
0100
0020
0031
,
0020
0031
1000
0010
1010
1010
1001
1001
,
0001
0100
0010
2010
0000
3100
0010
0012
,
0000
0013
0001
0100
0100
0010
0010
1000
,
1020
0000
1030
0000
0100
0000
0011
0000
0001
1000
0001
1000
0001
0000
1000
0000
,
1010
0000
0010
0000
1000
0000
0100
0000
0010
0001
0010
0001
0010
0000
0001
0000
,
0011
0001
0100
0120
0000
1030
0100
0012
,
0000
0013
0001
1000
1000
0010
0010
0100
,
0101
0000
0001
0000
0010
0000
1100
0000
1000
0001
1000
0001
1000
0000
0001
0000
,
0010
0001
0010
0001
0010
0000
0001
0000
1000
0000
0010
0000
1000
0000
0100
0000
,
0021
0001
0001
0001
0031
0100
0010
1000
,
1002
1000
1000
1000
1003
0001
1000
0100
,
0021
0001
0001
0001
0031
0100
0010
1000
,
0002
0203
2300
3200
0302
0023
2030
3020
,
0032
0100
0100
0100
0103
0001
1000
0100
,
1100
1000
0001
0100
0101
0000
1001
0000
,
1020
1000
1000
1000
1030
0010
0100
0001
,
1001
0001
0010
0100
1100
0000
0101
0000
,
0021
0000
0001
0000
0001
0000
0001
0000
0031
0100
0001
0100
0001
0000
1000
0000
,
0010
1000
0010
1000
0010
0000
1000
0000
0001
0000
1000
0000
1001
0000
0000
0000
,
1000
0010
0100
0102
0000
0013
0100
2100
,
0000
3100
1000
0010
0010
0100
0100
0001
,
0201
0000
0301
0000
0010
0000
1100
0000
1000
0001
1000
0001
1000
0000
0001
0000
,
0101
0000
0100
0000
0001
0000
0010
0000
0100
1000
0100
1000
0100
0000
1000
0000
,
1100
1000
0010
0210
0000
0301
0010
2100
,
0000
3100
1000
0001
0001
0100
0100
0010
,
1010
0000
1000
0000
0100
0000
0011
0000
0001
1000
0001
1000
0001
0000
1000
0000
,
0010
1000
0010
1000
0010
0000
1000
0000
0001
0000
0100
0000
0001
0000
0010
0000
,
1200
1000
1000
1000
1300
0010
0100
0001
,
2001
0001
0001
0001
3001
1000
0001
0010
,
1200
1000
1000
1000
1300
0010
0100
0001
,
2000
3020
0032
0023
2030
3200
0302
0203
,
2300
0010
0010
0010
3010
1000
0001
0100
,
0101
0001
1000
0010
1010
0000
1001
0000
,
0201
0001
0001
0001
0301
0100
0010
1000
,
1001
1000
0100
0010
0011
0000
1010
0000
,
1200
0000
1000
0000
1000
0000
1000
0000
1300
0010
1000
0010
1000
0000
0001
0000
,
0100
0001
0100
0001
0100
0000
0001
0000
1000
0000
0010
0000
0110
0000
0000
0000
,
1020
0030
0000
0000
0000
0000
1000
0000
0000
0000
0000
0000
0100
0000
0000
0000
0000
0000
0010
0000
0000
0000
0000
0000
0001
0000
0000
0000
0000
0000
0100
0000
0000
0000
0000
0000
0001
0000
0000
0000
0000
0000
0010
0000
0000
0000
0000
0000
,
0021
0030
0000
0000
0000
0000
0001
0000
0000
0000
0000
0000
0100
0000
0000
0000
0000
0000
0010
0000
0000
0000
0000
0000
1000
0000
0000
0000
0000
0000
0100
0000
0000
0000
0000
0000
0010
0000
0000
0000
0000
0000
0001
0000
0000
0000
0000
0000
,
1002
0003
0000
0000
0000
0000
1000
0000
0000
0000
0000
0000
0010
0000
0000
0000
0000
0000
0100
0000
0000
0000
0000
0000
0001
0000
0000
0000
0000
0000
0010
0000
0000
0000
0000
0000
0100
0000
0000
0000
0000
0000
1000
0000
0000
0000
0000
0000
,
1002
0003
0000
0000
0000
0000
1000
0000
0000
0000
0000
0000
0010
0000
0000
0000
0000
0000
0100
0000
0000
0000
0000
0000
0001
0000
0000
0000
0000
0000
0010
0000
0000
0000
0000
0000
0100
0000
0000
0000
0000
0000
1000
0000
0000
0000
0000
0000
,
2010
3000
0000
0000
0000
0000
0010
0000
0000
0000
0000
0000
0100
0000
0000
0000
0000
0000
0001
0000
0000
0000
0000
0000
0010
0000
0000
0000
0000
0000
0100
0000
0000
0000
0000
0000
0010
0000
0000
0000
0000
0000
0001
0000
0000
0000
0000
0000
,
0012
0003
0000
0000
0000
0000
0010
0000
0000
0000
0000
0000
0100
0000
0000
0000
0000
0000
1000
0000
0000
0000
0000
0000
0010
0000
0000
0000
0000
0000
0100
0000
0000
0000
0000
0000
0001
0000
0000
0000
0000
0000
1000
0000
0000
0000
0000
0000
,
2001
3000
0000
0000
0000
0000
0001
0000
0000
0000
0000
0000
0100
0000
0000
0000
0000
0000
0010
0000
0000
0000
0000
0000
1000
0000
0000
0000
0000
0000
0100
0000
0000
0000
0000
0000
0010
0000
0000
0000
0000
0000
0001
0000
0000
0000
0000
0000
,
1000
0010
1000
0010
0100
0001
0100
0001
0010
0100
1000
0100
0010
0001
1000
0001
,
1000
0010
0100
0110
0010
1000
2001
0000
,
0000
0001
0001
0100
0100
3001
1000
0000
,
1001
0001
0010
0110
0100
1000
1002
0000
,
0000
1000
1000
0100
0100
1003
0001
0000
,
1000
0000
0010
0000
1000
0000
0100
0000
0010
0001
0010
0001
0010
0000
0001
0000
,
1000
0001
1000
0001
1000
0000
0010
0000
0100
0000
0001
0000
0010
0000
0100
0000
,
1000
0000
0001
0000
1000
0000
0010
0000
0100
0001
0100
0001
0100
0000
0001
0000
,
1000
0001
1000
0001
1000
0000
0010
0000
0100
0000
0001
0000
0010
0000
0100
0000
,
1000
0010
0100
0110
0010
1000
2001
0000
,
0000
0100
0100
0001
0001
3100
1000
0000
,
1001
0001
0010
0110
0100
1000
1002
0000
,
0000
0010
0010
1000
1000
0013
0001
0000
,
1000
0000
0010
0000
1000
0000
0100
0000
0010
0001
0010
0001
0010
0000
0001
0000
,
1000
0001
1000
0001
1000
0000
0010
0000
0100
0000
0001
0000
0010
0000
0100
0000
,
1000
0000
0001
0000
1000
0000
0010
0000
0100
0001
0100
0001
0100
0000
0001
0000
,
1000
0001
1000
0001
0100
0001
0100
0001
0010
0100
1000
0100
0010
0001
1000
0010
,
0200
0310
1000
0200
0310
0001
0200
0310
,
0200
0301
0010
0200
1300
0010
0200
0301
,
0200
0310
1000
0200
0310
0001
0200
0310
,
0200
0301
1000
0100
1100
1100
1001
1001
,
1000
0010
0100
0102
0000
0013
0100
2100
,
0000
3100
1000
0010
0010
0100
0100
0001
,
0201
0000
0301
0000
0010
0000
1100
0000
1000
0001
1000
0001
1000
0000
0001
0000
,
0101
0000
0100
0000
0001
0000
0010
0000
0100
1000
0100
1000
0100
0000
1000
0000
,
1100
1000
0010
0210
0000
0301
0010
2100
,
0000
3100
1000
0001
0001
0100
0100
0010
,
1010
0000
1000
0000
0100
0000
0011
0000
0001
1000
0001
1000
0001
0000
1000
0000
,
0100
1000
0100
1000
0100
0000
1000
0000
0001
0000
0100
0000
0001
0000
0010
0000
,
1200
1000
1000
1000
1300
0010
0100
0001
,
2001
0001
0001
0001
3001
1000
0001
0010
,
1200
1000
1000
1000
1300
0010
0100
0001
,
2000
3020
0032
0023
2030
3200
0302
0203
,
2300
0010
0010
0010
3010
1000
0100
0010
,
0011
0001
0100
0010
1010
0000
1001
0000
,
0201
0001
0001
0001
0301
0100
0010
1000
,
1001
1000
0100
0010
0011
0000
1010
0000
,
1200
0000
1000
0000
1000
0000
1000
0000
1300
0010
1000
0010
1000
0000
0001
0000
,
0100
0001
0100
0001
0100
0000
0001
0000
1000
0000
0001
0000
1001
0000
0000
0000
,
0001
0100
0010
2010
0000
3100
0010
0012
,
0000
0013
0001
0100
0100
0010
0010
1000
,
1020
0000
1030
0000
0100
0000
0011
0000
0001
1000
0001
1000
0001
0000
1000
0000
,
1010
0000
0010
0000
1000
0000
0100
0000
0010
0001
0010
0001
0010
0000
0001
0000
,
0011
0001
0100
0120
0000
1030
0100
0012
,
0000
0013
0001
1000
1000
0010
0010
0100
,
0101
0000
0001
0000
0010
0000
1100
0000
1000
0001
1000
0001
1000
0000
0001
0000
,
0010
0001
0010
0001
0010
0000
0001
0000
1000
0000
0010
0000
1000
0000
0100
0000
,
0021
0001
0001
0001
0031
0100
0010
1000
,
1002
1000
1000
1000
1003
0001
1000
0100
,
0021
0001
0001
0001
0031
0100
0010
1000
,
0002
0203
2300
3200
0302
0023
2030
3020
,
0032
0100
0100
0100
0103
0001
1000
0010
,
1010
1000
0001
0100
0101
0000
1001
0000
,
1020
1000
1000
1000
1030
0010
0100
0001
,
1001
0001
0010
0100
1100
0000
0101
0000
,
0021
0000
0001
0000
0001
0000
0001
0000
0031
0100
0001
0100
0001
0000
1000
0000
,
0010
1000
0010
1000
0010
0000
1000
0000
0001
0000
0100
0000
0110
0000
0000
0000
,
0201
0300
0000
0000
0000
0000
0001
0000
0000
0000
0000
0000
0010
0000
0000
0000
0000
0000
0100
0000
0000
0000
0000
0000
1000
0000
0000
0000
0000
0000
0010
0000
0000
0000
0000
0000
1000
0000
0000
0000
0000
0000
0100
0000
0000
0000
0000
0000
,
1200
0300
0000
0000
0000
0000
1000
0000
0000
0000
0000
0000
0010
0000
0000
0000
0000
0000
0100
0000
0000
0000
0000
0000
0001
0000
0000
0000
0000
0000
0010
0000
0000
0000
0000
0000
0100
0000
0000
0000
0000
0000
1000
0000
0000
0000
0000
0000
,
2001
3000
0000
0000
0000
0000
0001
0000
0000
0000
0000
0000
0100
0000
0000
0000
0000
0000
0010
0000
0000
0000
0000
0000
1000
0000
0000
0000
0000
0000
0100
0000
0000
0000
0000
0000
0010
0000
0000
0000
0000
0000
0001
0000
0000
0000
0000
0000
,
2001
3000
0000
0000
0000
0000
0001
0000
0000
0000
0000
0000
0100
0000
0000
0000
0000
0000
0010
0000
0000
0000
0000
0000
1000
0000
0000
0000
0000
0000
0100
0000
0000
0000
0000
0000
0010
0000
0000
0000
0000
0000
0001
0000
0000
0000
0000
0000
,
0102
0003
0000
0000
0000
0000
0100
0000
0000
0000
0000
0000
0010
0000
0000
0000
0000
0000
1000
0000
0000
0000
0000
0000
0100
0000
0000
0000
0000
0000
0010
0000
0000
0000
0000
0000
0100
0000
0000
0000
0000
0000
1000
0000
0000
0000
0000
0000
,
2100
3000
0000
0000
0000
0000
0100
0000
0000
0000
0000
0000
0010
0000
0000
0000
0000
0000
0001
0000
0000
0000
0000
0000
0100
0000
0000
0000
0000
0000
0010
0000
0000
0000
0000
0000
1000
0000
0000
0000
0000
0000
0001
0000
0000
0000
0000
0000
,
1002
0003
0000
0000
0000
0000
1000
0000
0000
0000
0000
0000
0010
0000
0000
0000
0000
0000
0100
0000
0000
0000
0000
0000
0001
0000
0000
0000
0000
0000
0010
0000
0000
0000
0000
0000
0100
0000
0000
0000
0000
0000
1000
0000
0000
0000
0000
0000
,
0001
0100
0001
0100
0010
1000
0010
1000
0100
0010
0001
0010
0100
1000
0001
1000
,
0001
0100
0010
0110
0100
0001
1002
0000
,
0000
1000
1000
0010
0010
1003
0001
0000
,
1001
1000
0100
0110
0010
0001
2001
0000
,
0000
0001
0001
0010
0010
3001
1000
0000
,
0001
0000
0100
0000
0001
0000
0010
0000
0100
1000
0100
1000
0100
0000
1000
0000
,
0001
1000
0001
1000
0001
0000
0100
0000
0010
0000
1000
0000
0100
0000
0010
0000
,
0001
0000
1000
0000
0001
0000
0100
0000
0010
1000
0010
1000
0010
0000
1000
0000
,
0001
1000
0001
1000
0001
0000
0100
0000
0010
0000
1000
0000
0100
0000
0010
0000
,
0001
0100
0010
0110
0100
0001
1002
0000
,
0000
0010
0010
1000
1000
0013
0001
0000
,
1001
1000
0100
0110
0010
0001
2001
0000
,
0000
0100
0100
0001
0001
3100
1000
0000
,
0001
0000
0100
0000
0001
0000
0010
0000
0100
1000
0100
1000
0100
0000
1000
0000
,
0001
1000
0001
1000
0001
0000
0100
0000
0010
0000
1000
0000
0100
0000
0010
0000
,
0001
0000
1000
0000
0001
0000
0100
0000
0010
1000
0010
1000
0010
0000
1000
0000
,
0001
1000
0001
1000
0010
0100
0001
0010
0100
1000
0100
1000
0010
0100
0001
1000
,
0001
0000
0000
0000
;

//---------------dance-single - Copied from----------------
#NOTES:
     dance-single:
     Copied from:
     Beginner:
     2:
     0.270,0.322,0.202,0.303,0.000:
0000
0000
0000
0000
,
0000
0000
0000
0000
,
0000
0000
0000
0000
,
0000
0000
0000
0000
,
1000
0000
1000
0000
,
1000
0000
0000
0000
,
0001
0000
0001
0000
,
0100
0000
0100
0000
,
0010
0000
0010
0000
,
0010
0000
0000
0000
,
1000
0000
1000
0000
,
0001
0000
0001
0000
,
0002
0003
0000
0000
,
2000
3000
0000
0000
,
0002
0003
0000
0000
,
1000
0000
1000
0000
,
2000
3000
0000
0000
,
0002
0003
0000
0000
,
2000
3000
0000
0000
,
0002
0003
0000
0000
,
0200
0300
0000
0000
,
0020
0030
0000
0000
,
1000
0000
1000
0000
,
1000
0000
0000
0000
,
0001
0000
0001
0000
,
0001
0000
0001
0000
,
0100
0000
0100
0000
,
0100
0000
0000
0000
,
0010
0000
0010
0000
,
0010
0000
0010
0000
,
0200
0300
0000
0000
,
0020
0030
0000
0000
,
0200
0300
0000
0000
,
0010
0000
0010
0000
,
0020
0030
0000
0000
,
0200
0300
0000
0000
,
0020
0030
0000
0000
,
0200
0300
0000
0000
,
0002
0003
0000
0000
,
2000
3000
0000
0000
,
1001
0000
0000
0000
,
1001
0000
0000
0000
,
1010
0000
0000
0000
,
1010
0000
0000
0000
,
1001
0000
0000
0000
,
1001
0000
0000
0000
,
0011
0000
0000
0000
,
0011
0000
0000
0000
,
0001
0000
0000
1001
,
0000
0000
0000
0000
,
1000
0000
0000
1001
,
0000
0000
0000
0000
,
0001
0000
0001
0000
,
0001
0000
0001
0000
,
1000
0000
1000
0000
,
1000
0000
1000
0000
,
0010
0000
0000
0110
,
0000
0000
0000
0000
,
0100
0000
0000
0110
,
0000
0000
0000
0000
,
0010
0000
0010
0000
,
0010
0000
0010
0000
,
0100
0000
0100
0000
,
0100
0000
0100
0000
,
0000
0000
0000
0000
,
0000
0000
0000
0000
,
0000
0000
0000
0000
,
0000
0000
0000
0000
,
0001
0000
0001
0000
,
0001
0000
0000
0000
,
1000
0000
1000
0000
,
0010
0000
0010
0000
,
0100
0000
0100
0000
,
0100
0000
0000
0000
,
0001
0000
0001
0000
,
1000
0000
1000
0000
,
2000
3000
0000
0000
,
0002
0003
0000
0000
,
2000
3000
0000
0000
,
0001
0000
0001
0000
,
0002
0003
0000
0000
,
2000
3000
0000
0000
,
0002
0003
0000
0000
,
2000
3000
0000
0000
,
0020
0030
0000
0000
,
0200
0300
0000
0000
,
0001
0000
0001
0000
,
0001
0000
0000
0000
,
1000
0000
1000
0000
,
1000
0000
1000
0000
,
0010
0000
0010
0000
,
0010
0000
0000
0000
,
0100
0000
0100
0000
,
0100
0000
0100
0000
,
0020
0030
0000
0000
,
0200
0300
0000
0000
,
0020
0030
0000
0000
,
0100
0000
0100
0000
,
0200
0300
0000
0000
,
0020
0030
0000
0000
,
0200
0300
0000
0000
,
0020
0030
0000
0000
,
2000
3000
0000
0000
,
0002
0003
0000
0000
,
1001
0000
0000
0000
,
1001
0000
0000
0000
,
0011
0000
0000
0000
,
0011
0000
0000
0000
,
1001
0000
0000
0000
,
1001
0000
0000
0000
,
1010
0000
0000
0000
,
1010
0000
0000
0000
,
1000
0000
0000
1001
,
0000
0000
0000
0000
,
0001
0000
0000
1001
,
0000
0000
0000
0000
,
1000
0000
1000
0000
,
1000
0000
1000
0000
,
0001
0000
0001
0000
,
0001
0000
0001
0000
,
0100
0000
0000
0110
,
0000
0000
0000
0000
,
0010
0000
0000
0110
,
0000
0000
0000
0000
,
0100
0000
0100
0000
,
0100
0000
0100
0000
,
0010
0000
0010
0000
,
0010
0000
0010
0000
;
