#TITLE:Sword of Valiant;
#SUBTITLE:;
#ARTIST:SYNC.ART;
#TITLETRANSLIT:;
#SUBTITLETRANSLIT:;
#ARTISTTRANSLIT:;
#CREDIT:;
#BANNER:Sword of Valiant.png;
#BACKGROUND:Sword of Valiant-bg.png;
#LYRICSPATH:;
#CDTITLE:XeniSys 87 Logo.png;
#MUSIC:Sword of Valiant.mp3;
#OFFSET:-0.060;
#SAMPLESTART:70.500;
#SAMPLELENGTH:17.080;
#SELECTABLE:YES;
#BPMS:0.000=170.000;
#STOPS:;
#BGCHANGES:;

//---------------dance-single - ----------------
#NOTES:
     dance-single:
     :
     Beginner:
     2:
     0.170,0.279,0.018,0.092,0.000:
0000
0000
0000
0000
,
1000
0000
0000
0000
,
0001
0000
0000
0000
,
1000
0000
0000
0000
,
0001
0000
0000
0000
,
0100
0000
0000
0000
,
0010
0000
0000
0000
,
0100
0000
0000
0000
,
0010
0000
0000
0000
,
1000
0000
0000
0000
,
0100
0000
0000
0000
,
0010
0000
0000
0000
,
0001
0000
0000
0000
,
0100
0000
0000
0000
,
0010
0000
0000
0000
,
1000
0000
0000
0000
,
0001
0000
0000
0000
,
1001
0000
0000
0000
,
1000
0000
1000
0000
,
0001
0000
0001
0000
,
1000
0000
1000
0000
,
0001
0000
0000
0000
,
0100
0000
0100
0000
,
0010
0000
0010
0000
,
0100
0000
0100
0000
,
0010
0000
0000
0000
,
1000
0000
1000
0000
,
0100
0000
0100
0000
,
1000
0000
0100
0000
,
1000
0000
0000
0000
,
0001
0000
0001
0000
,
0010
0000
0010
0000
,
0001
0000
0010
0000
,
0001
0000
0000
0000
,
1000
0000
1000
0000
,
0100
0000
0100
0000
,
0010
0000
0010
0000
,
0001
0000
0001
0000
,
0100
0000
0100
0000
,
0010
0000
0010
0000
,
1000
0000
1000
0000
,
1001
0000
0000
0000
,
2000
0000
0000
0000
,
3001
0000
0001
0000
,
0100
0000
0100
0000
,
0100
0000
0000
0001
,
0002
0000
0000
0000
,
1003
0000
1000
0000
,
0010
0000
0010
0000
,
0100
0000
0000
0000
,
0020
0000
0000
0000
,
1030
0000
1000
0000
,
0010
0000
1000
0000
,
0001
0000
0100
0000
,
0200
0000
0000
0310
,
0100
0100
0100
0100
,
0100
0000
0000
0000
,
0001
0000
0000
0000
,
2000
0000
0000
0000
,
3100
0000
0100
0000
,
1000
0000
0001
0000
,
0010
0000
0000
0001
,
0002
0000
0000
0000
,
0103
0000
0100
0000
,
0001
0000
1000
0000
,
0010
0000
0000
1000
,
2000
0000
0000
0000
,
3100
0000
0100
0000
,
1000
0000
0001
0000
,
0010
0000
0010
0001
,
0002
0000
0000
1000
,
2003
0000
0100
0000
3100
0000
0000
1000
,
0000
0000
0000
0000
,
0001
0000
0000
0000
,
2000
0000
0000
0000
,
0000
0000
0000
0000
,
3000
0000
0000
0000
;

//---------------dance-single - Copied from----------------
#NOTES:
     dance-single:
     Copied from:
     Easy:
     5:
     0.471,0.522,0.669,0.247,0.000:
0000
0000
0000
0000
,
1000
0100
0001
0100
,
1000
0100
0001
0100
,
0010
0001
1000
0001
,
0010
0001
1000
0001
,
0100
0010
1000
0010
,
0100
0010
1000
0010
,
1000
0001
0100
0001
,
1000
0001
0100
0001
,
0010
0100
0001
1000
,
0010
0100
0001
1000
,
0100
1000
0010
1000
,
0100
1000
0010
1000
,
0011
0001
1000
0010
,
0011
0001
1000
0010
,
1010
1000
0001
0100
,
1010
0001
0100
0010
,
2002
0000
0000
3003
,
0010
1000
0100
1000
,
0001
0100
0001
0010
,
0011
0001
1000
1100
,
1001
0000
0000
0000
,
0100
0001
0010
0001
,
0100
0001
0010
0001
,
1010
1000
0001
0011
,
1001
0000
0000
0000
,
0001
1000
0010
1000
,
0001
1000
0010
1000
,
0011
0001
0010
1010
,
1100
0000
0000
0000
,
1000
0001
0010
0001
,
1000
0001
0010
0001
,
1100
1000
0100
0101
,
0011
0000
0000
0000
,
2000
0100
0001
0100
,
3002
0010
1000
0010
,
0203
1000
0001
1000
,
0320
0100
0001
0100
,
2030
3001
0020
0130
,
0110
0000
0010
0100
,
2002
0000
0000
3003
,
0010
0000
0000
1001
0000
0000
0000
0000
,
1000
1100
0001
0101
,
1000
1100
0001
0101
,
0010
1100
0010
0101
,
0010
1100
0010
0101
,
1001
1100
0100
0011
,
0100
1010
0100
0011
,
1010
1000
0001
0101
,
1100
0000
0000
0000
,
0001
0011
1000
1010
,
0001
0011
1000
1010
,
0100
0011
0100
1010
,
0100
0011
0100
1010
,
1100
0010
1000
0001
,
0011
0000
1010
0000
1000
0001
0000
1002
,
0000
0000
0000
0000
0000
0000
0000
0003
,
0200
0010
0010
0310
,
1002
0100
1000
0103
,
2100
0100
0001
3100
,
0102
1000
0100
1003
,
2100
0100
3001
1100
,
0012
0010
1000
0013
,
2010
0010
0001
3010
,
1010
0100
0011
1010
,
2001
0000
3000
0000
,
0021
0100
1000
0130
,
1020
0001
0100
0031
,
1200
0001
0010
0301
,
0201
1000
0010
1300
,
0101
0001
1100
1000
,
1010
0000
1001
0000
0001
1000
0000
2002
,
0000
0000
0000
0000
0000
3003
0000
0000
,
1100
0101
0011
1010
,
2002
0000
0000
0000
,
0000
0000
0000
0000
,
3003
0000
0000
0000
;

//---------------dance-single - Copied from Copied f----------------
#NOTES:
     dance-single:
     Copied from Copied f:
     Medium:
     7:
     0.551,0.766,0.302,0.312,0.115:
0000
0000
0000
0000
,
0001
0100
1000
0100
,
0001
0010
1000
0010
,
0001
0100
1000
0100
,
0001
0010
1000
0010
,
0001
0000
0000
0010
0000
0000
0001
0000
0100
0000
0000
0010
0000
0000
1000
0000
,
0100
0000
0000
1000
0000
0000
0010
0000
0100
0000
0000
0001
0000
0000
0010
0000
,
0001
0000
0000
1000
0000
0000
0100
0000
1000
0000
0000
0001
0000
0000
0100
0000
,
0010
0000
0000
1000
0000
0000
0100
0000
1000
0000
0000
0010
0000
0000
0100
0000
,
0001
0000
0000
0010
0000
0000
0001
0000
0100
0000
0000
0010
0000
0000
1000
0000
,
0100
0000
0000
1000
0000
0000
0010
0000
0100
0000
0000
0001
0000
0000
0010
0000
,
0011
0000
0000
0001
0000
0000
0100
0000
0110
0000
0000
0010
0000
0000
1000
0000
,
1100
0000
0000
0001
0000
0000
0100
0000
0101
0000
0000
0001
0000
0000
1000
0000
,
1100
0000
0000
1000
0000
0000
0010
0000
0110
0000
0000
0100
0000
0000
0001
0000
,
0011
0000
0000
0001
0000
0000
0100
0000
0110
0000
0000
0010
0000
0000
1000
0000
,
1001
0000
0000
1001
0000
0000
0110
0000
1001
0000
0000
1001
0000
0000
0110
0000
,
1010
0000
0000
0101
0000
0000
0101
0000
1100
0000
0000
0011
0000
0000
0101
0000
,
2002
0000
0000
3003
,
1000
0100
1000
0000
0001
0100
0001
0000
,
1000
0100
1000
0100
0010
0001
0010
0000
,
0001
0010
0001
0010
0100
0000
1000
0010
,
0000
0000
0000
0000
,
0001
0010
0001
0000
1000
0010
1000
0000
,
0001
0010
0001
0010
0100
1000
0010
0000
,
1000
0100
1000
0100
0010
0000
0001
0100
,
0000
0000
0000
0000
,
0100
1000
0100
0000
0100
0001
0100
0000
,
0010
0001
0010
0000
0010
1000
0010
0000
,
0100
1000
0100
0010
0001
0000
0100
0010
,
0000
0000
0000
0000
,
0010
0001
0010
0000
0010
1000
0010
0000
,
0100
0001
0100
0000
0100
1000
0100
0000
,
0010
0001
0010
0100
1000
0000
0010
0100
,
0000
0000
0000
0000
,
0002
0010
0100
1000
,
2003
0100
0010
0001
,
3020
0100
1000
0001
,
0230
0010
0001
1000
,
0320
1000
0100
0001
,
0230
0000
1000
0310
,
1001
0000
0000
0000
,
1001
0000
0000
0110
0000
0000
1001
0000
0000
0000
0000
0000
0000
0000
0000
0000
,
2000
0000
0100
0000
3001
0000
0100
1000
,
0020
0000
0130
0000
0001
0010
0100
1000
,
0020
0130
2000
3001
,
0020
0130
0001
0101
,
1002
0000
0010
0000
1003
0000
0010
0001
,
0100
0010
1000
0100
,
0001
0010
0100
1000
0000
0010
0100
0000
,
0220
0000
0000
0000
0000
0000
0000
0330
,
2000
0010
0001
3010
,
0002
0103
0200
0310
,
0020
1030
2000
3100
,
0200
0010
0301
0100
0010
0000
1000
0100
,
0010
0000
0001
0010
0000
0100
1000
0000
,
0010
0000
0100
0000
0001
1000
0000
2002
,
0000
0000
0000
0000
0000
0000
0000
0003
,
0010
0000
0001
0000
0010
0000
0100
3000
,
0001
0010
0001
0000
1000
0010
1000
0000
,
0001
0010
0001
0000
1000
0010
1000
0010
,
0200
0301
0020
0130
,
2000
3010
0100
0101
,
1001
1000
0010
0000
0001
0010
0001
0000
,
1000
0100
1000
0000
0001
0100
0001
0000
,
1000
0010
0100
0001
0000
0001
0100
0010
,
2000
0010
0001
3100
,
0001
0100
0010
0000
1000
0010
0100
0000
,
0001
1000
0100
0000
1000
0001
0100
0000
,
0010
0001
0100
0000
0010
1000
0100
0000
,
0010
0001
0100
0010
1000
0000
0010
0100
,
0001
0000
1000
0100
0000
0100
1000
0000
,
0001
0000
0100
0000
0010
1000
0000
1002
,
0000
1003
0200
0000
0310
0001
0200
0000
,
0310
1000
0002
0000
1003
0001
0100
0010
,
2002
0000
0000
0000
,
0000
0000
0000
0000
,
3003
0000
0000
0000
;

//---------------dance-single - Copied from Copied f----------------
#NOTES:
     dance-single:
     Copied from Copied f:
     Hard:
     9:
     0.822,0.766,0.211,0.192,0.449:
0000
0000
0000
0000
,
1000
0100
0010
0001
0100
0010
1000
0001
,
0010
0100
1000
0010
0100
0001
1000
0010
,
0100
0001
0100
0010
1000
0001
0010
0001
,
1000
0100
1000
0010
0100
0001
0010
0001
,
0100
1000
0100
0001
0100
1000
0100
0001
,
0010
0100
0010
0001
0010
0100
0010
0001
,
0100
0010
0100
1000
0100
0010
0100
0001
,
0010
1000
0010
0100
0010
1000
0010
0100
,
1000
0000
0001
0100
0000
0100
0001
0000
1000
0000
0010
0100
0000
0100
0010
0000
,
0100
0000
0001
0010
0000
0010
0001
0000
0010
0000
0001
1000
0000
1000
0001
0000
,
1000
0000
0010
0100
0000
0100
0001
0000
0010
0000
0001
0100
0000
0100
0010
0000
,
1000
0000
0100
1000
0000
1000
0010
0000
0100
0000
0001
0100
0000
0100
0010
0000
,
1000
0000
0010
0100
0000
0001
0010
0000
0001
0000
0100
0010
0000
1000
0100
0000
,
1000
0000
0010
1000
0000
0001
0010
0000
0001
0000
0100
0001
0000
1000
0100
0000
,
0010
0000
0001
0100
0000
0010
0100
0000
0010
0000
1000
0010
0000
0100
0010
0000
,
1000
0000
0001
0010
0000
0001
0100
0000
0001
0000
1000
0010
0000
1000
0100
0000
,
1001
0000
0000
0000
0000
0000
0000
0000
0000
0000
0000
0000
1000
0001
1000
0001
,
1000
0010
0100
0001
0010
0100
1100
0000
,
1001
0000
0100
0010
0000
0010
0100
0000
,
0001
0010
0100
1000
1010
0000
1000
0001
,
1000
0001
1000
0000
0010
0100
0010
0000
1000
0001
1000
0000
0010
0100
0010
0000
,
1000
0010
0100
0001
0010
0100
1000
0000
,
1001
0000
0100
0010
0000
0010
0100
0000
,
0010
1000
0100
0010
0011
0000
0001
1000
,
0001
1000
0001
0000
0100
0010
0100
0000
0001
1000
0001
0000
0100
0010
0100
0000
,
0010
1000
0100
0010
0001
0100
1000
0000
,
0110
0000
1000
0001
0000
0010
0100
0000
,
0010
0001
0100
1000
0100
0000
0010
1000
,
0100
0010
0100
0000
0010
0001
0010
0000
0001
1000
0001
0000
1000
0100
1000
0000
,
0100
0010
0001
1000
0010
0100
1000
0000
,
0110
0000
0001
1000
0000
0100
0010
0000
,
0100
0001
0100
1000
0010
0000
0100
0010
,
0000
0100
0010
1000
0100
0010
0001
0100
,
0020
1000
1030
0000
0200
0010
0310
0000
,
0002
0000
0100
0000
0103
0000
0000
0010
2000
0000
0100
0000
3100
0000
0000
0000
,
0020
0001
0031
0000
2000
0010
3010
0000
,
0200
0000
0010
0000
0310
0000
0000
1000
0002
0000
0010
0000
0013
0000
0000
0000
,
2000
0000
0010
0000
3001
0000
0000
1000
0002
0000
0010
0000
1003
0000
0000
0000
,
2000
0000
0010
0000
3100
0000
0000
1000
0002
0000
0100
0000
0013
0000
2000
0000
,
0020
0000
0000
0000
0000
0000
0000
3030
,
1001
0000
0000
1001
0000
0000
0110
0000
0000
0000
0000
0000
0000
0000
0000
0000
,
1000
0000
0100
0000
0010
0000
0001
0000
0100
0000
0010
0000
1000
0001
1000
0000
,
0001
0000
0100
0000
0010
0000
1000
0000
0001
0000
0100
0000
0010
0100
0010
0000
,
1000
0000
0001
1000
0001
0000
0100
0000
0010
0000
1000
0001
1000
0000
0010
0000
,
0100
0000
0001
1000
0001
0000
0100
0000
0010
0000
1000
0000
0001
1000
0001
1000
,
0001
0100
0010
1000
0100
0010
0001
0100
,
0020
1000
0001
0130
,
0010
1000
0000
0100
1000
0000
0010
0100
0000
0001
0010
0000
0001
0000
1000
0000
,
0020
0000
0100
0000
0100
0000
0130
0000
0010
1000
0000
0010
0100
0000
0001
0010
,
0001
0000
0010
0000
0100
0000
1000
0000
0010
0000
0100
0000
0001
1000
0001
0000
,
0100
0000
0010
0000
1000
0000
0001
0000
0100
0000
0010
0000
1000
0001
1000
0000
,
0010
0100
0010
0000
1000
0000
0001
0000
0100
0010
0100
0000
0001
0000
1000
0000
,
0010
0100
0001
0100
0010
0000
1000
0001
,
1001
0000
0010
0100
0000
0100
0010
0000
,
1010
0000
0011
0000
0101
1000
0000
1100
,
0000
0000
1000
0000
0200
0000
0000
0010
0301
0000
0100
0000
0020
0000
0000
1000
,
0130
0000
1000
0000
0002
0000
0000
0100
0013
0000
1000
0000
0010
0100
0010
0100
,
0001
0010
0100
1000
0010
0100
0001
0010
,
0100
1000
0010
1000
0100
0010
0001
0100
,
0001
1000
0001
0000
0100
0000
0010
0000
1000
0100
1000
0000
0001
0000
0100
0000
,
0001
0010
0001
0000
1000
0000
0100
0000
0010
0000
0001
0000
0100
0010
0100
0010
,
1000
0010
0100
0001
0010
0100
1000
0001
,
1000
0100
0010
0001
0100
0001
1000
0010
,
0100
0010
0000
1000
0001
0000
0010
0100
0000
0001
1000
0000
0010
0000
0100
0000
,
0002
0000
1000
0000
1000
0000
1003
0000
0010
0100
0000
0001
0010
0000
0001
1000
,
0001
0000
0010
0000
0100
0000
1000
0000
0010
0000
0100
0000
0001
0010
0001
0000
,
1000
0000
0100
0000
0010
0000
0001
0000
0100
0000
0010
0000
1000
0100
1000
0000
,
0010
0100
0010
0000
1000
0000
0001
0000
0100
0010
0100
0000
0001
0000
1000
0000
,
0010
0100
0110
1001
0000
0000
1000
0001
,
1001
0000
0010
0100
0000
0100
0010
0000
,
1010
0000
1100
0000
0101
0001
0000
1001
,
0000
0000
1000
0000
0010
0100
0000
0001
0010
0000
0100
0000
1000
0010
0000
0100
,
0010
0000
0100
0000
0001
0010
0000
0100
1000
0000
0001
0000
0010
0100
1000
0010
,
0200
0000
0000
0000
,
0000
0000
0000
0000
,
0300
0000
0000
0000
;

//---------------dance-double - Copied from Copied f----------------
#NOTES:
     dance-double:
     Copied from Copied f:
     Hard:
     9:
     0.801,0.801,0.064,0.247,0.298:
00000000
00000000
00000000
00000000
,
10000000
00100000
10000000
00100000
01000000
00010000
01000000
00010000
,
00100000
00001000
00100000
00001000
00010000
00000100
00010000
00000100
,
00001000
00000010
00001000
00000010
00000100
00000001
00000100
00000001
,
00000010
00000100
00000010
00000100
00010000
00001000
00010000
00001000
,
01000000
00100000
01000000
00100000
10000000
00010000
10000000
00010000
,
01000000
00010000
01000000
00010000
00100000
00001000
00100000
00001000
,
00010000
00001000
00010000
00001000
00010000
00000100
00010000
00000100
,
00001000
00000100
00001000
00000100
00001000
00000010
00001000
00000010
,
00001000
00000001
00000010
00000100
00000010
00000001
00000100
00000010
,
00010000
00001000
01000000
00100000
10000000
00010000
01000000
00100000
,
10000000
01000000
00100000
00001000
00010000
00000100
00000010
00000001
,
00000010
00000100
00010000
00001000
00100000
01000000
10000000
00100000
,
10000000
01000000
00010000
01000000
00100000
00001000
00010000
00000100
,
00000010
00000001
00000100
00001000
00000100
00000001
00000010
00000100
,
00010000
00001000
01000000
00100000
10000000
01000000
00100000
00001000
,
00010000
00000100
00000010
00000001
00000100
00000010
00001000
00000100
,
00020000
00000000
00000000
00000000
00000000
00000000
00000000
00000000
00000000
00000000
00030000
00000000
00001000
00010000
00001000
00000000
,
00010000
00000100
00000010
00000100
00010000
00001000
01000000
00000000
,
00100000
10000000
01000000
10000000
00000000
00100000
01000000
00001000
,
00010000
00010000
00001000
00010000
00000100
00000000
00000100
00000010
,
00000001
00000010
00000001
00000000
00001000
00000010
00001000
00000000
00000010
00010000
00000010
00000000
00010000
00001000
00010000
00000000
,
00001000
00100000
01000000
00100000
00001000
00010000
00000100
00000000
,
00000010
00000001
00000100
00000001
00000000
00000010
00000100
00010000
,
00001000
00001000
00010000
00001000
01000000
00000000
01000000
00100000
,
10000000
00100000
10000000
00000000
00010000
00100000
00010000
00000000
00100000
00001000
00100000
00000000
00001000
00010000
00001000
00000000
,
00010000
00000100
00000010
00000100
00010000
00001000
01000000
00000000
,
00100000
10000000
01000000
10000000
00000000
00100000
01000000
00001000
,
00010000
00010000
00001000
00010000
00000100
00000000
00000100
00000010
,
00000001
00000010
00000001
00000000
00001000
00000010
00001000
00000000
00000010
00010000
00000010
00000000
00010000
00001000
00010000
00000000
,
00001000
00100000
01000000
00100000
00001000
00010000
00000100
00000000
,
00000010
00000001
00000100
00000001
00000000
00000010
00000100
00010000
,
00001000
00001000
00010000
00001000
01000000
00000000
01000000
00100000
,
10000000
01000000
00100000
00001000
00010000
00000100
00000010
00000001
,
00000200
00000010
00000310
00000000
00000020
00010000
00010030
00000000
,
00020000
00000000
00001000
00000000
00031000
00000000
00000000
00001000
02000000
00000000
00100000
00000000
03100000
00000000
00000000
00000000
,
20000000
00010000
30010000
00000000
00020000
00100000
00130000
00000000
,
00200000
00000000
00001000
00000000
00301000
00000000
00000000
00001000
00020000
00000000
00000100
00000000
00030100
00000000
00000000
00000000
,
00000020
00000000
00000001
00000000
00000031
00000000
00000000
00000001
00002000
00000000
00000100
00000000
00003100
00000000
00000000
00000000
,
00020000
00000000
00001000
00000000
00031000
00000000
00000000
00010000
00001000
00000000
01000000
00000000
00100000
00000000
10000000
00000000
,
02000000
00000000
00000000
00000000
00000000
00000000
00000000
03000000
,
01100000
00000000
00000000
00011000
00000000
00000000
00000110
00000000
00000000
00000000
00000000
00000000
00000000
00000000
00000000
00000000
,
00000001
00000000
00000100
00000000
00000001
00000000
00000010
00000000
00000100
00000000
00010000
00000000
00001000
00010000
00001000
00000000
,
00010000
00000000
00001000
00000000
01000000
00000000
00100000
00000000
10000000
00000000
01000000
00000000
00100000
00010000
00100000
00000000
,
00001000
00000000
00010000
00001000
00010000
00000000
00001000
00000000
00010000
00000000
00001000
00010000
00001000
00000000
00010000
00000000
,
00001000
00000000
00010000
00001000
00010000
00000000
00000100
00000000
00000010
00000000
00000001
00000000
00000100
00000001
00000100
00000001
,
00000100
00000001
00000001
00000010
00000100
00010000
00001000
01000000
,
00100000
10000000
01000000
00100000
00001000
00010000
00000100
00000010
,
00000001
00000100
00000002
00000000
00000000
00000000
00000013
00000100
00000020
00000000
00000000
00000000
00000130
00001000
00000100
00000000
,
00020000
00000000
00001000
00000000
00001000
00000000
00031000
00000000
00010000
00001000
00000000
00001000
01000000
00000000
01000000
00100000
,
10000000
00000000
00100000
00000000
01000000
00000000
00010000
00000000
00100000
00000000
00001000
00000000
00010000
00001000
00010000
00000000
,
00001000
00000000
00010000
00000000
00000100
00000000
00000010
00000000
00000001
00000000
00000100
00000000
00000010
00001000
00000010
00000000
,
00001000
00000100
00001000
00000000
00000100
00000000
00000010
00000000
00000001
00001000
00000001
00000000
00000100
00000000
00000010
00000000
,
00001000
00000100
00001000
00000000
00000100
00000000
00010000
00001000
00010000
00000000
00001000
00000000
01000000
00000000
00100000
00000000
,
20000000
00100000
30100000
20000000
00010000
30010000
00100000
00001000
,
00010000
00000000
00000100
00000000
00000100
00000000
00000010
00000001
00000010
00000001
00000010
00000000
00000002
00000000
00000200
00000000
,
00000000
00000000
00000000
00000303
,
00000101
00000000
00000000
00000000
00001010
00000000
00000000
00000000
00010100
00000000
00000000
00010000
00001000
00000000
01000000
00000000
,
00100000
00000000
10000000
00000000
00100000
00000000
01000000
00000000
00010000
00000000
00100000
00000000
00001000
00010000
00001000
00000000
,
00010000
00000000
00000100
00000000
00001000
00000000
00000010
00000000
00000100
00000000
00000001
00000000
00000010
00000001
00000010
00000000
,
00000001
00000000
00000100
00000001
00000100
00000000
00000010
00000000
00001000
00000000
00000100
00001000
00000100
00000000
00010000
00000000
,
00001000
00000000
01000000
00010000
01000000
00000000
00100000
00000000
10000000
00000000
01000000
00000000
00100000
00010000
00100000
00010000
,
00100000
00000000
00001000
00000000
00010000
00000000
00000100
00000010
,
00000002
00000203
00020300
01030000
,
00100000
10000000
00100000
00000000
00000000
00000000
10000000
01000000
10000000
00000000
00000000
00000000
01000000
00100000
01000000
00000000
,
00200000
00000000
00010000
00000000
00310000
00000000
01000000
00000000
00100000
10000000
00000000
10000000
00100000
00000000
01000000
00010000
,
01000000
00000000
00100000
00000000
10000000
00000000
01000000
00000000
00100000
00000000
00001000
00000000
00010000
00001000
00010000
00000000
,
00000100
00000000
00000010
00000000
00000001
00000000
00000100
00000000
00000010
00000000
00001000
00000000
00000100
00001000
00000100
00000000
,
00020000
00001000
00031000
00002000
01000000
01003000
00100000
10000000
,
01000000
00100000
00001000
00010000
00000100
00000000
00000100
00000010
,
00000011
00000000
00000001
00000100
00000000
00000100
00000010
00000000
,
00001000
00000000
00000100
00000000
00010000
00000000
00001000
00010000
00001000
00010000
00001000
00000000
00010000
00000000
00001000
00000000
,
01000000
00000000
00100000
00000000
10000000
01000000
00000000
01000000
00100000
00000000
00010000
00000000
00100000
00001000
00000000
00001000
,
00010000
00000000
00000100
00000000
00000010
00000001
00000000
00000001
00000100
00000000
00000010
00000000
00001000
00000100
00000010
00000001
,
00000200
00000000
00000000
00000000
,
00000000
00000000
00000000
00000000
,
00000300
00000000
00000000
00000000
;

//---------------dance-double - Copied from Copied f----------------
#NOTES:
     dance-double:
     Copied from Copied f:
     Medium:
     7:
     0.554,0.557,0.082,0.330,0.078:
00000000
00000000
00000000
00000000
,
10000000
01000000
00100000
00001000
,
00010000
00000100
00000010
00000001
,
00000100
00000010
00001000
00000100
,
00010000
00001000
01000000
00100000
,
10000000
00010000
10000000
00010000
,
00001000
00010000
00001000
00010000
,
00000001
00001000
00000001
00001000
,
00010000
00001000
00010000
00001000
,
10000000
00000000
00000000
00100000
00000000
00000000
10000000
00000000
00100000
00000000
00000000
01000000
00000000
00000000
00010000
00000000
,
01000000
00000000
00000000
00010000
00000000
00000000
00100000
00000000
00001000
00000000
00000000
00010000
00000000
00000000
00001000
00000000
,
00010000
00000000
00000000
00000100
00000000
00000000
00010000
00000000
00000100
00000000
00000000
00000010
00000000
00000000
00000100
00000000
,
00000010
00000000
00000000
00000001
00000000
00000000
00000010
00000000
00000001
00000000
00000000
00001000
00000000
00000000
00000001
00000000
,
00001000
00000000
00000000
00000001
00000000
00000000
00000010
00000000
00000100
00000000
00000000
00000010
00000000
00000000
00000001
00000000
,
00000100
00000000
00000000
00000010
00000000
00000000
00001000
00000000
00000100
00000000
00000000
00010000
00000000
00000000
00001000
00000000
,
01000000
00000000
00000000
00100000
00000000
00000000
10000000
00000000
01000000
00000000
00000000
00100000
00000000
00000000
01000000
00000000
,
10000000
00000000
00000000
00100000
00000000
00000000
01000000
00000000
00010000
00000000
00000000
00100000
00000000
00000000
00002000
00000000
,
00020000
00000000
00000000
00000000
00000000
00003000
00030000
00000000
,
00001000
00010000
00001000
00010000
00001000
01000000
00100000
00000000
,
00100000
10000000
01000000
10000000
00000000
10000000
00100000
01000000
,
00100000
01000000
00010000
00100000
00010000
00000000
00100000
00001000
,
00020000
00032000
00023000
00032000
,
00013000
00000100
00010000
00000100
00010000
00000100
00000010
00000000
,
00000010
00000001
00000100
00000001
00000000
00000001
00000010
00000100
,
00000010
00000001
00000100
00000010
00001000
00000000
00001000
00000100
,
00020000
00032000
00023000
00032000
,
00013000
00001000
00010000
00001000
01000000
00100000
10000000
00000000
,
10000000
00100000
01000000
00100000
00000000
01000000
00010000
00100000
,
00001000
00010000
00001000
00010000
00000100
00000000
00000100
00000010
,
00000002
00002003
00003002
00002003
,
00003010
00000100
00000010
00000100
00000010
00010000
00001000
00000000
,
00001000
01000000
00100000
01000000
00000000
00100000
10000000
01000000
,
10000000
00100000
01000000
00010000
00100000
00000000
00001000
00010000
,
00002000
02003000
03200000
20300000
,
30010000
10000000
10000000
00000000
00100000
01000000
01000000
00000000
,
00010000
00100000
00100000
00001000
00010000
00010000
00010000
00000000
,
00000100
00001000
00001000
00000000
00000010
00000100
00000100
00000000
,
00000001
00000010
00000010
00000001
00001000
00000100
00000100
00000000
,
00000010
00000001
00001000
00000000
00000200
00000000
00020300
00000000
,
00032000
00000000
00013000
00001000
,
02000000
00000000
00000000
03000000
,
01100000
00000000
00000000
10010000
00000000
00000000
01100000
00000000
00000000
00000000
00000000
00000000
00000000
00000000
00000000
00000000
,
00100000
00000000
10000000
00000000
01000000
00000000
00100000
00001000
,
00010000
00000000
00000100
00000000
00000010
00000001
00000100
00000010
,
00002000
00003100
00000200
00010300
,
00020000
00000000
00031000
00000000
00002000
00000000
01003000
00100000
,
20000000
00000000
01000000
00000000
00010000
00000000
31000000
10000000
,
00020000
00230000
00302000
00023000
,
00030100
00010000
00000000
00010000
00000100
00000000
00000110
00000000
,
00000010
00000010
00000010
00000010
00000001
00000100
00000010
00000010
,
00001000
00000100
00000001
00000100
,
00010000
00001000
01000000
00100000
,
10000000
01000000
00010000
01000000
,
00100000
00000000
00001000
00000000
00010000
00000000
00001000
00010000
,
00010000
00000100
00000010
00000001
,
00001000
00000000
00000010
00000000
00000100
00000002
00000000
00002000
,
00000000
00000000
00000003
00003000
,
00001001
00000000
00011000
00000000
10010000
00000000
10000000
00100000
,
01000000
00000000
00100000
00000000
10000000
00000000
01000000
00100000
,
00001000
00000000
00010000
00000000
00000100
00000010
00000001
00000100
,
00000010
00001000
00000010
00000000
00001000
00000100
00001000
00000000
,
00000100
00010000
00000100
00000000
00010000
00000000
00001000
01000000
,
00100000
00000000
10000000
00000000
01000000
00000000
00100000
00001000
,
00010000
00001000
00010000
00000000
00000100
00001000
00000100
00000000
,
00001000
00000010
00000100
00000001
00000000
00000010
00000100
00010000
,
00001000
00000000
00010000
00000000
00001000
00001000
00010000
00001000
,
01000000
00000000
00100000
00000000
10000000
00000000
01000000
00100000
,
00001000
00010000
00000100
00000010
,
00000001
00000000
00000100
00000010
00000000
00000010
00001000
00000000
,
00001000
00000100
00010000
00001000
01000000
00000000
01000000
00100000
,
10000000
00000000
10000000
01000000
00000000
01000000
00100000
00000000
,
00100000
00001000
00010000
00000000
00010000
00000020
00000000
00000200
,
00000000
00000000
00000000
00000030
00000000
00000300
00000000
00000000
,
00000101
00000000
00001010
00000000
00010000
00001000
00010000
00001000
,
02000000
00000000
00000000
00000000
,
00000000
00000000
00000000
00000000
,
03000000
00000000
00000000
00000000
;

//---------------dance-double - Copied from Copied from----------------
#NOTES:
     dance-double:
     Copied from Copied from:
     Easy:
     5:
     0.412,0.488,0.266,0.238,0.000: // measure 1
00000000
00000000
00000000
00000000
,  // measure 2
10000000
00100000
10000000
00100000
,  // measure 3
01000000
00010000
01000000
00010000
,  // measure 4
00100000
00001000
00100000
00001000
,  // measure 5
00010000
00000100
00010000
00000100
,  // measure 6
00001000
00000010
00001000
00000010
,  // measure 7
00000100
00000001
00000100
00000001
,  // measure 8
00000010
00000100
00000010
00000100
,  // measure 9
00010000
00001000
00010000
00001000
,  // measure 10
01000000
00100000
10000000
01000000
,  // measure 11
00100000
00001000
00010000
00000100
,  // measure 12
00000010
00000001
00000100
00000010
,  // measure 13
00001000
00000100
00010000
00001000
,  // measure 14
01000000
00100000
10000000
01000000
,  // measure 15
00100000
01000000
10000000
00100000
,  // measure 16
01000000
00001000
00010000
00000100
,  // measure 17
00000010
00000001
00000100
00000020
,  // measure 18
00002000
00000000
00000030
00003000
,  // measure 19
00000001
00001000
00000001
00001000
,  // measure 20
00000010
00000000
00000010
00010000
,  // measure 21
00001000
00001000
01000000
00100000
,  // measure 22
01000000
00000000
00000000
00000000
,  // measure 23
00010000
10000000
00010000
10000000
,  // measure 24
00100000
00000000
00100000
01000000
,  // measure 25
00001000
00001000
00010000
00000100
,  // measure 26
00000010
00000000
00000000
00000000
,  // measure 27
00000100
00000010
00000100
00000010
,  // measure 28
00000001
00000000
00000001
00001000
,  // measure 29
00000100
00000100
00010000
00001000
,  // measure 30
00100000
00000000
00000000
00000000
,  // measure 31
00100000
01000000
00100000
01000000
,  // measure 32
00010000
00000000
00010000
00100000
,  // measure 33
00001000
00001000
00010000
00000100
,  // measure 34
00000010
00000000
00000001
00000000
,  // measure 35
00000200
00000310
00000002
00001003
,  // measure 36
00000001
00001000
00010000
10000000
,  // measure 37
00200000
01300000
20000000
30010000
,  // measure 38
10000000
00010000
00001000
00000001
,  // measure 39
00000020
00000130
00002000
00003001
,  // measure 40
00000020
00000000
00000130
00020000
,  // measure 41
00002000
00000000
00030000
00003000
,  // measure 42
00011000
00000000
00000000
00011000
00000000
00000000
00000000
00000000
,  // measure 43
00001000
01000000
00100000
01000000
,  // measure 44
00100000
10000000
01000000
00100000
,  // measure 45
00010000
00011000
00001000
00011000
,  // measure 46
00010000
00011000
00000100
00000010
,  // measure 47
00000011
00000001
00000100
00000010
,  // measure 48
00001010
00001010
00011000
00011000
,  // measure 49
00001000
00000000
00000000
01000000
00000000
00000000
00100000
00000000
,  // measure 50
10000000
10000000
10100000
10010000
,  // measure 51
00110000
00010000
00100000
00001000
,  // measure 52
00011000
00010000
00000100
00000010
,  // measure 53
00000011
00000001
00000100
00000010
,  // measure 54
00000110
00010010
00011000
00001000
,  // measure 55
01001000
01000000
00100000
10000000
,  // measure 56
11000000
01000000
00100000
00001000
,  // measure 57
00022000
00000000
00000000
00033000
,  // measure 58
00011000
00011000
00011000
00010000
,  // measure 59
00000200
00000010
00000001
00000310
,  // measure 60
00000020
00000001
00000100
00000031
,  // measure 61
00002000
00003001
00000002
00000103
,  // measure 62
00000200
00000010
00001300
00000010
,  // measure 63
00020000
00001000
01000000
00031000
,  // measure 64
00010000
00001000
01000000
00100000
,  // measure 65
10000000
00000000
00000000
00010000
00000000
00000000
10000000
00000000
,  // measure 66
00100000
00100000
01000000
00100000
,  // measure 67
20000000
00100000
00010000
30100000
,  // measure 68
00020000
00100000
10000000
00130000
,  // measure 69
00200000
00301000
00002000
00013000
,  // measure 70
00010000
00000100
00000010
00000001
,  // measure 71
00000100
00000000
00000000
00000010
00000000
00000000
00000100
00000000
,  // measure 72
00000001
00000001
00001000
00000001
,  // measure 73
00002000
00000000
00000000
00000000
00000000
00000000
00000000
00003000
,  // measure 74
00001001
00001001
00000110
00001010
,  // measure 75
00022000
00000000
00000000
00000000
,  // measure 76
00000000
00000000
00000000
00000000
,  // measure 77
00033000
00000000
00000000
00000000
;
