#TITLE:Summer void;
#SUBTITLE:;
#ARTIST:SpringHead;
#TITLETRANSLIT:;
#SUBTITLETRANSLIT:;
#ARTISTTRANSLIT:;
#GENRE:;
#CREDIT:;
#MENUCOLOR:;
#METERTYPE:DDR;
#BANNER:Summer void_bn.png;
#BACKGROUND:RIDE ZERO_bg.png;
#LYRICSPATH:;
#CDTITLE:cdtitle.png;
#MUSIC:Summer Void.ogg;
#OFFSET:-0.100;
#SAMPLESTART:61.925;
#SAMPLELENGTH:12.000;
#SELECTABLE:YES;
#LISTSORT:;
#BPMS:0.000=128.000;
#STOPS:;
#BGCHANGES:;
#ATTACKS:;

//---------------dance-single - ----------------
#NOTES:
     dance-single:
     :
     Hard:
     10:
     0.590,0.678,0.424,0.502,0.494:
0000
0000
0000
0000
,
0111
0111
1011
1011
,
1110
1110
1011
1011
,
0111
1011
0111
1011
,
1110
1101
1110
1101
,
2200
0000
0001
0000
0010
0000
0001
3300
,
0202
0000
0010
0000
1000
0000
0010
0303
,
2200
0000
0001
3300
0202
0000
1000
0303
,
0002
0000
0000
2003
0000
0000
3010
1000
,
0100
0000
0000
0010
0000
0000
0100
0000
0000
0010
0000
0000
0001
0000
0000
0000
,
1000
0000
0000
0010
0000
0000
1000
0000
0000
0010
0000
0000
1000
0000
0100
0000
,
0010
0000
0000
0001
0000
0000
1000
0000
0000
0001
0000
0000
0100
0000
0001
0000
,
0010
0000
0000
0100
0000
0000
1000
0000
0000
0001
0000
0000
1000
0000
0100
0000
,
0020
0030
0000
0000
0000
0000
0000
0000
0002
0003
0000
0000
0000
0000
0000
0000
0200
0300
0000
0000
0000
0000
0000
0000
2000
3000
0000
0000
0000
0000
0000
0000
0002
0003
0000
0000
0000
0000
0000
0000
0020
0030
0000
0000
0000
0000
0000
0000
2000
3000
0000
0000
0000
0000
0000
0000
0200
0300
0000
0000
0000
0000
0000
0000
,
0020
0030
0000
0000
0000
0000
0000
0000
0000
0000
0000
0000
0001
0000
0000
0000
0000
0000
0000
0000
0000
0000
0000
0000
0100
0000
0000
0000
0000
0000
0000
0000
0000
0000
0000
0000
1000
0000
0000
0000
0000
0000
0000
0000
0000
0000
0000
0000
0100
0000
0000
0000
0000
0000
0000
0000
0001
0000
0000
0000
0000
0000
0000
0000
,
0010
0000
0000
0100
0000
0000
0010
0000
0000
0100
0000
0000
1000
0000
0010
0000
,
0100
0000
0000
0010
0000
0000
0100
0000
0000
0010
0000
0000
1000
0000
0000
0000
,
0002
0000
0200
0000
0020
0000
1000
0333
,
2000
0000
0200
0000
0020
0000
0001
3330
,
1101
0000
0000
0000
0010
0000
0100
0000
0010
0000
0000
0010
0000
0000
0100
0000
,
2002
0000
0000
0000
0000
0000
0000
0000
3003
0000
0010
0100
0010
0000
0100
0000
,
0001
0010
0001
0000
1000
0010
1000
0000
0001
0010
0100
1000
0001
0000
1000
0000
,
0001
0000
0010
0000
0200
0000
0000
0000
1300
0010
0100
0000
0010
0000
1000
0000
,
0100
0000
0010
0001
0000
0020
0000
0000
0031
0000
0000
0100
0000
0000
0010
0000
,
1000
0010
1000
0000
0010
1000
0100
0010
0001
0000
0100
0000
0110
0000
0000
0000
,
1010
0000
1110
0000
,
1001
0000
1011
0000
,
0011
0000
0111
0000
,
0101
0000
1101
0000
,
1101
1101
1111
1111
,
1011
1011
1111
1111
,
1000
0000
0001
0000
1000
0000
0001
0000
0010
0100
0010
0100
0010
0001
0100
0010
,
2000
0000
0000
0000
0000
0000
0000
0000
0000
0000
0000
0000
3000
0000
0000
0000
0000
0000
0001
0000
1000
0000
0001
0000
1000
0000
0000
0001
0000
0000
1000
0000
0000
0001
0000
0000
0010
0000
0000
0100
0000
0000
1000
0000
0000
0001
0000
0000
,
0202
0000
0000
0000
0303
0001
0010
1000
,
0010
0M00
M000
0000
0000
0000
0000
0000
0100
00M0
000M
0000
0000
0000
0000
0000
0010
0M00
M000
0000
0000
0000
0000
0000
0100
00M0
000M
0000
0000
0000
0000
0000
,
2020
0000
0000
0000
3030
1000
0010
0001
,
0010
0M00
M000
0000
0000
0000
0000
0000
0100
00M0
000M
0000
0000
0000
0000
0000
0010
0M00
M000
0000
0000
0000
0000
0000
0100
00M0
000M
0000
0000
0000
0000
0000
,
0022
0000
0000
0000
0033
0010
1000
0010
,
0002
0000
0000
0000
0000
0000
0103
0000
0010
0000
0000
0001
0000
0000
0010
0000
,
2000
0000
0000
0000
0000
0000
0200
0000
0000
0000
0000
0000
0001
0000
0000
3300
,
0000
1000
0010
0100
,
0202
0000
0000
0000
0303
0001
0010
1000
,
0040
0000
M004
0000
0M00
0000
M030
0000
4M00
0000
00M0
0000
0M00
0000
00M3
0000
0M40
0000
000M
0000
0M00
0000
003M
0000
3M01
00M0
0M00
M000
0000
0000
0000
0000
,
0022
0000
0000
0000
0000
0000
0000
0033
0000
0000
0001
0000
0100
0000
1000
0000
,
0400
0000
M004
0000
00M0
0000
M300
0000
40M0
0000
0M00
0000
00M0
0000
0M03
0000
004M
0000
0M00
0000
300M
0000
0M30
0000
100M
0M00
00M0
000M
0000
0000
0000
0000
,
2002
0000
0000
0000
,
0000
0000
3003
0001
,
0010
0001
0010
0001
1000
0001
1000
0001
1000
0010
1000
0010
1000
0001
1000
0001
,
0010
0100
1000
0001
1000
0100
0010
0001
1000
0001
0010
0100
1000
0000
0000
0000
,
1001
0000
0000
0000
0100
0000
0100
0000
0100
0000
0100
0010
0000
0100
0010
0000
,
1000
0000
1000
0000
1000
0001
1000
0000
0010
0000
0100
0010
0000
0100
0010
0000
,
2000
0000
0000
0000
3001
0000
1000
0000
0001
0010
0100
1000
0001
0010
0100
1000
,
0010
0100
0010
0100
0010
0100
0010
0100
0010
0000
0100
0000
0010
0100
0010
0000
,
1001
0000
0000
0000
0100
0000
0100
0000
0100
0000
0010
0100
0000
0010
0100
0000
,
0010
1000
0010
1000
0010
1000
0010
1000
0001
0000
0010
0001
0000
0010
0001
0000
,
2000
0000
0000
0000
3001
0000
1000
0000
0001
0010
0100
1000
0001
0010
0100
1000
,
0002
0000
0000
0000
0103
0000
0100
0000
0100
0010
0000
0110
0000
0000
0000
0000
,
2002
0000
0000
0000
,
3003
0000
0000
0000
;

//---------------dance-single - Copied from----------------
#NOTES:
     dance-single:
     Copied from:
     Challenge:
     10:
     0.674,0.703,0.329,0.546,0.806:
0000
0000
0000
0000
,
0011
0001
0101
0010
0011
0100
0101
0010
,
0011
0000
0100
0000
0001
0010
0100
1000
1010
0000
0010
0000
1010
0000
1001
0000
,
1100
1000
1010
0100
1100
1000
1010
0100
,
1000
0000
0000
0010
0000
0000
1000
0000
0000
0100
0000
0000
0010
0000
0000
0000
0000
0000
0011
0000
0000
0000
0000
0000
0001
0000
0000
0010
0000
0000
0100
0000
0000
1000
0000
0000
0002
0000
0000
0000
0000
0000
0000
0000
0000
0003
0010
0100
,
2000
0000
0000
0000
0000
3002
0000
0023
,
0000
0000
0100
0000
0100
0130
0010
0001
,
1000
0000
0000
0001
0010
0100
2000
0000
0000
0000
0000
0000
0100
0000
0000
0000
0000
0000
3100
0000
0000
0000
0000
0000
,
1002
0000
0000
2003
0000
0000
3100
0010
,
0002
0000
0000
2003
0000
0000
3020
0000
0000
0230
0000
0000
2000
0300
0000
0000
,
3200
0000
0000
0302
0000
0000
1003
0100
0010
0000
1000
0000
0010
0000
0001
0000
,
0200
0000
0000
2300
0000
0000
3002
0000
0000
2003
0000
0000
3100
0000
0001
0000
,
0020
0000
0000
2030
0000
0000
3020
0000
0000
2030
0000
0000
3010
0000
0001
0000
,
0100
0000
1000
0100
0010
0000
1000
0000
0100
0010
1000
0000
0010
0000
0001
0100
,
2000
0000
0000
3200
0000
0000
0302
0000
0000
0023
0000
0000
1030
0000
0001
0000
,
2000
0000
0000
0010
0000
0000
0001
0000
0000
0010
0000
0000
0001
0000
0001
0000
,
0002
3000
0000
0100
0000
0000
1000
0000
0000
0100
0000
0000
1000
0000
0003
0000
,
0000
0200
2300
3000
2000
3020
0030
0100
,
0000
0000
0020
0000
2030
0000
3000
0000
1000
0100
0001
0000
0100
0000
1000
0000
,
0001
0000
0100
0010
1000
0000
0100
0000
0010
0001
0100
0001
0010
0100
1000
0010
,
0100
0000
0001
0100
1000
0000
0100
0000
0010
1000
0100
0001
0100
0000
0100
0000
,
1000
0010
0001
0000
0001
0010
1000
0000
0001
0010
1000
0010
0002
0000
2003
0000
,
3001
0000
0100
0000
2000
0000
0000
0000
3100
0001
1000
0000
0100
0000
0010
0000
,
0110
0000
0010
0001
0000
0020
0000
0000
0031
0000
0000
0100
0000
0000
0010
0000
,
1000
0010
1000
0000
0010
1000
0100
0010
0001
0000
0100
0000
0110
0000
0000
0000
,
1010
0000
0000
1010
0000
0010
1000
0010
,
1000
0100
0010
0000
0001
0100
0010
0000
1000
0100
0010
0001
0100
0010
1000
0100
,
0010
0001
0100
0000
0110
0000
0010
1000
0100
0000
0010
0000
0001
0000
0100
0000
,
0020
0000
0030
0200
0000
0310
1000
0100
,
1100
0000
1100
0010
0101
0000
0011
0100
,
1010
0000
1100
0010
0101
0000
0011
0100
,
1000
0001
1000
0001
0010
0100
1000
0001
0100
0010
0100
0010
1000
0100
0010
0001
,
2000
0000
0000
0000
0000
0000
0000
0000
0000
0000
0000
0000
3000
0000
0000
0000
0000
0000
0001
0000
1000
0000
0001
0000
1000
0000
0000
0001
0000
0000
1000
0000
0000
0001
0000
0000
0010
0000
0000
0100
0000
0000
1000
0000
0000
0001
0000
0000
,
0202
M0M0
M0M0
M0M0
M0M0
M0M0
M0M0
M0M0
0303
0000
0001
0000
0010
0000
1000
0000
,
0010
0M00
M000
0M00
00M0
000M
0000
0000
0100
00M0
000M
00M0
0M00
M000
0000
0000
0010
0M00
M000
0M00
00M0
000M
0000
0000
0100
00M0
000M
00M0
0M00
M000
0000
0000
,
2020
0M0M
0M0M
0M0M
0M0M
0M0M
0M0M
0M0M
3030
0000
1000
0000
0010
0000
0001
0000
,
0010
0M00
M000
0M00
00M0
000M
0000
0000
0100
00M0
000M
00M0
0M00
M000
0000
0000
0010
0M00
M000
0M00
00M0
000M
0000
0000
0100
00M0
00MM
0M00
M000
0000
0000
0000
,
0022
MM00
MM00
MM00
MM00
MM00
MM00
MM00
0033
0000
0010
0000
1000
0000
0010
0000
,
0002
0000
0000
0000
0000
0000
0103
0000
0010
0000
0000
0001
0000
0000
0010
0000
,
2000
0000
0000
0000
0000
0000
0200
0000
0000
0000
0000
0000
0001
0000
0000
3300
,
0000
1000
0010
0100
,
0202
M0M0
M0M0
M0M0
M0M0
M0M0
M0M0
M0M0
0303
0000
0001
0000
0010
0000
1000
0000
,
MM10
0000
0001
0000
MM10
0000
0001
0000
0M10
0000
100M
0000
0M10
0000
100M
0000
0M10
0000
M001
0000
01M0
0000
1000
0000
0001
00M0
0M00
M000
0000
0000
0000
0000
,
0022
MM00
MM00
MM00
MM00
MM00
MM00
0033
0000
0000
0001
0000
0010
0000
1000
0000
,
M1M0
0001
M1M0
0001
1M00
001M
1M00
001M
0M01
M100
10M0
0M01
M010
0M00
00M0
0000
,
4040
0000
0000
0000
,
0000
0000
3030
4000
,
3100
0010
0001
0100
0010
0001
0010
0100
0001
0010
0100
1000
0010
0100
1000
0100
,
0010
1000
0100
0001
0100
1000
0010
0001
1000
0100
0001
0010
0100
0000
0000
0000
,
1001
0000
0000
0000
0100
0000
0100
0000
0100
0000
0100
0100
0000
0100
0100
0000
,
1000
0000
1000
0000
0001
1000
0001
0000
0010
0000
0010
0010
0000
0010
0010
0000
,
2002
0000
0003
0000
3001
0000
1000
0000
0001
0010
0100
1000
0001
0010
0100
1000
,
0010
0010
0100
0100
0010
0010
0100
0100
0010
0000
0100
0000
0010
0010
0100
0000
,
1001
0000
0000
0000
0100
0000
0100
0000
0100
0000
0100
0100
0000
0100
0100
0000
,
0010
0010
1000
1000
0010
0010
1000
1000
0001
0000
0010
0010
0000
0001
0001
0000
,
2002
0000
0003
0000
3001
0000
1000
0000
0001
0010
0100
1000
0001
0010
0100
1000
,
0001
0000
0010
0000
0100
0000
1000
0000
0100
0000
0010
0000
0001
0000
0010
0000
0100
0000
1000
0000
0100
0000
0010
0000
0001
0000
0000
0100
0000
0000
0000
0000
0000
0100
0000
0000
0000
0000
0000
0000
0000
0000
0000
0000
0000
0000
0000
0000
,
2002
0000
0000
0000
,
3003
0000
0000
0000
;

//---------------dance-single - Copied from----------------
#NOTES:
     dance-single:
     Copied from:
     Medium:
     6:
     0.429,0.452,0.381,0.347,0.208:
0000
0000
0000
0000
,
0011
1001
0011
1001
,
1010
1001
1010
1001
,
0011
0101
0011
0101
,
1010
1100
1010
1100
,
1002
0000
0100
0000
0100
0100
0003
0200
,
0000
0000
0010
0000
0310
0010
0100
0020
,
0000
1030
0200
0000
0010
0000
0010
0000
,
0320
0000
0000
0032
0000
0003
1000
0001
,
1000
0000
0000
0010
0000
0000
1000
0000
0000
0010
0000
0000
1000
0000
0000
0000
,
0001
0000
0000
0010
0000
0000
0001
0000
0000
0010
0000
0000
0001
0000
0010
0000
,
0100
0000
0000
1000
0000
0000
0001
0000
0000
1000
0000
0000
0001
0000
1000
0000
,
0010
0000
0000
1000
0000
0000
0010
0000
0000
1000
0000
0000
0001
0000
1000
0000
,
0010
0000
0000
0100
0000
0000
0001
0000
0000
0010
0000
0000
0100
0000
0000
0000
,
1000
0000
0000
0010
0000
0000
1000
0000
0000
0100
0000
0000
0010
0000
0001
0000
,
1000
0000
0000
0001
0000
0000
0010
0000
0000
0001
0000
0000
1000
0000
0010
0000
,
1000
0000
0000
0100
0000
0000
0010
0000
0000
0001
0000
0000
0100
0000
0000
0000
,
0020
0230
0320
2030
,
3200
0320
0230
2300
,
3002
0000
0000
0000
0013
0000
0100
0000
0010
0000
0000
0001
0000
0000
2000
0000
,
0020
0000
0000
0000
0000
0000
0000
3000
0030
0000
1000
0000
0001
0000
1000
0000
,
0010
0010
0100
0100
0010
1000
0100
0010
,
0001
0100
0200
0000
0310
0010
1000
0100
,
0010
0001
0010
0100
1000
0010
1000
0100
,
0010
0001
0100
0100
0100
0010
0110
0000
,
1010
0000
1100
0000
,
1001
0000
0101
0000
,
1001
0000
1010
0000
,
1001
0000
0011
0000
,
1001
1001
1100
1100
,
1001
1001
0011
0011
,
1000
0001
1000
0001
0010
0100
1000
0001
,
0200
0000
0300
0000
,
2020
0000
0000
0000
3030
1000
0010
1000
,
0100
0M10
01M0
0M10
,
0022
0000
0000
0000
0033
0001
0100
0001
,
0100
0M10
01M0
0M10
,
2020
0000
0000
3030
0000
1000
0010
1000
,
0200
0000
0000
0000
0000
0000
0310
0000
0001
0000
0000
0010
0000
0000
0002
0000
,
2000
0000
0000
0000
0000
0000
0000
3003
,
0000
0001
0100
0010
,
2020
0000
0000
0000
3030
1000
0010
1000
,
0001
M000
0M00
00M0
000M
0000
0000
0000
1000
000M
00M0
0M00
M000
0000
0000
0000
0001
M000
0M00
00M0
000M
0000
0000
0000
1000
000M
00M0
0M00
M000
0000
0000
0000
,
2002
0000
0000
0000
3003
0001
1000
0001
,
1000
000M
00M0
0M00
M000
0000
0000
0000
0001
M000
0M00
00M0
000M
0000
0000
0000
1000
000M
00M0
0M00
M000
0000
0000
0000
0001
M000
0M00
00M0
000M
0000
0000
0000
,
2002
0000
0000
0000
,
0000
0000
3003
0020
,
0200
0000
0000
0000
0000
0000
0000
0330
,
0010
0100
0010
1000
0100
0010
0011
0000
,
1001
0000
0000
0000
0100
0000
0100
0000
0100
0000
0000
0100
0000
0000
0100
0000
,
0001
0000
0001
0000
1000
0000
0001
0000
0010
0000
0000
0010
0000
0000
0010
0000
,
0002
0000
1003
0001
0010
0100
1000
0001
,
0100
0100
0010
0010
0100
0100
0010
1000
,
1001
0000
0000
0000
0010
0000
0010
0000
0010
0000
0000
0010
0000
0000
0010
0000
,
1000
0000
1000
0000
0001
0000
0001
0000
0010
0000
0000
0010
0000
0000
0010
0000
,
0002
0000
1003
0001
0010
0100
1000
0001
,
0100
0000
0100
0000
0010
0000
0010
0000
0100
0010
0000
0100
0000
0000
0000
0000
,
0220
0000
0000
0000
,
0330
0000
0000
0000
;

//---------------dance-single - Copied from Copied f----------------
#NOTES:
     dance-single:
     Copied from Copied f:
     Easy:
     4:
     0.324,0.397,0.225,0.407,0.000:
0000
0000
0000
0000
,
0001
1000
0100
0100
,
1000
0001
0100
0100
,
0001
1000
0010
0010
,
1000
0001
0010
0010
,
0200
0000
0000
0000
0000
2300
0000
0020
,
3000
0100
0130
0010
,
1000
0100
0010
0001
,
0200
0000
0000
0320
0000
0000
1030
0000
,
0002
0000
0000
0023
0000
0000
0032
0000
,
0203
0000
0000
0320
0000
0000
2030
0000
,
3200
0000
0000
0320
0000
0000
0032
0000
,
0203
0000
0000
0320
0000
0000
1030
0000
,
0001
0010
0100
1000
,
0020
0000
0000
0230
0000
0000
0320
0000
,
2030
0000
0000
3200
0000
0000
2300
0000
,
3002
0000
0000
0023
0000
0000
0230
0000
,
1300
0010
1000
0100
,
0010
0001
0100
0001
,
0020
0000
0031
1000
0001
0000
1000
0000
,
2002
0000
3003
0010
,
0100
0100
0010
1000
,
0100
0100
0010
0001
,
0100
0010
1000
0100
,
0010
0001
1000
0010
,
0100
0000
0101
0000
,
0001
0000
1001
0000
,
1000
0000
1010
0000
,
0010
0000
0110
0000
,
0100
0110
0001
1001
,
0010
1100
0010
0101
,
0001
0000
1000
0000
0010
0100
0010
0100
,
0020
0000
0030
0000
,
2002
0000
3003
0001
,
1000
0100
0001
0010
,
2200
0000
3300
1000
,
0001
0010
1000
0100
,
0022
0000
0033
0001
,
2000
0000
3001
0010
,
0200
0000
0000
0000
0000
0000
0000
0300
,
0000
1000
0010
0100
,
0202
0000
0000
0000
0303
0001
1000
0000
,
1100
1010
0011
0101
,
2200
0000
0000
0000
3300
1000
0001
0000
,
0011
1010
1100
0101
,
0022
0000
0000
0000
,
0000
0000
0030
2003
,
3020
0000
0000
0000
,
0130
0000
0010
0000
0100
0001
1000
0000
,
1001
0100
0100
0100
,
1000
0001
0010
0010
,
0001
0000
1000
0000
0001
1000
0010
0000
,
0100
0000
0100
0000
0010
0100
0010
0000
,
1001
0100
0100
0100
,
0001
1000
0001
0000
0010
0000
0010
0000
,
0001
0000
1000
0000
0001
1000
0010
0000
,
0100
0000
0010
0000
0100
0010
0100
0000
,
0220
0330
0000
0000
;

//---------------dance-single - Copied from Copied from Copied f----------------
#NOTES:
     dance-single:
     Copied from Copied from Copied f:
     Beginner:
     2:
     0.207,0.296,0.069,0.234,0.004: // measure 1
0000
0000
0000
0000
,  // measure 2
0010
0010
0010
0010
,  // measure 3
0100
0100
0100
0100
,  // measure 4
0010
0010
0010
0010
,  // measure 5
0100
0100
0100
0100
,  // measure 6
0020
0030
0000
0000
0000
0000
0000
0000
0000
0000
0000
0000
0000
0000
0000
0000
0000
0000
0000
0000
0000
0000
0000
0000
0000
0000
0000
0000
0000
0000
0000
0000
0000
0000
0000
0000
0000
0000
0000
0000
0000
0000
0000
0000
0000
0000
0000
0000
0000
0000
0000
0000
0000
0000
0000
0000
0000
0000
0000
0000
0000
0000
0000
0000
,  // measure 7
2000
3000
0000
0000
0000
0000
0000
0000
0000
0000
0000
0000
0000
0000
0000
0000
0000
0000
0000
0000
0000
0000
0000
0000
0000
0000
0000
0000
0000
0000
0000
0000
0000
0000
0000
0000
0000
0000
0000
0000
0000
0000
0000
0000
0000
0000
0000
0000
0000
0000
0000
0000
0000
0000
0000
0000
0000
0000
0000
0000
0000
0000
0000
0000
,  // measure 8
0002
0003
0000
0000
0000
0000
0000
0000
0000
0000
0000
0000
0000
0000
0000
0000
0000
0000
0000
0000
0000
0000
0000
0000
0000
0000
0000
0000
0000
0000
0000
0000
0000
0000
0000
0000
0000
0000
0000
0000
0000
0000
0000
0000
0000
0000
0000
0000
0000
0000
0000
0000
0000
0000
0000
0000
0000
0000
0000
0000
0000
0000
0000
0000
,  // measure 9
0020
0030
0000
0000
0000
0000
0000
0000
0000
0000
0000
0000
0000
0000
0000
0000
0000
0000
0000
0000
0000
0000
0000
0000
0000
0000
0000
0000
0000
0000
0000
0000
0000
0000
0000
0000
0000
0000
0000
0000
0000
0000
0000
0000
0000
0000
0000
0000
0000
0000
0000
0000
0000
0000
0000
0000
0000
0000
0000
0000
0000
0000
0000
0000
,  // measure 10
0001
0000
0000
0000
,  // measure 11
0100
0000
0000
0000
,  // measure 12
0010
0000
0000
0000
,  // measure 13
1000
0000
0000
0000
,  // measure 14
0001
0000
0000
0000
,  // measure 15
0010
0000
0000
0000
,  // measure 16
0100
0000
0000
0000
,  // measure 17
1000
0000
0000
0000
,  // measure 18
0010
0100
0010
0010
,  // measure 19
0100
0010
0100
0100
,  // measure 20
0010
0000
1000
0000
,  // measure 21
0001
0000
0000
1000
,  // measure 22
0010
0010
0100
0010
,  // measure 23
0100
0100
0010
0100
,  // measure 24
0010
0000
1000
0000
,  // measure 25
0001
0000
1000
0001
,  // measure 26
0100
0000
0100
0000
,  // measure 27
0010
0000
0010
0000
,  // measure 28
1000
0000
1000
0000
,  // measure 29
0001
0000
0001
0000
,  // measure 30
0010
0010
0100
0100
,  // measure 31
0010
0010
0001
0001
,  // measure 32
1000
0001
1000
0001
,  // measure 33
0020
0030
0000
0000
,  // measure 34
0022
0033
0000
0001
,  // measure 35
0100
0010
0100
0010
,  // measure 36
2020
3030
0000
1000
,  // measure 37
0100
0010
0100
0010
,  // measure 38
0011
0000
0000
0001
,  // measure 39
0200
0000
0000
0300
0001
0000
0010
0000
,  // measure 40
0200
0000
0000
0000
0000
0000
0000
0300
,  // measure 41
0000
1000
0001
1000
,  // measure 42
2020
3030
0000
1000
,  // measure 43
0002
0003
0000
0000
0000
0000
0000
0000
0000
0000
0000
0000
0000
0000
0000
0000
0020
0030
0000
0000
0000
0000
0000
0000
0000
0000
0000
0000
0000
0000
0000
0000
0000
0200
0300
0000
0000
0000
0000
0000
0000
0000
0000
0000
0000
0000
0000
0000
2000
3000
0000
0000
0000
0000
0000
0000
0000
0000
0000
0000
0000
0000
0000
0000
,  // measure 44
0011
0000
0000
0001
,  // measure 45
2000
3000
0000
0000
0000
0000
0000
0000
0000
0000
0000
0000
0000
0000
0000
0000
0020
0030
0000
0000
0000
0000
0000
0000
0000
0000
0000
0000
0000
0000
0000
0000
0200
0300
0000
0000
0000
0000
0000
0000
0000
0000
0000
0000
0000
0000
0000
0000
0002
0003
0000
0000
0000
0000
0000
0000
0000
0000
0000
0000
0000
0000
0000
0000
,  // measure 46
2002
0000
0000
0000
,  // measure 47
0000
0000
3003
0020
,  // measure 48
0200
0000
0000
0000
,  // measure 49
0000
0000
0330
1001
,  // measure 50
0100
0000
0100
0000
,  // measure 51
0001
1000
0001
0000
,  // measure 52
0100
0000
0010
0000
,  // measure 53
0100
0000
0100
0100
,  // measure 54
1001
0000
0010
0000
,  // measure 55
1000
0001
1000
0000
,  // measure 56
0010
0000
0100
0000
,  // measure 57
0010
0000
0100
0200
,  // measure 58
0020
0330
0000
0000
0000
0000
0000
0000
0000
0000
0000
0000
0000
0000
0000
0000
0000
0000
0000
0000
0000
0000
0000
0000
0000
0000
0000
0000
0000
0000
0000
0000
0000
0000
0000
0000
0000
0000
0000
0000
0000
0000
0000
0000
0000
0000
0000
0000
0000
0000
0000
0000
0000
0000
0000
0000
0000
0000
0000
0000
0000
0000
0000
0000
;
