#TITLE:Sonic Forces--Main Theme;
#SUBTITLE:;
#ARTIST:Tomoya Ohtani;
#TITLETRANSLIT:;
#SUBTITLETRANSLIT:;
#ARTISTTRANSLIT:;
#CREDIT:;
#BANNER:Sonic Forces_bn.png;
#BACKGROUND:Sonic Forces_bg.png;
#LYRICSPATH:;
#CDTITLE:;
#MUSIC:Sonic Forces - Main Theme.ogg;
#OFFSET:-0.040;
#SAMPLESTART:51.107;
#SAMPLELENGTH:18.800;
#SELECTABLE:YES;
#BPMS:0.000=217.001;
#STOPS:;
#BGCHANGES:;

//---------------dance-single - ----------------
#NOTES:
     dance-single:
     :
     Easy:
     5:
     0.332,0.451,0.196,0.135,0.000: // measure 1
1000
0000
0001
0000
,  // measure 2
1000
0000
0010
0100
,  // measure 3
0100
0000
0010
0000
,  // measure 4
0100
0000
0010
1000
,  // measure 5
1000
0000
0001
0000
,  // measure 6
1000
0000
0001
0010
,  // measure 7
0001
0000
0000
0100
0000
0000
0000
0110
,  // measure 8
0000
0000
0000
0000
,  // measure 9
1000
0000
0000
0010
0000
0000
0000
0110
,  // measure 10
0000
0000
0000
0110
0000
0000
0000
0000
,  // measure 11
0001
0000
0000
0010
0000
0000
0000
0110
,  // measure 12
0000
0000
0000
0000
,  // measure 13
1000
0001
1000
0001
,  // measure 14
2000
0000
3000
0000
,  // measure 15
0001
0100
0100
0100
,  // measure 16
0100
0100
0000
0000
,  // measure 17
1000
0100
0100
0100
,  // measure 18
1000
0001
0010
0000
,  // measure 19
0001
0100
0100
0100
,  // measure 20
0100
0100
0000
0000
,  // measure 21
0000
0001
1000
0001
,  // measure 22
1000
0000
0000
0000
,  // measure 23
0001
0100
0100
0100
,  // measure 24
0100
0010
0000
0000
,  // measure 25
1000
0100
0100
1000
,  // measure 26
0010
0100
0100
0000
,  // measure 27
0001
0100
0100
0100
,  // measure 28
0100
0010
0000
0000
,  // measure 29
0000
1000
0001
1000
,  // measure 30
0001
0000
1000
0000
,  // measure 31
0001
0000
0000
1000
0000
0000
0000
1001
,  // measure 32
0000
0000
0000
0000
,  // measure 33
1000
0000
0000
0001
0000
0000
0000
1001
,  // measure 34
0000
0000
0000
1001
0000
0000
0000
0000
,  // measure 35
0010
0000
0000
0100
0000
0000
0000
0110
,  // measure 36
0000
0000
0000
0000
,  // measure 37
0010
0010
0010
0010
,  // measure 38
0100
0100
0100
0100
,  // measure 39
0001
0000
1001
0000
,  // measure 40
1000
0000
1010
0000
,  // measure 41
0010
0000
0110
0000
,  // measure 42
0100
0000
0101
0000
,  // measure 43
0001
0001
0001
0001
,  // measure 44
1000
1000
1000
1000
,  // measure 45
0000
0001
0000
0000
0100
0000
0000
0010
,  // measure 46
0000
0010
0000
0000
1000
0000
0000
0000
,  // measure 47
1001
0000
0000
0000
0000
0000
0000
0002
,  // measure 48
0000
0103
0100
0100
,  // measure 49
0100
0000
0000
0100
0000
0000
0000
0010
,  // measure 50
0000
1000
1000
1000
,  // measure 51
2000
0000
0000
3001
0000
0000
0000
0020
,  // measure 52
0000
0031
0001
0001
,  // measure 53
0002
0000
0000
0013
0000
0001
0000
2000
,  // measure 54
0000
0000
0000
0000
0000
3000
0000
0000
,  // measure 55
1000
0000
0001
0000
1001
0000
0000
1020
,  // measure 56
0000
0130
0100
0100
,  // measure 57
0200
0000
0000
0301
0000
0000
0000
0012
,  // measure 58
0000
0103
0100
0100
,  // measure 59
0200
0000
0000
0310
0000
0000
0000
0000
,  // measure 60
1000
0000
0000
0010
0000
0000
1000
0000
,  // measure 61
0001
0000
0000
0010
0000
0000
0000
0000
,  // measure 62
0001
0000
0000
0100
0000
0000
0010
0000
,  // measure 63
1000
0000
0001
0000
,  // measure 64
0200
0000
0000
0000
,  // measure 65
0000
0000
0000
0000
,  // measure 66
0000
0000
0000
0000
,  // measure 67
0000
0000
0000
0000
,  // measure 68
0300
0000
0000
0000
;

//---------------dance-single - Copied from----------------
#NOTES:
     dance-single:
     Copied from:
     Medium:
     7:
     0.553,0.574,0.416,0.416,0.000:
1000
0010
0000
0100
0000
0010
0000
0100
,
0000
0010
0000
1000
0100
0000
1000
0000
,
0001
0100
0000
0010
0000
0100
0000
0010
,
0000
0100
0000
0001
0010
0001
0010
0000
,
0001
1000
0000
0100
0000
0010
0000
0100
,
0000
0010
0000
0001
0100
0000
0010
0000
,
1010
0000
1000
0200
0000
0310
0001
0200
,
0000
0001
0001
0301
,
0101
0000
0001
0020
0000
0130
1000
0010
,
0000
0010
1000
0200
0000
0300
0000
0000
,
1100
0000
1000
0010
0000
0100
0001
0010
,
0000
0010
0001
0200
0000
0300
0100
0010
,
1000
1000
1000
1000
,
0001
0000
0001
0000
0001
1000
0001
1000
,
0010
0100
0100
0100
,
0100
0000
0010
2000
0000
3000
0000
0000
,
0001
1000
0100
0000
0100
0000
0100
0000
,
0010
0000
0010
0001
0010
0001
0000
0000
,
1000
0100
0100
0100
,
0100
0000
1000
0002
0000
0003
0000
0000
,
0000
0011
0101
1010
,
1100
0000
0000
0000
,
1020
0100
0100
0100
,
0130
0000
0010
1000
0000
0000
0000
0000
,
0001
0020
0000
0000
0031
0100
0001
0200
,
0000
0000
0310
1000
0001
1000
0000
0000
,
2010
0100
3100
0010
,
0011
0000
0001
1000
0000
0000
0000
0000
,
0000
1100
1010
0101
,
0011
0000
0000
0000
,
0011
0000
1000
0020
0000
0130
0001
0020
,
0000
0000
0001
0000
0001
0000
0001
0030
,
0011
0000
0001
0200
0000
0310
1000
0100
,
0000
0100
0010
0001
0000
0000
0000
0000
,
1010
0000
1000
0200
0000
0310
0001
0200
,
0000
0000
0010
0000
0010
0000
0310
1000
,
0001
0001
0001
0001
,
1000
1000
1000
1000
,
1010
0000
0101
0000
,
0011
0001
0100
0000
,
0101
0000
1010
0000
,
1100
1000
0010
0000
,
0100
0100
0100
0100
,
0010
0010
0010
0010
,
0000
1000
0100
0000
1000
0001
0000
0010
,
0000
0001
0100
0000
0010
0010
0000
0000
,
1001
0000
0000
0000
0000
0000
0000
1010
,
0000
1000
0010
0000
0010
1000
0200
0000
,
0310
0000
0001
0100
0000
0000
0000
0101
,
0000
0001
0010
0000
0010
0001
0200
0000
,
0310
2000
0000
3100
0000
0000
0000
0021
,
0000
0001
0001
0100
,
0031
0000
1000
0010
0000
1000
0000
2002
,
0000
0000
0000
3003
,
1000
0000
0001
0000
0010
0001
0000
0011
,
0000
0001
0100
0000
0100
0001
0020
0000
,
0130
0000
1000
0010
0000
0000
0000
1010
,
0000
1000
0100
0000
0100
1000
0020
0000
,
0130
0002
0000
0013
0000
0000
0000
0000
,
1200
0000
0000
2300
0000
0000
3001
0000
,
0021
0000
0000
0032
0000
0000
0103
0000
,
0120
0000
0000
2030
0000
0000
3100
0000
,
2100
0000
3002
0000
,
0203
0000
0000
0000
,
0000
0000
0000
0000
,
0000
0000
0000
0000
,
0000
0000
0000
0000
,
0300
0000
0000
0000
;

//---------------dance-single - Copied from Copied f----------------
#NOTES:
     dance-single:
     Copied from Copied f:
     Hard:
     9:
     0.743,0.738,0.392,0.441,0.067:
1000
0001
1000
0000
0001
0000
0010
0000
0000
0000
0100
0000
0000
0000
0010
0000
,
0000
0000
0100
0000
0000
0000
0010
0000
0001
0010
0001
0000
1000
0000
0001
0000
,
0100
0001
0100
0000
0001
0000
1000
0000
0000
0000
0010
0000
0000
0000
1000
0000
,
0000
0000
0010
0000
0000
0000
1000
0000
0100
1000
0100
0000
1000
0000
0001
0000
,
0010
0001
0010
0000
0001
0000
0100
0000
0000
0000
0010
0000
0000
0000
0100
0000
,
0000
0010
0000
1000
0002
0000
1003
0000
,
1001
0001
0100
0020
0000
1030
0100
0120
,
0000
0000
0001
0000
0100
0000
0001
0030
,
0011
0001
0100
0010
0000
0010
1000
0200
,
0000
0310
0001
1001
0000
0000
0000
0000
,
1001
1000
0010
0200
0000
0301
0010
0200
,
0000
1300
0001
1001
0000
0000
0001
1000
,
0010
1000
0010
1000
0100
0010
0100
0010
,
0001
0100
0010
1000
0100
0010
0001
1000
,
0002
0000
1003
0100
1000
0100
1000
0100
,
0010
0001
0100
0010
0000
0000
0000
0000
,
0010
1000
0100
1000
0100
1000
0100
0010
,
0001
0010
0100
1000
0001
0001
0000
0000
,
1000
0001
0100
0001
0100
0001
0100
0010
,
1000
0100
0010
0001
0000
0000
0000
0000
,
0000
0011
1010
1100
,
0101
0000
0000
0000
,
0001
0100
1000
0100
0001
0100
1000
0100
,
0001
0010
0100
1000
0000
0000
0000
0000
,
0000
1000
0100
0001
0100
1000
0010
0001
,
0010
1000
0100
0001
0100
1000
0000
0000
,
0001
0100
1000
0100
0001
0100
1000
0100
,
0001
0010
0100
0020
0000
0000
0030
0000
,
0000
0011
0101
1100
,
1010
0000
1001
0000
,
1010
1000
0100
0200
0000
0310
0001
0200
,
0000
0310
1000
0010
1000
0100
0010
0000
,
0011
0001
0100
0020
0000
1030
0100
0020
,
0000
0031
0100
0020
0000
0030
0000
0000
,
1010
1000
0001
0020
0000
0031
0100
0020
,
0000
0030
0000
0000
0000
0000
1000
0001
,
0100
1000
0100
0001
0010
1000
0010
0001
,
0100
0010
0001
0010
0100
0001
1000
0000
,
0010
0010
1000
0200
0000
0320
0000
0031
,
1000
0001
0100
0000
0110
0000
1000
0000
,
0001
0001
1000
0020
0000
0230
0000
0301
,
0010
0100
0010
0000
0011
0000
1000
0000
,
0001
1000
0100
1000
0001
1000
0100
1000
,
0001
0010
0100
0010
0001
0010
0100
0020
,
0000
0031
0001
0000
0100
0100
0000
0010
,
0000
0000
0000
1000
0000
0000
1000
0000
0001
0000
1000
0000
0001
0000
1000
0000
0010
0000
1000
0000
0100
0000
0010
0000
,
0001
0000
0000
0000
0000
0000
0000
1010
,
0000
1000
0100
0001
0100
1000
0100
0010
,
0002
0000
1003
0001
0000
0000
0000
0011
,
0000
0001
0100
1000
0100
0001
0010
1000
,
0010
0002
0000
1003
0000
0000
0000
1020
,
0000
2030
3200
0320
,
0032
0000
0103
0010
0000
1000
0000
2002
,
0000
0000
0000
0000
0000
3003
0000
0000
,
1010
0000
1100
0000
0101
0101
0000
0011
,
0000
0001
1000
0010
0001
0010
1000
0100
,
0020
0000
0031
1000
0000
0000
0000
1100
,
0000
1000
0010
0001
0010
1000
0100
0001
,
0100
2000
0000
3001
0000
0000
0000
0000
,
0011
0000
0001
0200
0000
0000
0310
0000
,
1010
0000
1000
0200
0000
0000
0310
0000
,
0001
0100
1000
0100
0001
0010
1000
0010
,
0002
0000
2003
0000
,
3020
0000
0100
0100
,
0000
0001
0001
0000
,
1000
1000
0000
0100
,
0100
0000
1000
0001
,
0030
0000
0000
0000
;
