#TITLE:SUPER EUROBEAT ;
#SUBTITLE:;
#ARTIST:DAVE RODGERS feat. FUTURA;
#TITLETRANSLIT:;
#SUBTITLETRANSLIT:;
#ARTISTTRANSLIT:;
#CREDIT:;
#BANNER:SUPER EUROBEAT GOLD MIX.png;
#BACKGROUND:;
#LYRICSPATH:;
#CDTITLE:CD_Title.png;
#MUSIC:SUPER EUROBEAT (GOLD MIX).mp3;
#OFFSET:-0.795;
#SAMPLESTART:56.096;
#SAMPLELENGTH:15.000;
#SELECTABLE:YES;
#DISPLAYBPM:154.000;
#BPMS:0.000=154.000,208.000=154.000;
#STOPS:;
#BGCHANGES:0.000=Super Eurobeat.avi=1.000=0=0=1,
99999=-nosongbg-=1.000=0=0=0 // don't automatically add -songbackground-
;

//---------------dance-single - Copied from----------------
#NOTES:
     dance-single:
     Copied from:
     Challenge:
     9:
     0.750,0.685,1.000,0.199,0.347:
0000
0000
0000
0000
,
0000
0000
0000
0000
,
0000
0000
0000
0000
,
0000
0000
0000
0000
0000
0000
0110
0001
,
0000
0001
0000
0001
0000
0001
0110
1000
,
0000
1000
0000
1000
0000
1000
0110
0001
,
0000
0001
0000
0001
0000
0001
0220
0000
,
0000
0000
0000
0000
0000
0000
0000
0000
0330
0000
0000
0000
1001
0000
1000
0100
,
0000
0100
0010
0000
0001
0000
0010
0000
0100
0000
1000
0000
1001
0000
0001
0010
,
0000
0010
0100
0000
1100
0000
0110
0000
0011
0000
0000
0000
1001
0000
1000
0100
,
0000
0100
0010
0000
0001
0010
0001
0010
0100
1000
0100
1000
0010
0000
0000
0200
,
0000
0000
0310
1000
0100
0000
0000
0020
0000
0000
0130
1000
0010
0000
1000
0100
,
0000
0100
0010
0000
0001
0000
0010
0000
0100
0000
1000
0000
1001
0000
0001
0010
,
0000
0010
0100
0000
1100
0000
0110
0000
0011
0000
0000
0000
1001
0000
0001
0010
,
0000
0010
0100
0000
1000
0100
1000
0100
0010
0001
0010
0001
0100
0000
0000
0020
,
0000
0000
1030
0010
0100
0000
0000
0110
0000
0000
0000
0000
1010
0000
1000
0100
,
0000
0010
0001
0000
0100
0000
0010
0000
1000
0000
0001
0000
0101
0000
0001
0100
,
0000
0010
1000
0000
0010
0000
0100
0000
0001
0000
1000
0000
1010
0000
0010
0100
,
0000
0001
1000
0000
0100
0000
0010
0000
0001
0000
0100
0000
0101
0000
0100
0010
,
0000
1000
0001
0000
0010
0000
0100
0000
1000
0000
0010
0000
1010
0000
0001
0100
,
0000
1000
0100
0000
0010
0000
1000
0000
0100
0000
0010
0000
0011
0000
1000
0010
,
0000
0001
0010
0000
0100
0000
1000
0000
0010
0000
0100
0000
0101
0000
1000
0010
,
0000
0001
0010
0000
0100
0000
0001
0000
0010
0000
0100
0000
1100
0000
0001
0010
,
0000
1000
0010
0000
0100
0000
1000
0000
1001
0000
0000
0000
0002
0000
0000
0000
,
0103
0110
0000
1000
0110
0000
0001
0110
,
0000
1000
0110
0000
1001
0000
0010
0000
,
1001
0100
0000
1001
0010
0000
1001
0100
,
0000
1001
0010
0000
0110
0000
0011
0000
,
0000
1100
0000
0000
0011
0000
0000
1100
,
0000
0000
1001
0000
0110
0000
2000
0100
,
3100
0200
0010
0310
0020
0001
0031
0002
,
0100
0103
0101
0001
0101
0002
0010
0013
,
0020
0100
0130
0200
1000
1300
2000
0010
,
3010
1010
1000
1010
1000
0002
0100
0100
,
0100
0100
0100
0100
0100
0100
0103
0101
,
0000
1001
0000
0000
0000
0000
1000
0100
,
1010
0000
0001
0010
0101
0000
1000
0010
,
0101
0001
1000
0100
1100
0000
0001
0010
,
1100
0000
1000
0100
0011
0000
1000
0010
,
0100
0001
0011
0110
1100
0000
0010
0100
,
0011
0000
0100
0010
1100
0000
0001
0100
,
1010
1000
0010
0100
0101
0000
0001
1000
,
0110
0000
1000
0001
0110
0000
0001
1000
,
0010
0100
0101
0110
1100
0000
0110
1000
,
1001
0000
0110
0001
1001
0000
0001
0100
,
0110
1000
0010
0100
0101
0000
1100
0010
,
0101
0000
0011
0100
1010
0000
1000
0010
,
0100
0001
0011
0101
0110
0000
1010
0101
,
0010
0000
0101
1010
0100
0000
0010
1000
,
0110
0001
0100
0010
1100
0000
0101
1000
,
0001
0000
1010
0001
1000
0000
0001
0100
,
0010
0000
1000
0000
1100
0000
0110
0000
0011
0000
0000
0000
1001
0000
0001
0010
,
0000
0010
0100
0000
1000
0000
0100
0000
0010
0000
0001
0000
1001
0000
1000
0100
,
0000
0100
0010
0000
0011
0000
0110
0000
1100
0000
0000
0000
1001
0000
0001
0010
,
0000
0010
0100
0000
1000
0100
1000
0100
0010
0001
0010
0001
0100
0000
0000
0020
,
0000
0000
0130
0001
0010
0000
0000
0200
0000
0000
0310
0001
0100
0000
0001
0010
,
0000
0010
0100
0000
1000
0000
0100
0000
0010
0000
0001
0000
1001
0000
1000
0100
,
0000
0100
0010
0000
0011
0000
0110
0000
1100
0000
0000
0000
1001
0000
1000
0100
,
0000
0100
0010
0000
0001
0010
0001
0010
0100
1000
0100
1000
0010
0000
0000
0200
,
0000
0000
0301
0100
0010
0000
0000
0220
0000
0000
0000
0000
0000
0000
0000
0000
,
0330
0000
0000
0000
;

//---------------dance-double - Copied from Copied from----------------
#NOTES:
     dance-double:
     Copied from Copied from:
     Challenge:
     9:
     0.710,0.633,0.854,0.129,0.347: // measure 1
00000000
00000000
00000000
00000000
,  // measure 2
00000000
00000000
00000000
00000000
,  // measure 3
00000000
00000000
00000000
00000000
,  // measure 4
00000000
00000000
00000000
00000000
00000000
00000000
00011000
01000000
,  // measure 5
00000000
01000000
00000000
01000000
00000000
01000000
00011000
00000100
,  // measure 6
00000000
00000100
00000000
00000100
00000000
00000100
00011000
01000000
,  // measure 7
00000000
01000000
00000000
01000000
00000000
01000000
00022000
00000000
,  // measure 8
00000000
00000000
00000000
00000000
00033000
00000000
00000000
00000000
00000000
00000000
00000000
00000000
10010000
00000000
10000000
01000000
,  // measure 9
00000000
01000000
00100000
00000000
00010000
00000000
00100000
00000000
00001000
00000000
00010000
00000000
00000100
00000000
00001000
00000010
,  // measure 10
00000000
00000010
00000100
00000000
00000101
00000000
00010100
00000000
01010000
00000000
00000000
00000000
01100000
00000000
00100000
10000000
,  // measure 11
00000000
10000000
01000000
00000000
01000000
00100000
01000000
00100000
10000000
00010000
10000000
00010000
01000000
00000000
00000000
00100000
,  // measure 12
00000000
00000000
01000000
00001000
00010000
00000000
00000000
00001000
00000000
00000000
00010000
00000010
00000100
00000000
00000100
00000001
,  // measure 13
00000000
00000001
00000010
00000000
00000100
00000000
00010000
00000000
00001000
00000000
01000000
00000000
00100000
00000000
10000000
01000000
,  // measure 14
00000000
01000000
00100000
00000000
00110000
00000000
00011000
00000000
00001010
00000000
00000000
00000000
00000010
00000000
00000100
00000001
,  // measure 15
00000000
00000001
00000010
00000000
00000100
00000010
00000100
00000010
00000001
00001000
00000001
00001000
00000010
00000000
00000000
00001000
,  // measure 16
00000000
00000000
00000100
00010000
00001000
00000000
00000000
00011000
00000000
00000000
00000000
00000000
00011000
00000000
00001000
00100000
,  // measure 17
00000000
00100000
01000000
00000000
10000000
00000000
00100000
00000000
01000000
00000000
00001000
00000000
00011000
00000000
00010000
00000100
,  // measure 18
00000000
00000100
00000010
00000000
00000001
00000000
00000100
00000000
00000010
00000000
00010000
00000000
00011000
00000000
00001000
01000000
,  // measure 19
00000000
01000000
00100000
00000000
10000000
00000000
01000000
00000000
00100000
00000000
00001000
00000000
00011000
00000000
00010000
00000010
,  // measure 20
00000000
00000010
00000100
00000000
00000001
00000000
00000010
00000000
00000100
00000000
00000000
00000000
00000110
00000000
00000100
00010000
,  // measure 21
00000000
00010000
00001000
00000000
00100000
00000000
01000000
00000000
10000000
00000000
00100000
00000000
01100000
00000000
01000000
00001000
,  // measure 22
00000000
00001000
00010000
00000000
00000100
00000000
00001000
00000000
00000010
00000000
00000100
00000000
00000110
00000000
00000010
00010000
,  // measure 23
00000000
00010000
00001000
00000000
01000000
00000000
00100000
00000000
10000000
00000000
01000000
00000000
01100000
00000000
00100000
00001000
,  // measure 24
00000000
00001000
00010000
00000000
00000100
00000000
00010000
00000000
00011000
00000000
00000000
00000000
00011000
00000000
00000000
00000000
,  // measure 25
00001000
01100000
00000000
10000000
01100000
00000000
00100000
00011000
,  // measure 26
00000000
00010000
00001100
00000000
00001001
00000000
00000011
00000000
,  // measure 27
00000001
00000110
00000000
00010000
00000110
00000000
00000010
00011000
,  // measure 28
00000000
01000000
00011000
00000000
10010000
00000000
10100000
00000000
,  // measure 29
00000000
01010000
00000000
00000000
00101000
00000000
00000000
00010100
,  // measure 30
00000000
00000000
00001010
00000000
00001001
00000000
00000020
00000001
,  // measure 31
00000031
00000200
00000010
00000310
00002000
00000100
00003100
00020000
,  // measure 32
00001000
00031000
00100000
00001000
01000000
01000000
00200000
10000000
,  // measure 33
10300000
02000000
00100000
03100000
00200000
00001000
00301000
00020000
,  // measure 34
00000100
00030100
00001000
00000010
00000100
00000001
00002000
00000010
,  // measure 35
00000010
00000010
00000010
00000010
00000010
00003010
00000000
00001010
,  // measure 36
00000000
00011000
00000000
00000000
00000000
00000000
00001000
01000000
,  // measure 37
01100000
00000000
00010000
00000100
00000110
00000000
00000001
00001000
,  // measure 38
00001001
00000001
00000100
00001000
00011000
00000000
00001000
00100000
,  // measure 39
01100000
00000000
00010000
00000010
00000110
00000000
00000100
00000000
,  // measure 40
00000001
00001000
00000011
00001010
00101000
00000000
01000000
00001000
,  // measure 41
00011000
00000000
00000010
00010000
00011000
00000000
10000000
00010000
,  // measure 42
10010000
10000000
01000000
00010000
00011000
00000000
00000010
00010000
,  // measure 43
00000110
00000000
00100000
00001000
01100000
00000000
10000000
00010000
,  // measure 44
00000000
10001000
00000000
00010001
00000000
00000000
00000010
00000100
,  // measure 45
00011000
00000000
01000000
00100000
00011000
00000000
00000010
00000100
,  // measure 46
00000110
00000001
00001000
00100000
01100000
00000000
01000000
00100000
,  // measure 47
00011000
00000000
00000010
00000100
00011000
00000000
01000000
00100000
,  // measure 48
01100000
10000000
11000000
01010000
00010100
00000000
00000010
00000001
,  // measure 49
00011000
00000000
10000000
01000000
00011000
00000000
00000001
00000100
,  // measure 50
00000110
00000010
00001000
01000000
01100000
00000000
00100000
00001000
,  // measure 51
00000110
00000000
00000010
00001000
01100000
00000000
00100000
00010000
,  // measure 52
10010000
00000000
10000000
00000000
01000000
00000000
00010000
00000000
00011000
00000000
00000000
00000000
00001001
00000000
00000001
00000010
,  // measure 53
00000000
00000010
00000100
00000000
00001000
00000000
00000100
00000000
00010000
00000000
00001000
00000000
00100000
00000000
00010000
01000000
,  // measure 54
00000000
01000000
00100000
00000000
10100000
00000000
00101000
00000000
00001010
00000000
00000000
00000000
00000110
00000000
00000100
00000001
,  // measure 55
00000000
00000001
00000010
00000000
00000010
00000100
00000010
00000100
00000001
00001000
00000001
00001000
00000010
00000000
00000000
00000100
,  // measure 56
00000000
00000000
00000010
00010000
00001000
00000000
00000000
00010000
00000000
00000000
00001000
01000000
00100000
00000000
00100000
10000000
,  // measure 57
00000000
10000000
01000000
00000000
00100000
00000000
00001000
00000000
00010000
00000000
00000010
00000000
00000100
00000000
00000001
00000010
,  // measure 58
00000000
00000010
00000100
00000000
00001100
00000000
00011000
00000000
01010000
00000000
00000000
00000000
01000000
00000000
00100000
10000000
,  // measure 59
00000000
10000000
01000000
00000000
00100000
01000000
00100000
01000000
10000000
00010000
10000000
00010000
01000000
00000000
00000000
00010000
,  // measure 60
00000000
00000000
00100000
00001000
00010000
00000000
00000000
00022000
00000000
00000000
00000000
00000000
00000000
00000000
00000000
00000000
,  // measure 61
00000000
00000000
00000000
00033000
;
