#TITLE:STARS;
#SUBTITLE:(Ryu_Remix RRver.);
#ARTIST:Another Infinity feat. Mayumi Morinaga;
#TITLETRANSLIT:;
#SUBTITLETRANSLIT:;
#ARTISTTRANSLIT:;
#CREDIT:;
#BANNER:Stars (Ryu Remix)_bn.png;
#BACKGROUND:Rainbow Rainbow.png;
#LYRICSPATH:;
#CDTITLE:XeniSys 87 Logo.png;
#MUSIC:STARS (Ryu_Remix RRver.).mp3;
#OFFSET:0.420;
#SAMPLESTART:36.600;
#SAMPLELENGTH:12.100;
#SELECTABLE:YES;
#BPMS:0.000=180.500,44.000=181.000,76.000=181.000;
#STOPS:;
#BGCHANGES:;

//---------------dance-single - Copied from----------------
#NOTES:
     dance-single:
     Copied from:
     Hard:
     9:
     0.677,0.722,0.056,0.224,0.007:
0000
0000
0000
0000
,
1000
0100
1000
0000
0001
0010
0001
0000
,
0100
0010
0100
0010
1000
0001
1000
0000
,
0001
0010
0001
0000
1000
0100
1000
0000
,
0010
0100
0001
0010
0100
0000
0000
0000
,
1000
0100
1000
0000
0001
0010
0001
0000
,
0100
0010
0100
0010
1000
0001
1000
0001
,
0200
0000
0000
0000
0310
0000
1000
0000
0100
0000
0000
0010
0000
0000
0001
0000
,
2000
0000
0000
0000
3100
0000
1000
0000
0010
0000
0000
0100
0000
0000
0001
0000
,
2000
0000
0000
0000
,
3000
0000
0000
0000
,
0001
0100
0001
0100
1000
0100
1000
0100
,
0001
0100
1000
0100
0001
0010
0100
0000
,
1000
0100
1000
0100
0001
0100
0001
0100
,
1000
0100
0001
0100
1000
0001
0100
0000
,
0100
0010
0100
0010
1000
0010
1000
0010
,
0100
0010
1000
0010
0100
0001
1000
0000
,
0100
0010
0100
0010
0001
0010
0001
0010
,
0100
0010
0001
0010
0100
1000
0001
0000
,
1002
0000
1003
0010
0100
0001
0010
0000
,
0011
0001
0100
0010
0110
0110
0110
0000
,
2000
0000
3100
0010
0001
0010
0200
0000
,
0301
0010
0100
1000
0100
0010
0002
0000
,
0203
0000
0310
1000
0010
0100
0002
0000
,
0103
0010
1000
0001
0100
0010
2000
0000
,
3002
0000
0013
0100
1000
0100
0020
0000
,
0130
1000
0010
0100
0001
0010
0100
1000
,
0002
0203
0320
1030
,
1000
0100
1000
0100
0010
0001
0010
0001
,
0100
0010
0100
0010
1000
0001
1000
0001
,
0010
0100
1000
0001
0010
0100
1000
0001
,
0010
0001
1000
0100
0020
0000
0030
0000
,
0001
0010
0001
0010
0100
1000
0100
1000
,
0010
0100
0010
0100
0001
1000
0001
1000
,
0100
0010
0001
1000
0100
0010
0100
1000
,
0002
0000
0103
0010
1000
0100
0010
0001
,
0200
0000
0000
0000
0000
0000
0000
0300
,
0000
0000
0000
0000
,
0100
0010
0100
0010
1000
0001
1000
0001
,
0100
0010
0100
0010
1000
0001
1000
0001
,
0100
0001
0010
0100
1000
0100
0010
0001
,
1000
0010
0100
0001
2000
0000
3000
0000
,
0001
1000
0001
1000
0010
0100
0010
0100
,
0001
1000
0001
1000
0010
0100
0010
0100
,
0001
0010
0100
1000
0100
0010
0001
1000
,
0020
0000
0000
0030
,
1000
0100
0010
0100
1000
0100
0010
0100
,
0010
0001
0010
0100
0010
0001
0010
0100
,
0010
0001
0100
1000
0100
0001
0100
1000
,
0100
0001
1000
0100
0001
0000
0000
0000
,
0001
0010
0100
0010
0001
0010
0100
0010
,
0100
1000
0100
0010
0100
1000
0100
0010
,
0100
1000
0010
0001
0010
1000
0001
0010
,
2000
0000
0000
0000
,
3002
0000
0000
0000
,
0203
0000
1300
0010
0001
0010
1000
0000
,
0100
0100
1000
0010
0001
0010
1000
0000
,
0010
0000
1000
0100
0001
0100
1000
0000
,
0010
0010
1000
0100
0001
0100
1000
0000
,
0001
0000
0001
0010
1000
0010
0001
0000
,
1000
1000
0001
0010
1000
0010
0001
0000
,
1000
0000
1000
0010
0001
0010
1000
0000
,
1000
1000
0010
0001
0010
1000
0001
0010
,
2000
0000
0000
0000
,
3020
0000
0000
0000
,
0031
0100
0001
0100
0010
0100
0010
0100
,
1000
0100
1000
0100
0010
0100
0010
0100
,
0001
0100
0001
0100
0010
0100
0010
0100
,
1000
0100
0010
0100
0001
0010
1000
0001
,
0100
1000
0100
1000
0100
0010
0100
0010
,
0100
0001
0100
0001
0100
0010
0100
0010
,
0100
1000
0100
1000
0100
0010
0100
0001
,
0100
0010
0100
1000
0010
0100
0001
0010
,
0001
0010
0001
0010
0001
0100
0001
0100
,
0001
1000
0001
1000
0001
0100
0001
0100
,
0001
0010
0001
0010
0001
0100
0001
1000
,
0001
0100
0010
1000
0001
0010
0100
1000
,
1000
0100
1000
0100
1000
0010
1000
0010
,
1000
0001
1000
0001
1000
0010
1000
0010
,
1000
0100
1000
0100
1000
0010
1000
0001
,
1000
0010
1000
0100
0010
0001
0100
0000
,
0001
0100
0001
0100
0010
0100
0010
0100
,
1000
0100
1000
0100
0010
0100
0010
0100
,
0001
0100
0010
0100
1000
0100
0010
0100
,
0001
0010
1000
0010
0001
0000
0000
0000
,
1000
0100
1000
0100
0010
0100
0010
0100
,
0001
0100
0001
0100
0010
0100
0010
0100
,
1000
0100
1000
0100
0010
0100
0001
0100
,
0010
0100
1000
0010
0001
0010
1000
0000
,
0002
0000
0000
0000
,
1003
1100
1001
0011
,
0001
0100
1000
0100
0001
0100
1000
0100
,
0001
0010
1000
0010
0100
0000
0000
0000
,
1000
0010
0001
0010
1000
0010
0001
0010
,
1000
0100
0001
0100
1000
0100
0001
0100
,
1000
0010
0001
0010
1000
0100
0001
0100
,
0020
0000
0031
0100
0010
1000
0100
0010
,
0002
0000
0000
0000
,
0203
0000
0000
0000
,
0320
0000
0000
0000
,
2030
0000
3001
1000
,
0002
0000
0000
0000
,
0000
0000
0000
0000
,
0003
0000
0000
0000
;

//---------------dance-single - Copied from Copied f----------------
#NOTES:
     dance-single:
     Copied from Copied f:
     Medium:
     8:
     0.501,0.578,0.224,0.140,0.000:
0000
0000
0000
0000
,
1000
0100
1000
1000
,
0001
0010
0001
0001
,
1000
0001
1000
1000
,
0010
0100
0001
0000
,
0001
0010
0001
0001
,
1000
0100
1000
1000
,
0010
0100
0001
0001
,
2000
0000
3010
0100
,
0002
0000
0000
0000
,
0003
0000
0000
0000
,
1000
0100
1000
0100
,
0010
0000
0001
0000
0010
0001
0010
0000
,
0001
0100
0001
0100
,
0010
0000
1000
0000
0010
1000
0010
0000
,
1000
0001
1000
0001
,
0100
0000
0010
0000
0100
0010
0100
0000
,
0001
1000
0001
1000
,
0100
0000
0010
0000
0100
0010
0100
0000
,
0002
0000
0000
0000
0000
0000
0000
0003
,
1001
0000
1001
0000
0100
0010
0100
0000
,
0011
0000
0011
0000
0100
1000
0100
0000
,
1100
0000
1100
0000
0010
0001
0010
0000
,
1010
0000
1010
0000
0100
0001
0100
0000
,
0101
0000
0101
0000
0010
1000
0010
0000
,
1010
0000
1001
0000
0001
1000
0100
0000
,
0101
0000
1001
0000
1000
0010
1000
0001
,
0200
0000
0300
0000
,
0010
0000
0010
1000
0100
0000
0100
0010
,
0001
0000
0001
0100
0010
0000
0010
1000
,
0001
0000
0001
0100
0010
0000
0010
1000
,
0100
0000
0100
1000
0001
0000
0000
0000
,
0010
0000
0010
0100
1000
0000
0010
0100
,
0001
0000
1000
0010
0100
0000
0100
0001
,
0010
0000
0010
0100
1000
0000
0010
0100
,
0001
0000
0000
1000
0001
0000
1000
0001
,
0020
0000
0000
0000
,
0230
0000
0000
0000
,
1300
0100
1000
0000
1000
0100
1000
0000
,
0001
0100
0001
0000
0001
0100
0001
0000
,
1000
0100
1000
0000
0001
0100
0001
0000
,
1000
0100
0010
0001
0100
0000
0000
0000
,
0001
0010
0001
0000
0001
0010
0001
0000
,
1000
0010
1000
0000
1000
0010
1000
0000
,
0001
0010
0001
0000
1000
0010
1000
0001
,
0200
0000
0300
0000
,
0010
1000
0010
0000
0010
1000
0010
0000
,
0010
0001
0010
0000
0010
0001
0010
0000
,
0010
1000
0010
0000
0010
0001
0010
0000
,
0010
1000
0001
0010
0100
0000
0000
0000
,
0100
1000
0100
0000
0100
1000
0100
0000
,
0100
0001
0100
0000
0100
0001
0100
0000
,
0100
1000
0100
0000
0100
0001
0100
1000
,
0020
0000
0000
0000
,
0230
0000
0000
0000
,
0301
0000
1000
0001
1000
0001
1000
0000
,
0010
0000
0100
0010
0100
0010
0100
0000
,
0001
0000
1000
0100
1000
0100
1000
0000
,
0010
0000
0100
0001
0100
0001
0100
0000
,
0001
0000
1000
0100
0010
0100
1000
0000
,
1000
0000
0001
0010
0100
0010
0001
0000
,
0100
0000
0010
1000
0001
1000
0010
0000
,
0100
0010
0100
0010
1000
0001
1000
0001
,
0200
0000
0000
0000
,
0300
0000
0000
0000
,
0010
1000
0010
0010
,
0100
0001
0100
0100
,
0001
1000
0001
0001
,
0100
0010
1010
1001
,
0011
0010
0001
0001
,
1000
0010
1000
1000
,
0001
0100
0001
0001
,
1000
0010
1010
1001
,
0001
0011
1000
1010
,
0001
0000
0011
0000
1000
0010
0100
0000
,
0001
0101
1000
1100
,
0001
0000
0101
0000
1000
0010
0100
0001
,
0010
1010
0010
0011
,
0010
0000
1010
0000
0010
0001
0100
0000
,
1100
0100
0101
0100
,
1100
0000
0101
0000
0100
0001
0010
0000
,
0100
1000
0100
0000
0100
0001
0100
0000
,
0010
0001
0010
0000
0010
1000
0010
0000
,
0100
1000
0100
0000
0010
0001
0010
0000
,
0100
1000
0100
0010
0001
0000
0000
0000
,
0100
0001
0100
0000
0100
1000
0100
0000
,
0010
0001
0010
0000
0010
1000
0010
0000
,
0100
0001
0100
0000
0100
1000
0100
0001
,
0020
0000
0000
0130
0010
0100
1000
0010
,
0200
0000
0000
0000
,
0300
0000
0000
0000
,
0010
1000
0100
0000
0010
0001
0100
0000
,
0010
1000
0100
0010
0001
0000
0000
0000
,
1000
0001
0100
0000
0001
1000
0100
0000
,
1000
0001
0100
0000
0001
1000
0100
0000
,
0010
0001
0100
0000
0010
1000
0100
0000
,
0020
0000
0000
0100
0230
0000
0320
0000
,
0032
0000
0000
0000
,
0203
0000
0000
0000
,
0320
0000
0000
0000
,
2030
0000
3001
1000
,
0002
0000
0000
0000
,
0000
0000
0000
0000
,
0003
0000
0000
0000
;

//---------------dance-single - Copied from Copied f----------------
#NOTES:
     dance-single:
     Copied from Copied f:
     Easy:
     5:
     0.378,0.505,0.133,0.231,0.000:
0000
0000
0000
0000
,
1000
0000
0001
0000
,
1000
0000
0001
0000
,
0100
0000
0010
0000
,
0100
0000
0010
0000
,
1000
0000
0100
0000
,
0010
0000
0001
0000
,
0200
0000
0310
1000
,
0002
0000
1003
0010
,
0200
0000
0000
0000
,
0300
0000
0000
0000
,
0010
1000
0010
1000
,
0010
0100
0010
0100
,
0001
0010
0001
0010
,
0100
1000
0100
1000
,
0010
0100
0010
0100
,
0001
1000
0001
1000
,
0100
0010
0100
0010
,
0001
0100
0001
0100
,
0002
0000
0000
0000
,
1003
1000
1000
1001
,
0001
1000
0001
0001
,
1000
0001
1000
1000
,
0010
0100
0010
0010
,
0100
0010
0100
0100
,
0001
1000
0100
0100
,
1000
0010
0100
0001
,
1001
0000
0000
0000
,
0001
0010
0001
0001
,
1000
0010
1000
1000
,
0010
0100
0010
0010
,
1000
0001
0100
0000
,
0001
1000
0100
0100
,
1000
0001
0010
0010
,
0001
1000
0100
0010
,
1001
0000
0001
0100
,
0020
0000
0000
0000
,
0030
0000
0000
0000
,
0100
1000
0100
0100
,
0010
0001
0100
0100
,
0010
1000
0001
0001
,
0100
0010
1010
0000
,
1000
0001
0100
0100
,
0001
1000
0010
0010
,
1000
0001
0010
0100
,
1001
0000
0000
0000
,
1000
0001
0100
0100
,
0001
1000
0010
0010
,
1000
0001
0010
0010
,
0001
1000
1010
0000
,
0001
0100
0010
0010
,
1000
0001
0100
0100
,
0001
1000
0010
0100
,
2002
0000
0000
0000
,
3003
0000
0000
0000
,
1000
0100
0001
0100
,
1000
0100
0001
0100
,
1000
0010
0001
0010
,
1000
0010
0001
0010
,
1000
0100
0001
0100
,
1000
0010
0001
0010
,
1000
0100
0010
0001
,
0100
1000
0100
0001
,
0020
0000
0000
0000
,
0030
0000
0000
0000
,
0100
0100
0100
0100
,
0010
1000
0001
0100
,
0001
0001
0001
0001
,
1000
0010
0100
0001
,
1000
1000
1000
1000
,
0010
0100
0001
1000
,
0010
0010
0010
0010
,
0100
0001
1000
0100
,
1000
1100
0100
1100
,
1000
0100
0010
0001
,
0100
0101
0001
0101
,
0100
0010
1000
0001
,
0010
0110
0100
0110
,
0010
0001
1000
0001
,
0100
0110
0010
0110
,
0100
0001
1000
1001
,
2000
3200
0320
0032
,
0103
0010
1000
0001
,
0020
0230
2300
3002
,
0103
0010
1001
0000
,
0200
0320
2030
3002
,
0103
0010
1000
0001
,
0020
0230
2300
3002
,
0103
0010
1000
0001
,
2000
0000
0000
0000
,
3000
0000
0000
0000
,
0002
0010
1000
0013
,
0001
1000
1100
0000
,
2000
0010
0001
3010
,
1000
0001
0010
0100
,
0020
0001
1000
0001
,
0230
0000
1000
0310
,
0120
0000
0000
0000
,
0030
0000
0000
0000
,
2000
0000
0000
0000
,
3002
0000
1003
1000
,
2000
0000
0000
0000
,
0000
0000
0000
0000
,
3000
0000
0000
0000
;

//---------------dance-single - Copied from Copied f----------------
#NOTES:
     dance-single:
     Copied from Copied f:
     Beginner:
     2:
     0.195,0.248,0.014,0.000,0.000:
0000
0000
0000
0000
,
1000
0000
1000
0000
,
1000
0000
1000
0000
,
0001
0000
0001
0000
,
0001
0000
0001
0000
,
0100
0000
0100
0000
,
0100
0000
0100
0000
,
0010
0000
0010
0000
,
0010
0000
0010
0000
,
0010
0000
0000
0000
,
0000
0000
0000
0000
,
1000
0000
1000
0000
,
1000
0000
1000
0000
,
0001
0000
0001
0000
,
0001
0000
0001
0000
,
0100
0000
0100
0000
,
0100
0000
0100
0000
,
0010
0000
0010
0000
,
0010
0000
0010
0000
,
1000
0000
0000
0000
,
0001
0001
0001
0000
,
1000
0000
0001
0000
,
1000
0000
0001
0000
,
0100
0000
0010
0000
,
0100
0000
0010
0000
,
1000
0000
0010
0000
,
1000
0000
0010
0000
,
0100
0000
0001
0000
,
0100
0000
0001
0000
,
1000
0000
0100
0000
,
1000
0000
0010
0000
,
0100
0000
0001
0000
,
1000
0000
0001
0000
,
0100
0000
0010
0000
,
1000
0000
0001
0000
,
1000
0000
0010
0000
,
0100
0000
0001
0000
,
1000
0000
0001
0000
,
0100
0000
0010
0000
,
1000
0000
0001
0000
,
0100
0000
0001
0000
,
0100
0000
0010
0000
,
1000
0000
0100
0000
,
0010
0000
0001
0000
,
0100
0000
0010
0000
,
1000
0000
0000
0000
,
0001
0000
0100
0000
,
0010
0000
1000
0000
,
0100
0000
0010
0000
,
0001
0000
0100
0000
,
0001
0000
1000
0000
,
0100
0000
0010
0000
,
0001
0000
0100
0000
,
0010
0000
0000
0000
,
0100
0000
0000
0000
,
0010
0010
0010
0000
,
1000
1000
1000
0000
,
0001
0001
0001
0000
,
0100
0100
0100
0000
,
0001
0001
0001
0000
,
1000
1000
1000
0000
,
0010
0010
0010
0000
,
0100
0100
0100
0000
,
0110
0000
0000
0000
,
0000
0000
0000
0000
,
1000
0000
1000
0000
,
0001
0000
0100
0000
,
0001
0000
0001
0000
,
0100
0000
0010
0000
,
1000
0000
1000
0000
,
0010
0000
0100
0000
,
0001
0000
0001
0000
,
1000
0000
0010
0000
,
0100
0000
0100
0000
,
0010
0000
1000
0000
,
0010
0000
0010
0000
,
0100
0000
0001
0000
,
1000
0000
1000
0000
,
0001
0000
0100
0000
,
0010
0000
0010
0000
,
1000
0000
0001
0000
,
1000
0000
1000
0000
,
0001
0000
0001
0000
,
0100
0000
0100
0000
,
0010
0000
1000
0000
,
0001
0000
0001
0000
,
0100
0000
0100
0000
,
0010
0000
0010
0000
,
1000
0000
0001
0000
,
1001
0000
0000
0000
,
0000
0000
0000
0000
,
1000
0000
0100
0000
,
1000
0000
0010
0000
,
0100
0000
0001
0000
,
0010
0000
0001
0000
,
1000
0000
0100
0000
,
1000
0000
0001
0000
,
0100
0000
0000
0000
,
0010
0000
0000
0000
,
1000
0000
0000
0000
,
0001
0000
0000
0000
,
1000
0000
0000
0000
;

//---------------dance-single - Copied from Copied from Copied f----------------
#NOTES:
     dance-single:
     Copied from Copied from Copied f:
     Challenge:
     9:
     0.751,0.794,1.000,0.554,0.568: // measure 1
0000
0000
0000
0000
,  // measure 2
1000
0000
0000
0100
0000
0000
1000
0000
0001
0000
0000
0010
0000
0000
0001
0000
,  // measure 3
0100
0000
0000
0010
0000
0000
0100
0000
0001
0000
0000
1000
0000
0000
0001
0000
,  // measure 4
1000
0000
0000
0010
0000
0000
0100
0000
0001
0000
0000
0010
0000
0000
0100
0000
,  // measure 5
0010
0000
0000
0001
0000
0000
1000
0000
0001
0000
0000
0000
0000
0000
0000
0000
,  // measure 6
1000
0000
0000
0100
0000
0000
0001
0000
0100
0000
0000
1000
0000
0000
0010
0000
,  // measure 7
0001
0000
0000
0010
0000
0000
1000
0000
0100
0000
0000
0001
0000
0000
0100
0000
,  // measure 8
0010
0000
0000
0001
0000
0000
0100
0000
1000
0000
0000
0100
0000
0000
0001
0000
,  // measure 9
0020
0000
0000
0000
0000
0000
0130
0010
0100
0000
0000
1000
0000
0000
0010
0000
,  // measure 10
0200
0000
0000
0000
,  // measure 11
0300
0000
0000
0000
,  // measure 12
0001
0000
0000
0000
1000
0000
0000
0000
1010
0000
0000
0011
0000
0000
0201
0000
,  // measure 13
0000
0000
1000
0000
0000
0010
0000
0000
0320
0000
0000
0001
0000
0000
0130
0000
,  // measure 14
1010
0000
0000
0000
0001
0000
0000
0000
0101
0000
0000
0011
0000
0000
1020
0000
,  // measure 15
0000
0000
0001
0000
0000
0100
0000
0000
0230
0000
0000
1000
0000
0000
0310
0000
,  // measure 16
0101
0000
0000
0000
1000
0000
0000
0000
1010
0000
0000
0101
0000
0000
1020
0000
,  // measure 17
0000
0000
0001
0000
0000
1000
0000
0000
0230
0000
0000
0001
0000
0000
1300
0000
,  // measure 18
1100
0000
0000
0000
1001
0000
0000
0000
0011
0000
0000
1010
0000
0000
1200
0000
,  // measure 19
0000
0000
0001
0000
0000
1000
0300
0000
1020
0000
0000
0000
0000
0000
0030
0000
,  // measure 20
2000
0000
0000
0000
3001
0000
0100
0000
0010
1000
0000
1001
0000
0000
0000
0000
,  // measure 21
0110
0000
1000
0001
0000
0100
0010
0000
0100
0000
0110
0000
1001
0000
0000
0000
,  // measure 22
2000
0000
0000
0000
3100
0000
0010
0000
0001
0100
0000
0010
0000
0000
0000
0000
,  // measure 23
1000
0000
0001
0010
0000
0001
0100
0000
0010
0000
1000
0000
0002
0000
0000
0000
,  // measure 24
0203
0000
0000
0000
0310
0000
1000
0000
0001
0010
0000
0110
0000
0000
0000
0000
,  // measure 25
0010
0000
0001
0100
0000
0010
0000
0000
1000
0000
0100
0000
0020
0000
0000
0000
,  // measure 26
0031
0000
0000
0000
0100
0000
0010
0000
1000
0100
0000
1100
0000
0000
0000
0000
,  // measure 27
1000
0000
0001
0100
0000
0000
0010
0000
1000
0000
0100
0000
0010
0000
0001
0000
,  // measure 28
0200
0000
0000
0300
,  // measure 29
0101
0000
0000
0001
0000
0000
1000
0000
1100
0000
0000
1000
0000
0000
0001
0000
,  // measure 30
0101
0000
0000
0100
0000
0000
0010
0000
1010
0000
0000
1000
0000
0000
0100
0000
,  // measure 31
0110
0000
0000
0001
0000
0000
1000
0000
0110
0000
0000
1000
0000
0000
0001
0000
,  // measure 32
0101
0000
0000
1000
0000
0000
0100
0000
1100
0000
0000
0000
0000
0000
0000
0000
,  // measure 33
1010
0000
0000
1010
0000
0000
1000
0000
0101
0000
0000
0101
0000
0000
0001
0000
,  // measure 34
0110
0000
0000
0110
0000
0000
0010
0000
1010
0000
0000
1010
0000
0000
1000
0000
,  // measure 35
0101
0000
0000
1001
0000
0000
1000
0000
1010
0000
0000
1001
0000
0000
0001
0000
,  // measure 36
0200
0000
0000
0000
0000
0000
0310
0100
0010
0000
0000
1000
0000
0000
0001
0000
,  // measure 37
0020
0000
0000
0030
,  // measure 38
0001
0000
1000
0001
0000
1000
0000
0001
1000
0000
0001
0000
1000
0000
0000
0000
,  // measure 39
0020
0000
0000
1000
0000
0000
0130
0000
2000
0000
0000
0001
0000
0000
3010
0000
,  // measure 40
0002
0000
0000
0010
0000
0000
1003
0000
0020
0000
0000
0001
0000
0000
0130
0000
,  // measure 41
2000
0000
0000
0010
0000
0000
3001
0000
0020
0000
0000
0001
0000
0000
0130
0000
,  // measure 42
0002
0000
0000
1000
0000
0000
0010
0000
1003
0000
0000
0000
0000
0000
0000
0000
,  // measure 43
0200
0000
0000
0001
0000
0000
0310
0000
0002
0000
0000
1000
0000
0000
0103
0000
,  // measure 44
2000
0000
0000
0100
0000
0000
3001
0000
0200
0000
0000
1000
0000
0000
0310
0000
,  // measure 45
0002
0000
0000
0100
0000
0000
1003
0000
0200
0000
0000
1000
0000
0000
0310
0000
,  // measure 46
2000
0000
3000
0000
,  // measure 47
0002
0000
0000
1000
0000
0000
0010
0000
0010
0000
0000
1000
0000
0000
0010
0000
,  // measure 48
2003
0000
0000
0100
0000
0000
0001
0000
0001
0000
0000
0100
0000
0000
0001
0000
,  // measure 49
3020
0000
0000
0001
0000
0000
0100
0000
0100
0000
0000
0001
0000
0000
0100
0000
,  // measure 50
0032
0000
0000
1000
0000
0000
0010
0000
0203
0000
0000
0300
0000
0000
0000
0000
,  // measure 51
0020
0000
0000
1000
0000
0000
0100
0000
0100
0000
0000
0001
0000
0000
1000
0000
,  // measure 52
0032
0000
0000
0010
0000
0000
1000
0000
1000
0000
0000
0010
0000
0000
0100
0000
,  // measure 53
2003
0000
0000
0001
0000
0000
0010
0000
0001
0000
0000
0100
0000
0000
0010
0000
,  // measure 54
3002
0000
0000
0000
,  // measure 55
2003
0000
3000
0000
,  // measure 56
1100
0000
0000
0000
1000
0000
0001
0000
0010
0001
0000
0011
0000
0000
0000
0000
,  // measure 57
0101
0000
0001
0100
0000
0010
1000
0000
0100
0000
0010
0001
0000
0000
0000
0000
,  // measure 58
1010
0000
0010
0000
1000
0000
0100
0000
0010
0001
0000
1010
0000
0000
0000
0000
,  // measure 59
0101
0000
0001
1000
0000
0100
1000
0000
0010
0000
0100
0001
0000
0000
0000
0000
,  // measure 60
0101
0000
0101
0000
0001
0000
1000
0000
0100
1000
0000
1001
0000
0000
0000
0000
,  // measure 61
1010
0000
1000
0010
0000
0100
0001
0000
0010
0000
0001
1000
0000
0000
0000
0000
,  // measure 62
1020
0000
0000
0000
0001
0000
1030
0000
0100
0010
0000
0110
0000
0000
0000
0000
,  // measure 63
0011
0000
0001
1000
0000
0100
1000
0000
0010
0000
0100
0000
0001
0000
0010
0000
,  // measure 64
0200
0000
0000
0000
,  // measure 65
0300
0000
0000
0000
,  // measure 66
1000
0000
0000
0000
0001
0000
0000
0000
0101
0000
0000
1100
0000
0000
1020
0000
,  // measure 67
0000
0000
0001
0000
0000
0100
0000
0000
0230
0000
0000
1000
0000
0000
0310
0000
,  // measure 68
0101
0000
0000
0000
1000
0000
0000
0000
1010
0000
0000
1100
0000
0000
0201
0000
,  // measure 69
0000
0000
1000
0000
0000
0010
0000
0000
0320
0000
0000
0001
0000
0000
0130
0000
,  // measure 70
1010
0000
0000
0000
0001
0000
0000
0000
0101
0000
0000
1010
0000
0000
0201
0000
,  // measure 71
0000
0000
1000
0000
0000
0001
0000
0000
0320
0000
0000
1000
0000
0000
0031
0000
,  // measure 72
0011
0000
0000
0000
1001
0000
0000
0000
1100
0000
0000
0101
0000
0000
0021
0000
,  // measure 73
0000
0000
1000
0000
0000
0001
0030
0000
0201
0000
0000
1000
0000
0000
0301
0000
,  // measure 74
1100
0000
0000
0000
0101
0000
0000
0000
1100
0000
0000
0011
0000
0000
1200
0000
,  // measure 75
0000
0000
0001
0000
0000
0310
0000
0000
1020
0000
0000
0001
0000
0000
1030
0000
,  // measure 76
1010
0000
0000
0000
0011
0000
0000
0000
1010
0000
0000
0101
0000
0000
1020
0000
,  // measure 77
0000
0000
0001
0000
0000
0100
0000
0000
0032
0000
0000
0010
0000
0000
1003
0000
,  // measure 78
1100
0000
0000
0000
1010
0000
0000
0000
1100
0000
0000
0101
0000
0000
2100
0000
,  // measure 79
0000
0000
0001
0000
0000
0010
0000
0000
3120
0000
0000
0001
0000
0000
1030
0000
,  // measure 80
0011
0000
0000
0000
1001
0000
0000
0000
0011
0000
0000
1010
0000
0000
0012
0000
,  // measure 81
0000
0000
1000
0000
0000
0010
0000
0003
0220
0000
0000
0000
0330
0000
0000
0000
,  // measure 82
1010
0000
0000
1000
0000
0000
1010
0000
0101
0000
0000
0001
0000
0000
0101
0000
,  // measure 83
1001
0000
0000
1000
0000
0000
1001
0000
0110
0000
0000
0010
0000
0000
0110
0000
,  // measure 84
1010
0000
0000
0001
0000
0000
1010
0000
0011
0000
0000
1000
0000
0000
0011
0000
,  // measure 85
1001
0000
0000
0010
0000
0000
1001
0000
1100
0000
0000
0000
0000
0000
0000
0000
,  // measure 86
0101
0000
0000
1000
0000
0000
0101
0000
1010
0000
0000
0001
0000
0000
1010
0000
,  // measure 87
0110
0000
0000
1000
0000
0000
0110
0000
1001
0000
0000
0010
0000
0000
1001
0000
,  // measure 88
1100
0000
0000
0001
0000
0000
0101
0000
1001
0000
0000
0010
0000
0000
1001
0000
,  // measure 89
2000
0000
0000
0000
0000
0000
3001
1000
0001
0000
0000
0100
0000
0000
0010
0000
,  // measure 90
2002
0000
0000
0000
,  // measure 91
3003
0000
0000
0000
,  // measure 92
0201
0000
0000
1000
0000
0000
0310
0000
1200
0000
0000
0001
0000
0000
0310
0000
,  // measure 93
0012
0000
0000
1000
0000
0000
0010
0000
1103
0000
0000
0000
0000
0000
0000
0000
,  // measure 94
1020
0000
0000
0001
0000
0000
1030
0000
1200
0000
0000
0001
0000
0000
1300
0000
,  // measure 95
0120
0000
0000
0001
0000
0000
1030
0000
1200
0000
0000
0010
0000
0000
0301
0000
,  // measure 96
2010
0000
0000
0001
0000
0000
3100
0000
0102
0000
0000
1000
0000
0000
0013
0000
,  // measure 97
2002
0000
0000
0000
0000
3003
0010
0100
0010
0000
0000
1000
0000
0000
0001
0000
,  // measure 98
0210
0000
0000
0000
0310
0000
1000
0000
0001
0010
0000
0110
0000
0000
0000
0000
,  // measure 99
1001
0000
0001
0010
0000
0100
1000
0000
0010
0000
0100
0010
0000
0000
0000
0000
,  // measure 100
0120
0000
0000
0000
1030
0000
0001
0000
0100
0010
0000
1001
0000
0000
0000
0000
,  // measure 101
0110
0000
0001
1000
0000
0100
0010
0000
0100
0000
1001
0000
0120
0000
0001
0000
,  // measure 102
2000
0030
0000
0000
0000
0000
0000
0000
,  // measure 103
0000
0000
0000
0000
,  // measure 104
3000
0000
0000
0000
;
