#TITLE:SEITEN NO TERIYAKI;
#SUBTITLE:;
#ARTIST:Kobaryo;
#TITLETRANSLIT:;
#SUBTITLETRANSLIT:;
#ARTISTTRANSLIT:;
#CREDIT:;
#BANNER:SnT_bn.png;
#BACKGROUND:SnT_bg.png;
#LYRICSPATH:;
#CDTITLE:CD_Title.png;
#MUSIC:SEITEN NO TERIYAKI - Kobaryu.mp3;
#OFFSET:0.438;
#SAMPLESTART:10.040;
#SAMPLELENGTH:14.020;
#SELECTABLE:YES;
#DISPLAYBPM:273.000;
#BPMS:0.000=68.250,12.000=273.000,40.500=545.996,42.500=273.000,72.500=545.996,74.000=273.000,76.000=136.500,80.000=273.000,88.000=136.500,92.000=273.000,100.000=136.500,102.625=273.000,103.000=136.500,103.250=273.000,105.000=136.500,105.500=273.000,107.000=136.500,107.500=273.000,109.000=136.500,109.250=68.250,109.500=273.000,110.000=273.000,141.500=136.500,170.000=545.996,171.000=273.000,171.500=136.500,172.000=273.000,204.000=68.249,206.000=136.500,214.000=68.249,215.000=545.996,216.500=273.000,281.500=136.500,289.500=17.000,290.000=68.000,291.000=136.500,293.000=273.500,325.000=273.000,330.500=545.997,333.000=272.999,339.000=1092.003,343.000=272.999,359.000=136.499,359.500=68.248,360.875=319.998,361.000=319.999;
#STOPS:40.500=0.100
,41.500=0.120
,72.500=0.100
,73.500=0.070
,100.000=0.225
,100.250=0.225
,100.688=0.100
,100.750=0.225
,101.000=0.230
,101.438=0.100
,101.500=0.230
,101.750=0.225
,102.188=0.100
,102.250=0.315
,102.500=0.320
,103.000=0.235
,103.250=0.115
,105.000=0.230
,105.250=0.110
,107.000=0.230
,107.250=0.110
,109.000=0.330
,109.250=0.115
,109.450=0.095
,156.000=0.220
,156.250=0.220
,163.500=0.110
,163.750=0.110
,170.000=0.155
,170.500=0.155
,171.000=0.110
,215.000=0.170
,215.500=0.170
,216.000=0.170
,330.250=0.040
,330.440=0.080
,330.563=0.150
,340.500=0.120
,342.500=0.120
;
#BGCHANGES:;

//---------------dance-single - ----------------
#NOTES:
     dance-single:
     :
     Beginner:
     3:
     0.135,0.403,0.036,0.134,0.013:
0000
0000
0000
0000
,
1000
0100
0010
0001
,
2000
0000
3002
0000
,
1003
0000
0000
0000
,
0000
0000
0000
0000
,
0001
0000
0000
0000
,
0000
0000
0000
0000
,
0100
0000
0000
0000
,
0000
0000
0000
0000
,
0010
0000
0000
0000
,
0000
0000
0000
0000
,
1000
0000
0000
0000
,
0000
0000
0000
0000
,
0001
0000
0000
0000
,
0000
0000
0000
0000
,
0100
0000
0000
0000
,
0000
0000
0000
0000
,
0010
0000
0000
0000
,
0000
0000
0000
0000
,
1000
0000
0000
0000
,
0010
0000
0000
0000
,
0000
0000
0000
0000
,
0100
0000
0000
0000
,
0001
0000
0000
0000
,
0010
0000
0000
0000
,
2000
0000
0000
3002
0000
0000
2003
0000
0000
3001
1000
0000
0020
0000
0000
0000
,
0000
0230
0000
0320
,
0000
0000
0000
0000
1030
0001
1000
0000
0000
0000
0000
0000
0000
0000
0000
0000
,
0000
0000
0000
0000
,
0000
0000
0000
0001
0000
0000
0000
0000
,
0000
0000
0000
0000
,
0000
0000
0000
0100
0000
0000
0000
0000
,
0000
0000
0000
0000
,
0000
0000
0000
0010
0000
0000
0000
0000
,
0000
0000
0000
0000
,
0000
0000
0000
1000
0000
0000
0000
0100
,
0000
0000
0000
1000
0000
0000
0000
0001
,
0000
0000
0000
0010
0000
0000
0000
0001
,
0000
0000
0000
1000
0000
0000
0000
0010
,
0000
0100
0000
0100
0000
0000
0000
0010
,
0000
0000
0000
1000
0000
0000
0000
0001
,
1000
0000
0010
0000
,
0100
0000
0001
0000
,
1001
0000
0000
0000
,
0000
0000
0000
0000
,
0101
0000
0000
0000
,
0000
0000
0000
0000
,
1010
0000
0000
0000
,
0000
0000
0000
0000
,
1001
0000
0000
0000
,
0000
0000
0000
0000
,
0001
1000
0020
0000
,
2030
0000
3001
0000
,
0000
0000
0200
0000
,
0000
0000
0000
0310
0000
0000
0000
0000
,
0000
0000
0000
0000
,
0000
0000
0000
1000
0000
0000
0000
0000
,
0000
0000
0000
0000
,
0000
0000
0000
0001
0000
0000
0000
0000
,
0000
0000
0000
0000
,
0000
0000
0000
0010
0000
0000
0000
0000
,
0000
0000
0000
0000
,
0000
0000
0000
0001
0000
0000
0000
0000
,
0000
0000
0000
0000
,
0000
0000
0000
1000
0000
0000
0000
0000
,
0000
0000
0000
0000
,
0000
0000
0000
0010
0000
0000
0000
0000
,
0000
0000
0000
0000
,
0000
0000
0000
0100
0000
0000
0000
0000
,
0000
0000
0000
0000
,
0000
0000
0000
0001
0000
0000
0000
0000
,
0000
0000
0000
1000
0000
0000
0000
0000
,
0000
0000
0000
0002
1003
0000
0020
0000
,
0000
0030
0100
0000
0000
0000
0000
0000
,
0000
0000
0000
0000
,
0000
0010
0000
0000
,
0000
0000
0000
0000
,
0000
1000
0000
0000
,
0000
0000
0000
0000
,
0000
0001
0000
0000
,
0000
0000
0000
0000
,
0000
1000
0000
0000
,
0000
0001
0000
0000
,
0000
1000
0000
0000
,
0000
0002
0000
0000
,
0000
0000
0000
1003
,
0000
0000
0000
0001
,
0000
0000
0000
1000
,
0000
0000
0000
0001
,
0000
0000
0000
0200
,
0000
0000
0000
0310
0000
0000
0000
0000
;

//---------------dance-single - Copied from----------------
#NOTES:
     dance-single:
     Copied from:
     Easy:
     5:
     0.406,0.564,0.000,0.374,0.040:
0000
0000
0000
0000
,
0001
0010
0100
1000
,
0002
0000
0000
0000
2003
0000
0001
3001
,
1000
0000
0010
0000
,
0100
0000
0001
0000
,
1000
0000
0001
0000
,
1000
0000
0001
1000
,
0100
0000
1000
0000
,
0010
0000
0100
0000
,
0001
0000
0010
0000
,
0001
0000
0000
1000
0000
0000
0001
0000
,
1000
0000
0010
0000
,
0100
0000
0001
0000
,
1000
0000
0100
0000
,
1000
0000
0001
1000
,
0010
0000
1000
0000
,
0001
0000
0100
0000
,
0010
0000
1000
0000
,
0001
0000
0000
0100
0000
0000
0001
0000
,
1000
0100
0010
0001
,
2000
0000
0000
0000
,
3002
0000
0000
0000
,
0103
0010
1000
0001
,
0200
0000
0000
0000
,
0302
0000
0000
0000
,
2003
0000
0000
3020
0000
0000
0230
0000
0000
0301
1000
0020
0000
0000
0000
0000
,
2030
0000
3002
0003
2000
0000
3002
0000
,
0023
0000
0000
0000
0031
1000
0001
0000
0000
0000
0000
0000
0000
0000
0010
0000
,
0000
0000
0000
0001
0000
0000
0000
1000
,
0000
0000
0000
0010
0000
0000
0000
1000
,
0000
0000
0000
0100
0000
0000
0000
0010
,
0000
0000
0000
0001
0000
0000
0000
1000
,
0000
0000
0000
0010
0000
0000
0000
0100
,
0000
0000
0000
0002
0000
0000
0000
0000
,
0000
0000
0000
0003
0000
0000
0000
0000
,
0000
0000
0000
1000
0000
0001
0000
0100
,
0001
0100
0000
0010
0000
1000
0000
0100
,
1000
0100
0000
0010
0000
0001
0000
1000
,
0010
1000
0000
0001
0000
0100
0000
0010
,
1000
1000
0001
0000
0000
0000
1000
0000
0000
0000
0010
0000
0100
0000
0010
0000
,
0000
0000
1000
0000
0000
0000
0001
0000
0000
0000
0010
0000
0100
0000
1000
0001
,
1000
0000
0010
0000
1000
0001
1000
0000
,
0020
0000
0000
0000
0100
0100
0130
0010
,
1000
0000
0001
0000
0200
0000
0000
0001
,
0000
0301
0000
0000
0000
0000
0000
0000
,
0001
0000
1000
0000
0200
0000
0000
1000
,
0000
1300
0000
0000
0000
0000
0000
0000
,
0010
0000
0100
0000
0002
0000
0000
1000
,
0000
1003
0001
1000
,
0020
0000
0000
0030
0200
0000
0000
0302
,
0000
1003
0000
0000
,
1000
0100
0010
0001
2000
0000
0000
0000
,
3001
1000
0010
0100
,
0001
0000
1000
0000
0020
0000
0100
0100
,
0130
0010
0000
1000
0000
0001
0000
0020
,
0000
0001
0031
0000
,
0000
1000
0000
0001
0000
1000
0000
0200
,
0000
1000
1300
0000
,
0000
0010
0000
0100
0000
0001
0000
0020
,
0000
0000
0230
0000
0000
1300
0000
0010
,
0000
0100
0000
0002
0000
0000
0003
2000
,
0000
0000
3020
0000
0000
0130
0000
0000
,
0000
0000
0000
0100
0000
0010
0000
2000
,
0000
0100
3100
0000
,
0000
0100
0000
1000
0000
0010
0000
0200
,
0000
0001
0301
0000
,
0000
1000
0000
0002
0000
0000
0000
0010
,
0000
0000
0000
1000
0000
0000
0000
0100
,
0000
0000
0000
2003
0000
0000
0000
0010
,
0000
0000
0000
3001
0000
0010
0000
0100
,
0000
1000
0000
0001
0000
0010
0000
0001
,
0000
0100
0000
0010
0000
1000
0000
0100
,
0000
0010
0000
0002
1003
0010
0200
0010
,
0010
0310
1000
0000
0001
0000
0100
0000
,
0000
0010
1000
0001
,
0000
0100
0001
0010
,
0000
0100
1000
0010
,
0000
1000
0001
0100
,
0000
0001
1000
0100
,
0000
1000
0010
0100
,
0000
0001
0010
0100
,
1000
0001
1000
0001
,
0000
0000
1000
0000
0020
0100
0030
0000
,
0000
0100
0010
1000
,
0000
0010
0100
0002
,
0000
00M0
0000
0000
0000
0M00
1003
0000
,
0001
0100
0000
0010
,
1000
0100
0000
0010
,
0001
1000
0001
0010
,
0100
0000
0000
0000
1000
0000
0000
0000
0000
0000
0000
0000
0001
0000
0010
0002
,
0000
1000
0013
2000
0000
0000
3001
0000
0000
0000
0000
0000
0000
0000
0000
0000
;

//---------------dance-single - Copied from Copied f----------------
#NOTES:
     dance-single:
     Copied from Copied f:
     Medium:
     8:
     0.622,0.846,0.160,0.357,0.147:
0000
0000
0000
0000
,
1000
0000
0010
1000
0010
0000
0100
0000
0001
0000
0010
0001
0010
0000
0001
0000
,
2000
0000
0000
0000
0000
0000
0000
0000
3020
0000
0000
0000
0100
0100
0100
0130
,
0010
1000
0001
1000
,
0010
0100
0001
0010
,
0100
1000
0001
1000
,
0010
0000
0100
0000
0001
1000
0001
1000
,
0001
0010
0001
1000
,
0010
1000
0001
0010
,
0100
1000
0010
0100
,
0001
1000
0000
0010
0000
1000
0001
1000
,
0001
0100
0001
1000
,
0010
0100
0001
0010
,
0100
1000
0010
0100
,
0001
0000
1000
0000
0010
0100
0010
0100
,
0010
1000
0100
0010
,
0100
1000
0001
0100
,
0010
1000
0000
0001
0000
0010
0001
0000
,
1000
0010
0000
0100
0000
0001
1000
0001
,
1000
0010
1000
0100
0010
0001
0100
0000
,
0020
0000
0000
0000
,
2030
0000
0000
0000
,
3100
0010
0001
1000
0001
0010
0100
1000
,
0020
0000
0000
0000
,
2030
0000
0000
0000
,
3001
0010
0001
1000
0010
1000
0001
0010
0001
1000
0001
1000
0000
0020
0000
0000
,
0230
0000
0000
0000
0302
2003
0000
0000
3200
0000
0000
0000
2300
3002
0000
0000
,
0203
0000
0000
0000
0000
0000
0000
0000
0320
0000
1030
0001
1000
0000
0000
0000
0000
0000
0000
0000
0010
0000
0000
0000
0000
0000
0000
0000
1000
0000
0000
0000
,
0000
0100
0000
0010
0000
0001
0000
0100
,
0000
0001
0000
1000
0000
0010
0000
1000
,
0000
0100
0000
0010
0000
0001
0000
0100
,
0000
0001
0000
1000
0000
0010
0000
0100
,
0000
0001
0000
0010
0000
0100
0000
0010
,
0000
0001
0000
2000
0000
0010
0000
0010
,
0000
0010
3000
0002
0000
0100
0000
0100
,
0000
0100
0003
1001
0000
1100
0000
0010
,
0001
1000
0000
1001
0000
0101
0000
0001
,
1000
0100
0000
1010
0000
1100
0000
0010
,
0001
0100
0000
0101
0000
0011
0000
1000
,
0010
0010
0200
0000
0000
0000
0310
0000
1000
0000
0100
0000
0010
0000
0001
0000
,
0000
0000
0021
0000
0000
0000
0031
0000
0100
0000
0010
0000
1000
0000
0100
0010
,
0012
0000
0013
0100
1000
0010
0100
0001
,
2000
0000
0000
0000
0001
0001
3001
1000
,
1001
0000
0001
0000
0100
0020
0000
1000
,
0000
1030
0000
0000
0000
0000
1000
0000
,
1010
0000
0010
0000
1000
0002
0000
0010
,
0000
0013
0000
0000
0000
0000
0001
0000
,
1001
0000
1000
0000
0010
0100
0000
0110
,
0000
0010
1000
0100
,
0020
0000
0000
0031
0010
0001
0010
0002
,
0000
2003
0000
3001
,
1000
0000
0010
0000
1000
0001
0000
0010
0000
0002
0000
0000
0000
0000
1003
0010
1000
0000
0000
0000
0010
0000
0000
0000
0100
0000
0001
0000
0000
0000
0010
0000
,
0000
0002
0000
0000
0000
0003
1000
0000
0020
0000
0000
0000
0100
0000
0000
0000
,
0001
0000
0100
0000
2030
3000
1100
1100
,
1100
1000
0000
0001
0000
0010
0000
0001
,
0000
0100
0000
0010
0000
1000
0000
0001
,
0000
1000
0001
0010
0000
0001
0000
1000
,
0000
0001
0000
0100
0000
0010
0000
1000
,
0000
0001
1000
0100
0000
1000
0000
0010
,
0000
0100
0000
0001
0000
0010
0000
0100
,
0000
0010
0000
0001
0000
1000
0000
0010
,
1000
0001
1000
0000
0000
1001
0000
0000
,
0000
0000
0000
0001
0000
0010
0000
0001
,
0000
0100
0000
0010
0000
1000
0000
0001
,
0000
0010
0001
1000
0000
0010
0000
1000
,
0000
0100
0000
0010
0000
0001
0000
1000
,
0000
0010
0000
0100
0010
0000
0010
1000
,
0000
1000
0100
0000
0100
0010
0000
0001
,
0000
1000
0000
0002
0000
0000
0000
0000
,
0000
0000
0000
0103
0000
0010
0000
1000
,
0001
1000
0001
2000
0000
3010
1000
0000
,
1000
0100
0000
0010
0001
0100
1000
0100
,
0001
0010
0100
2000
3002
0100
2003
0010
,
0010
3010
1000
0000
0010
0000
1000
0000
,
0100
0010
0001
0100
,
0010
1000
0001
0000
0100
0000
0001
0000
,
0010
0100
1000
0010
,
1000
0001
0100
0000
0010
0000
1000
0000
,
0100
0010
0100
1000
,
0001
1000
0010
0000
0100
0000
0001
0000
,
1000
0001
0010
0100
,
1000
0010
0100
0000
0001
0000
0010
0000
,
0100
0000
0000
0000
0000
0000
0000
0000
0000
0000
0000
0000
0000
0000
0000
0000
1000
0000
0000
0000
0000
0000
0000
0000
0000
0000
0000
0000
0000
0000
0000
0000
0001
0000
0000
0000
0000
0000
0000
1000
0002
0000
0000
0000
0000
0000
0000
0000
0000
0000
0000
0000
0000
0000
0000
0000
0000
0000
0000
0000
0000
0000
0000
0000
,
0000
1003
0010
0100
,
0001
0000
1000
0001
1000
0001
2000
0000
,
0000
3002
0000
0013
,
0001
0010
0100
1000
,
0010
1000
0100
0010
,
0001
1000
0001
0010
,
0100
0000
0000
0000
0000
0000
0000
0000
1000
0000
0000
0000
0000
0000
0000
0000
0010
0000
0000
0000
0000
0000
0000
0000
2000
0000
0000
0000
3010
0000
1000
0100
,
1000
0001
0000
0010
0001
0100
0002
0000
0000
0000
0000
0000
1003
0000
0000
0000
0000
0000
0000
0000
0000
0000
0000
0000
0000
0000
0000
0000
0000
0000
0000
0000
;

//---------------dance-single - Copied from Copied f----------------
#NOTES:
     dance-single:
     Copied from Copied f:
     Hard:
     10:
     0.899,1.000,0.294,0.321,0.361:
0000
0000
0000
0000
,
0001
0000
0100
0000
0010
0000
1000
0010
1000
0000
0100
0000
0010
0000
0001
0000
0100
0000
0010
0000
1000
0000
0100
1000
0200
0000
0310
0000
0002
0000
0103
0000
,
0020
0000
0000
0000
0000
0000
0000
0000
2030
0000
0000
0000
0001
0001
0001
0001
,
3001
0000
0100
0000
0001
0010
0001
0100
,
0000
0010
1000
0100
1000
0010
0100
0001
,
0010
0100
1000
0001
0000
0100
0000
0001
,
1000
0010
1000
0100
0010
0001
0100
0001
,
1000
0000
0010
0000
1000
0010
1000
0100
,
0000
0010
0001
0100
0001
1000
0010
1000
,
0100
0010
0001
1000
0000
0001
0100
0010
,
1000
0001
0000
1001
0000
1000
0010
0100
,
0010
0000
1000
0000
0001
0010
0001
1000
,
0000
1000
0100
0010
0100
1000
0010
0100
,
0001
0010
0100
1000
0000
0001
0000
0100
,
0010
1000
0010
0100
0001
0010
0001
0100
,
0010
0000
1000
0000
0010
0100
0010
1000
,
0000
0001
0010
0100
0010
0001
0100
0010
,
1000
0100
0010
0001
0000
1000
0010
0100
,
0010
1000
0000
1001
0000
0001
0100
0010
,
1000
0100
0001
0100
1000
0010
0100
0000
,
0001
0010
0001
0010
0001
0010
0001
0010
,
0100
1000
0100
1000
0100
1000
0100
1000
,
0010
0100
0001
1000
0100
0000
0010
0000
0001
0000
1000
0000
0010
0000
0100
0000
,
0010
1000
0010
1000
0010
1000
0010
1000
,
0001
0010
0001
0010
0001
0010
0001
0010
,
0001
1000
0110
1000
0001
0110
0001
1000
0110
2000
3002
0023
0000
0130
1000
0000
,
0001
0000
1000
0000
0020
2030
3001
0000
1000
0000
0001
0000
0020
0032
1003
0000
,
0001
0000
0000
0000
1000
0000
0000
0000
0020
0030
0100
0010
1000
0000
0000
0000
0001
0000
0000
0000
0010
0000
0000
0000
0001
0000
0000
0000
0010
0000
0000
0000
,
0100
1000
0100
1000
0010
0100
0010
0100
,
0001
1000
0001
1000
0010
1000
0010
1000
,
0001
1000
0001
1000
0001
0010
0001
0010
,
0001
1000
0010
1000
0100
0010
0001
0100
,
0001
0010
0100
1000
0010
1000
0100
0010
,
0001
1000
0002
2000
0000
0000
0000
0000
,
0000
0000
3003
0000
,
0000
0000
0000
0000
0000
0000
1010
0000
0000
0000
1100
0000
0100
0000
0010
0001
,
0000
1001
0000
0000
1000
0000
0011
0000
0000
0000
0101
0000
0001
0000
1000
0010
,
0000
1010
0000
0000
1000
0001
1100
0000
0000
0000
0101
0000
0001
0000
0010
0001
,
0000
1010
0000
0000
1000
0000
0011
0000
0000
0000
1010
0000
1000
0000
0100
0000
,
0020
0032
1003
0000
0000
0000
1010
0000
0010
1000
0001
1000
0010
0100
0001
0000
,
0010
0000
0000
0100
0000
0000
1000
0000
0001
0000
1000
0000
0001
0000
0000
0100
0000
0000
0010
0000
0000
0000
0000
0000
1000
0000
0000
0010
0000
0000
0100
0000
0000
0001
0000
0000
0010
0000
0000
0100
0000
0000
2000
0000
0000
3002
0000
0000
,
0013
0000
0001
0000
1000
0000
0010
1000
0001
1000
0100
0010
0001
0000
1000
0000
,
2010
0000
0000
0000
0000
0000
0000
0000
0000
0000
0000
0000
0010
0000
0000
0010
0000
0000
3010
0000
0000
1000
0001
1000
,
0001
0000
1000
0000
0010
0100
0000
0101
,
0000
0000
0000
0011
0000
0000
0000
0000
0000
0000
0000
0000
0000
0000
0000
0000
0000
0000
0001
0000
1000
0000
0001
0000
,
1000
0000
0010
0000
0100
0010
0000
1010
,
0000
0000
0000
1100
0000
0000
0000
0000
0000
0000
0000
0000
0000
0000
0000
0000
0000
0000
0010
0000
0001
0000
0010
0000
,
0001
0000
1000
0000
0010
0100
0000
0101
,
0000
0001
1000
0100
,
1200
0000
0000
1300
0010
1000
0001
0010
,
0000
0000
0000
0000
0000
0000
0001
0000
0000
0000
0000
0000
1000
0000
0000
0001
0000
1000
0000
0001
0000
1000
0000
0000
,
0001
0000
0000
0000
0100
0000
0000
0000
0010
0000
1000
0000
0000
0000
0100
0000
0000
0000
0010
0001
0010
0001
0010
0000
0000
0000
0000
0000
0001
0000
1000
0000
0010
0000
0000
0000
0000
0000
0000
0000
1000
0000
0000
0000
0000
0000
0000
0000
0100
0000
0000
0000
0010
0000
0000
0000
0000
0000
0000
0000
0001
0000
0000
0000
,
0000
0200
0000
0000
0000
0000
0310
0000
1000
0100
0000
1000
0010
0000
0001
0100
,
0000
0001
0010
0000
0001
0000
1000
0000
0020
0000
0000
0030
0110
0000
1001
0000
,
0110
0010
1000
0010
0000
1000
0000
0001
,
0010
0001
0100
0000
0010
1000
0100
1000
,
0010
0100
0001
1000
0000
0010
0000
0100
,
0001
0010
0001
0000
1000
0010
0100
0010
,
1000
0100
0010
0001
1000
0001
0000
0100
,
0010
1000
0010
0000
0100
0001
0010
0100
,
0000
1000
0000
0010
0100
0000
0010
1000
,
0100
0010
0002
0000
2003
0000
3010
0000
,
1000
0010
0100
0001
0000
0010
0000
0001
,
1000
0001
0010
0000
0001
1000
0100
1000
,
0010
0100
0001
0010
0100
1000
0000
0010
,
0100
0001
0010
0000
0100
1000
0010
1000
,
0100
0010
0001
1000
1000
0000
0010
0010
,
0000
0100
0100
0000
0001
0001
0000
1000
,
0000
0001
0000
0220
0000
0000
0000
0000
,
0000
0000
0330
0100
0000
0010
0000
1000
,
0100
0010
0001
2000
0010
0100
3002
0010
,
1000
0023
1000
0001
0130
1000
0010
0001
,
0010
0000
0100
0000
0001
0000
2000
0000
3002
0000
0000
0003
0101
0000
1010
0000
,
1100
0011
1000
0001
0100
0000
0010
1000
,
0100
1000
0000
0010
0100
0001
0010
0100
,
0010
0001
0100
0010
1000
0000
0001
0100
,
0010
0100
0000
0010
1000
0100
0010
0100
,
1000
0010
0100
0001
1000
0000
0010
1000
,
0100
1000
0000
0010
0100
0001
0010
0100
,
1000
0100
0010
0001
1000
0000
0001
1000
,
0010
1000
0000
0010
1000
0001
1000
0010
,
0100
0001
0010
0100
1000
0000
0001
0010
,
0001
0000
0000
0000
0000
0000
0000
0000
0100
0000
0000
0000
0000
0000
0000
0000
0000
0000
0000
0000
0000
0000
0000
0000
0010
0000
0000
0000
0000
0000
0000
0000
1000
0000
0000
0000
0000
0000
0000
0001
0200
0000
0000
0000
0000
0000
0000
0000
0000
0000
0000
0000
0000
0000
0000
0000
0000
0000
0000
0000
0000
0000
0000
0000
,
0000
0000
0310
1000
0001
0000
0010
0001
,
0100
0001
0000
1000
0010
1000
0200
0000
,
0000
0000
2300
0000
0000
0000
3001
1000
,
0010
0000
1000
0010
1000
0001
0000
0010
,
0001
0100
0001
0010
0100
1000
0010
1000
,
0100
0000
0010
0001
1000
0001
0000
0100
,
0010
0000
0000
0000
1000
0000
0000
0000
0100
0000
0000
0000
0010
0000
0000
0000
0001
0000
0000
0000
0100
0000
0000
0000
0010
0000
1000
0000
0200
0000
0310
0001
,
0100
0000
0001
0000
0000
0000
1000
0010
1000
0000
0001
0000
0020
0000
0000
0000
0000
0000
0000
0000
0030
0000
0000
0000
0011
0000
0000
0000
0000
0000
0000
0000
0000
0000
0000
0000
0000
0000
0000
0000
0000
0000
0000
0000
0000
0000
0000
0000
0000
0000
0000
0000
0000
0000
0000
0000
0000
0000
0000
0000
0000
0000
0000
0000
;

//---------------dance-single - Copied from Copied f----------------
#NOTES:
     dance-single:
     Copied from Copied f:
     Challenge:
     13:
     1.000,1.000,0.749,0.651,0.923: // measure 1
0000
0000
0000
0000
,  // measure 2
1000
0010
1000
0010
0100
0001
0100
0001
0010
0100
0000
0000
0010
0001
0010
0001
1000
0010
1000
0010
0100
0001
0000
0000
1000
0010
1000
0010
0100
0001
0100
0001
1000
0010
0000
0000
0100
0001
0100
0001
0010
0100
1000
0100
1000
0010
0100
0001
,  // measure 3
2000
0000
0000
0000
0000
0000
0000
0000
0000
0000
0000
0000
0000
0000
0000
0000
0000
0000
0000
0000
0000
0000
0000
0000
0000
0000
0000
0000
0000
0000
0000
0000
3020
0000
0000
0000
M000
0000
0000
0000
0000
0000
0000
0000
0000
0000
0000
0000
0130
0000
0001
0000
0010
0000
0100
0000
1000
0000
0010
0000
1000
0001
1000
0001
,  // measure 4
2000
0000
3010
0000
0020
0000
0000
0030
1000
0000
0100
0000
0010
0000
0100
0000
,  // measure 5
0000
0000
1000
0100
1000
0000
0001
0000
0100
0000
0000
0000
0010
0000
0010
0000
,  // measure 6
0100
0001
0010
0100
M0MM
0100
0010
0001
,  // measure 7
0100
100M
0100
M001
0010
100M
0010
M001
,  // measure 8
0200
0010
0320
0000
0130
0001
0010
0100
,  // measure 9
0000
0000
1000
0100
1000
0000
0001
0000
0100
0000
M0MM
0000
0100
0000
0010
0000
,  // measure 10
1000
0100
0010
0100
M0MM
0100
1000
0010
,  // measure 11
0100
0000
0101
0000
0000
0000
0011
0000
0000
0000
0010
0000
0100
1000
0100
0000
,  // measure 12
2000
0001
3002
0000
0103
0001
0010
0100
,  // measure 13
M0MM
0000
0100
1000
0100
0000
0010
0000
0001
0000
MMM0
0000
0001
0000
0100
0000
,  // measure 14
0010
0100
1000
0100
M0MM
0100
0010
1000
,  // measure 15
0100
M001
0100
100M
0010
M001
0010
100M
,  // measure 16
0200
0010
0320
0000
0130
0010
0001
0100
,  // measure 17
M0MM
0000
0010
1000
0010
0000
1000
0000
0001
0000
0000
0000
0001
0000
1000
0000
,  // measure 18
0010
0000
0100
0000
0010
0000
1000
0000
0100
0000
0010
0001
1000
0000
0001
0000
,  // measure 19
1000
0000
1010
0000
0000
0000
1001
0000
0000
0001
0010
0100
1000
0000
0010
0000
,  // measure 20
0012
0100
1000
0023
1000
0100
0002
0030
,  // measure 21
1003
000M
0000
0000
0000
0000
0000
0000
0010
0000
0000
0000
0000
0000
0000
0000
M001
0000
0000
0000
0000
0000
0000
0000
0010
0000
0000
0000
0000
0000
0000
0000
100M
0000
0000
0000
0000
0000
0000
0000
0010
0000
0000
0000
0000
0000
0000
0000
M001
0000
0000
0000
0000
0000
0000
0000
0010
0000
0000
0000
0000
0000
0000
0000
,  // measure 22
100M
0100
M001
0100
100M
0100
M001
0100
,  // measure 23
100M
0010
0100
1000
0100
0000
0201
0000
0301
0000
0010
0000
0100
0000
0001
0000
,  // measure 24
010M
100M
001M
100M
010M
001M
010M
100M
,  // measure 25
0010
M001
M010
M100
M001
M010
M100
M010
,  // measure 26
MM12
0000
0000
0000
1M23
0000
000M
0000
M132
0000
0000
0000
21M3
0000
0000
0000
32M1
0000
0000
0000
M312
0000
0000
0000
1M23
0000
0000
0000
213M
0000
0000
0000
31M2
0000
0000
0000
11M3
0000
MM00
0000
0011
0000
00MM
0000
0000
0000
0000
0000
1020
0030
0000
0000
2100
3000
0000
0000
MM10
0000
0000
0000
0001
0000
0000
0000
,  // measure 27
0020
0000
0000
0000
0000
0000
0000
0000
0031
0000
0000
0000
0000
0000
0000
0000
0102
0003
0000
0000
2100
3000
0000
0000
1M0M
0000
0000
0000
0010
0000
0000
0000
2000
0000
0000
0000
0000
0000
0000
0000
3010
0000
0000
0000
0000
0000
0000
0000
2010
3000
0000
0000
0012
0003
0000
0000
M0M1
0000
0000
0000
0010
0000
0000
0000
,  // measure 28
0002
0000
0000
0000
1003
0000
0000
0000
1010
0000
0101
0M01
100M
0000
0000
0000
0100
0000
0000
0000
M001
0000
0000
0000
0100
0000
0000
0000
100M
0000
0000
0000
,  // measure 29
0010
M001
0010
100M
0100
M001
0100
100M
,  // measure 30
0010
0M01
0010
100M
0100
001M
1M00
001M
,  // measure 31
0100
10M0
0001
01M0
1000
010M
0010
1000
,  // measure 32
01M0
0000
0001
0000
M100
0000
0010
0M00
0010
0000
00M1
0000
0001
0000
100M
0000
,  // measure 33
1000
M010
0001
0M10
1000
010M
0010
1M00
,  // measure 34
0010
010M
2000
0M02
0000
0000
0000
0000
,  // measure 35
0000
0000
0000
3003
0000
MMMM
0000
MMMM
,  // measure 36
0000
0000
MMMM
0000
0000
0000
M1M1
0000
0000
0000
MM11
0000
0010
0100
1000
0010
,  // measure 37
0000
1M1M
0000
0000
1000
0100
11MM
0000
0000
0000
M1M1
0000
0100
0010
0001
0010
,  // measure 38
0000
MM11
0000
0000
0010
1000
1M1M
0000
0000
0000
11MM
0000
0100
0010
1000
0010
,  // measure 39
0000
MM11
0000
0000
0001
0100
M11M
0000
0000
0000
1M1M
0000
1000
0100
0010
1000
,  // measure 40
1M1M
MM11
M2M1
0000
0000
0000
1310
0000
0010
0100
1000
0100
0001
0010
1010
0000
,  // measure 41
0010
0000
0001
0000
0100
0001
0100
0010
1000
0100
0010
0001
1000
0000
0000
0000
0010
0000
0100
0000
0001
0000
0010
0000
0100
0000
0010
0000
0011
0000
101M
0000
,  // measure 42
21M0
0000
0000
0000
0000
0000
3100
0000
0000
1000
0000
0000
0010
0000
0000
0000
0000
0000
0010
0000
0000
1000
0000
0000
0100
0000
0000
0010
0000
0000
0001
0010
0001
0000
0000
0000
0010
0000
0000
0000
0000
0000
0001
0000
0000
0000
0000
0000
,  // measure 43
2020
0000
0000
0000
0000
0000
0000
0000
0000
0000
0000
0000
0000
0000
3030
0000
1100
0000
0000
0000
0101
0000
0000
0000
0011
0000
0000
0000
1000
0001
1000
0001
,  // measure 44
1000
0010
0100
0001
0010
0100
0010
0001
,  // measure 45
1000
0000
0010
0000
0100
0000
0010
0000
1000
0000
0100
0000
0010
0001
1000
0001
,  // measure 46
0010
0001
0100
0010
1000
0010
0100
0001
,  // measure 47
0010
0000
0100
0000
1000
0000
0100
0000
0010
0000
0001
0000
1000
0010
0100
0001
,  // measure 48
1000
0001
0010
0100
1000
0010
1000
1001
,  // measure 49
0000
0000
0001
0000
0010
0000
0001
0000
0100
0000
0010
0000
1000
0010
0100
0001
,  // measure 50
2000
0000
0000
3010
1000
0100
0010
0011
,  // measure 51
0000
0000
1010
0000
0000
0000
1000
0000
0001
0100
0001
0100
0010
1000
0010
1000
,  // measure 52
0002
0000
0000
0000
0000
0000
0000
0000
0000
0000
0000
0000
0203
0000
0000
0000
0000
0000
0000
0000
0000
0000
0000
0000
0310
0000
0000
0000
0000
0000
1000
0000
0000
0000
0000
0000
0000
0000
0000
0000
0000
0000
0100
0000
0000
0000
0000
0000
0000
0000
0000
0000
0000
0000
0010
0000
0000
0001
0000
0000
0100
0000
0000
0010
0000
0000
1000
0000
0000
0200
0000
0000
0000
0000
0000
0000
0000
0000
0000
0000
0000
0300
0000
0000
0010
0000
0000
0000
0001
0000
0000
0000
1000
0000
0000
0000
0020
0000
0000
0000
0000
0000
0000
0000
0000
0000
0000
0000
0000
0000
0000
0000
0000
0000
0000
0000
0000
0000
0000
0000
0230
0000
0000
0000
0000
0000
0000
0000
0000
0000
0000
0000
0000
0000
0000
0000
0000
0000
0000
0000
0300
0000
0000
0000
0010
0000
0000
0000
0000
0000
0000
0000
0000
0000
0000
0000
2000
0000
0000
0000
0000
0000
0000
0000
0000
0000
0000
0000
0000
0000
0000
0000
0000
0000
0000
0000
0000
0000
0000
0000
3200
0000
0000
0000
0000
0000
0000
0000
0000
0000
0000
0000
,  // measure 53
0000
M302
0000
0M00
0000
0000
M103
0000
110M
1000
0000
1010
0010
0000
0011
0001
,  // measure 54
0000
0101
0100
0000
1100
0000
1001
0000
2200
0000
0000
3300
MM11
0000
1M1M
0000
,  // measure 55
11MM
0000
1000
0001
0100
0001
1000
0000
0010
0000
0100
0000
0001
0000
0010
0000
,  // measure 56
0100
0010
0001
1000
0010
0100
0010
1000
,  // measure 57
0100
0000
0010
0001
1000
0010
0100
0000
0010
0000
1000
0000
0100
0000
0001
0000
,  // measure 58
0100
1000
0010
0001
0010
0100
0001
1000
,  // measure 59
0100
0000
0010
0001
1000
0010
0100
0000
0010
0000
1000
0000
0100
0000
0010
0000
,  // measure 60
0001
1000
1001
0001
0100
0010
1000
0100
,  // measure 61
0010
0000
0001
1000
0010
1000
0001
0000
0100
0000
0010
0000
1000
0000
0100
0000
,  // measure 62
0010
0000
0001
0000
2000
0000
0000
0000
3001
0000
0000
0000
1000
0000
0001
0100
,  // measure 63
0001
0100
0010
1000
0100
0010
0001
0000
0100
0000
0010
0000
1000
0000
0100
0000
,  // measure 64
0001
0100
0010
0001
1000
0001
0100
0010
,  // measure 65
1000
0000
0100
0010
0001
1000
0001
0000
0010
0000
0001
0000
1000
0000
0010
0000
,  // measure 66
0100
0010
1000
0100
M100
M100
0M00
1000
,  // measure 67
0010
1000
0001
0000
0000
0000
0011
0000
0010
0000
0000
0000
0010
0000
1010
0000
,  // measure 68
0000
1100
0100
0000
0100
0101
0000
0001
,  // measure 69
0000
1000
0000
2020
0000
0000
0000
0000
,  // measure 70
0000
0000
0000
0000
3030
0000
1010
0000
0000
0000
1010
0000
0000
0000
1000
0010
,  // measure 71
1000
0100
0010
0001
0010
0001
2000
0000
0001
0000
0100
0000
0020
0000
3001
0000
,  // measure 72
0100
0000
0002
0000
1030
0000
0010
0000
2003
0000
0200
3000
0002
0300
0020
0003
,  // measure 73
2000
0000
0000
0000
0000
0000
0000
0000
0000
0000
0000
0000
0030
0000
0000
0000
0000
0000
0000
0000
0000
0000
0000
0000
0002
0000
0000
0000
0000
0000
0000
0000
0000
0000
0000
0000
3000
0000
0000
0000
0000
0000
0000
0000
0000
0000
0000
0000
0200
0000
0000
0000
0000
0000
0000
0000
0000
0000
0000
0000
0003
0000
0000
0000
0300
0000
0000
0000
0000
0000
0000
0000
2000
0000
0000
0100
0000
0000
0100
0000
0000
0100
0000
0000
0100
0000
0000
0100
0000
0000
0100
0000
0000
3100
0000
0000
0020
0000
0000
0000
0000
0000
0000
0000
0000
0000
0000
0000
0001
0000
0000
0000
0000
0000
0000
0000
0000
0000
0000
0000
0001
0000
0000
0000
0000
0000
0000
0000
0000
0000
0000
0000
0001
0000
0000
0000
0000
0000
0030
0000
0000
0000
0000
0000
0011
0000
0000
0000
0000
0000
0000
0000
0000
0000
0000
0000
0000
0000
0000
0000
0000
0000
0000
0000
0000
0000
0000
0000
0101
0000
0000
0000
0000
0000
0000
0000
0000
0000
0000
0000
0000
0000
0000
0000
0000
0000
0000
0000
0000
0000
0000
0000
,  // measure 74
1000
0000
0010
0000
1000
0000
0001
1000
0001
1000
0001
1000
0001
1000
0001
1000
0010
0000
0000
0000
0000
0000
0000
0000
1000
0000
0000
0000
0000
0000
0000
0000
0100
0000
0000
0000
0000
0000
0000
0000
M0MM
0000
0000
0000
0000
0000
0000
0000
0100
0000
0000
0000
0000
0000
0000
0000
1000
0000
0000
0000
0000
0000
0000
0000
,  // measure 75
0010
0000
1000
0000
0000
0000
1000
0001
0010
0000
0010
1000
0001
0000
0000
0000
,  // measure 76
1000
0001
0100
0001
0010
MM0M
0010
0100
,  // measure 77
1000
0000
0010
0000
0000
0000
1000
0001
0010
0000
0100
1000
0001
0100
0010
1000
,  // measure 78
0001
0100
0001
0010
0100
M0MM
0100
0010
,  // measure 79
0001
0000
0100
0000
0000
0000
0100
0001
1000
0000
0010
1000
0001
0000
0000
0000
,  // measure 80
0100
0010
1000
0100
0010
MM0M
0010
0001
,  // measure 81
0100
0000
0001
0000
0000
0000
1000
0001
0100
0000
0010
0000
1000
0001
1000
0010
,  // measure 82
0100
0001
1000
0000
0001
0000
0010
0000
0011
0000
0000
0000
1010
0000
1000
0000
,  // measure 83
0100
0000
0000
0000
0000
0000
0000
0000
0110
0000
0000
0000
0000
0000
0000
0000
0000
0000
0000
0000
0000
0000
0000
0000
0011
0000
0000
0000
0000
0000
0000
0000
0001
0000
0000
0000
0000
0000
0000
0100
0202
0000
0000
0000
0000
0000
0000
0000
00M0
0000
0000
0000
0000
0000
0000
0000
00M0
0000
0000
0000
0000
0000
0000
0000
,  // measure 84
00M0
0000
0000
0000
0000
0000
0000
0000
00M0
0000
0000
0000
0000
0000
0000
0003
0301
0000
0000
0000
0000
0000
0000
0000
1000
0000
0000
0000
0000
0000
0000
0000
1001
0000
0000
0000
0000
0000
0000
0000
0000
0000
0000
0000
0000
0000
0000
0000
1000
0000
0000
0000
0000
0000
0000
0000
0010
0000
0000
0000
0000
0000
0000
0000
,  // measure 85
0100
0101
0000
0001
0010
0100
2000
0000
,  // measure 86
0000
0000
3000
0000
M020
M000
0000
0000
0000
0000
0030
0000
01M0
00M0
0010
0000
,  // measure 87
1000
0000
0000
0000
0001
0000
0010
0000
0100
0000
0010
0000
0000
0000
0001
1000
,  // measure 88
0010
1000
0002
0000
1003
0010
0110
0MM0
,  // measure 89
0000
0000
1010
0000
1100
1100
0000
0101
,  // measure 90
0000
0000
0000
0000
0001
0000
0010
0000
0100
0000
1000
0000
0010
0000
0100
0000
0001
0000
1000
0000
0010
0000
1000
0000
0200
0000
0320
0000
0032
0000
0103
0010
,  // measure 91
0001
0000
0010
0000
0000
0000
0010
1000
0100
0000
0010
0000
2000
0000
0000
0000
0000
0000
0000
0000
0000
0000
0000
3000
M011
0000
0000
0000
00MM
0000
0000
0000
0000
0000
0000
0000
0000
0000
0000
0000
0000
0000
0000
0000
0000
0000
0000
0000
0000
0000
0000
0000
0000
0000
0000
0000
0000
0000
0000
0000
0000
0000
0000
0000
;
