#TITLE:Rollercoasting (Voltage Special);
#SUBTITLE:;
#ARTIST:From Mario Kart Double Dash!!;
#TITLETRANSLIT:;
#SUBTITLETRANSLIT:;
#ARTISTTRANSLIT:;
#CREDIT:;
#BANNER:Rollercoasting.png;
#BACKGROUND:Rollercoasting-bg.png;
#LYRICSPATH:;
#CDTITLE:./CDTITLES/Dance Dance Revolution Mario Mix.png;
#MUSIC:Rollercoasting.mp3;
#OFFSET:1.569;
#SAMPLESTART:13.310;
#SAMPLELENGTH:15.000;
#SELECTABLE:YES;
#DISPLAYBPM:145.000;
#BPMS:0.000=145.000;
#STOPS:;
#BGCHANGES:;

//---------------dance-single - ----------------
#NOTES:
     dance-single:
     :
     Challenge:
     9:
     0.810,0.723,0.403,0.000,1.000: // measure 1
0000
0000
0000
0000
,  // measure 2
1000
0001
0000
0100
0000
0000
0001
0000
1000
0001
0000
0100
0000
0000
0001
0000
,  // measure 3
1000
0001
0000
0100
0000
0001
1000
0001
1000
0100
0000
1000
0000
0001
1000
0000
,  // measure 4
0001
1000
0000
0100
0000
0000
1000
0000
0001
1000
0000
0100
0000
0000
1000
0000
,  // measure 5
0001
1000
0000
0100
0000
1000
0001
1000
0001
0100
0000
0001
0000
1000
0001
0000
,  // measure 6
0010
0001
0000
1000
0000
0010
0100
0000
0010
1000
0000
0010
0000
0100
0001
0000
,  // measure 7
0010
0100
0000
0010
0000
0001
1000
0001
1000
0100
0000
0010
0000
0100
1000
0000
,  // measure 8
0010
0100
0000
0001
0000
1000
0100
0000
1000
0010
0000
0100
0000
0001
0010
0000
,  // measure 9
0100
0010
0000
1000
0000
0001
1000
0001
1000
0010
0000
0100
0000
0001
1000
0000
,  // measure 10
1001
0000
0010
0000
0100
0010
0000
0110
0000
0000
0000
0000
0000
0000
0001
0000
,  // measure 11
1001
0000
1000
0100
0010
0001
0000
0100
0000
0000
0000
0000
0000
0000
0000
0000
,  // measure 12
0110
0000
0010
0000
1000
0001
0000
1001
0000
0000
0000
0000
0000
0000
0100
0000
,  // measure 13
0110
0000
0010
0100
0001
1000
0000
1001
0000
0000
0010
0000
0100
0000
0010
0000
,  // measure 14
0011
0000
0001
0000
1000
0010
0000
0110
0000
0000
0000
0000
0000
0000
0100
0000
,  // measure 15
0110
0000
0100
0001
0010
0100
0000
0110
0000
0000
0000
0000
0000
0000
0000
0000
,  // measure 16
1000
0100
0000
0001
0000
0100
1000
0000
0001
0100
0000
1000
0000
0100
0001
0000
,  // measure 17
1000
0010
0000
0001
0000
0010
1000
0000
0100
0001
0000
1001
0000
0000
0000
0000
,  // measure 18
0011
0000
0001
0000
0100
0010
0000
1000
0000
0100
1000
0000
0010
0000
0100
0010
,  // measure 19
0100
0000
0001
0010
0001
0100
0000
0010
0000
1000
0100
0000
1000
0000
0010
1000
,  // measure 20
0010
0000
0100
0000
0001
0010
0000
0001
0000
0100
0010
0000
1000
0000
0001
0100
,  // measure 21
0001
0000
1000
0010
1000
0100
0000
0011
0000
0001
0100
0000
0010
0000
1000
0000
,  // measure 22
1010
0000
0010
0000
1000
0100
0000
0110
0000
0010
0001
0000
0100
0000
0010
0100
,  // measure 23
0010
0000
0100
0010
0100
0001
0000
0011
0000
0001
0100
0000
0010
0000
1000
0000
,  // measure 24
1000
0100
1000
0100
0000
1000
0100
0000
0001
0100
0001
0100
0000
0001
0100
0000
,  // measure 25
1000
0010
1000
0010
0000
1000
0010
0000
0100
0001
0100
0001
0000
0000
1000
0000
,  // measure 26
1001
1000
0100
0010
0001
0100
0001
0000
,  // measure 27
1001
0001
0100
0001
0010
0100
1000
0000
,  // measure 28
1010
1000
0010
0100
0001
0010
0100
0000
,  // measure 29
0101
0001
0010
0100
1000
0010
0100
0001
,  // measure 30
1000
0100
0010
0001
0100
0010
0100
0000
,  // measure 31
1100
0010
0001
0100
1000
0100
0010
0000
,  // measure 32
1010
0010
1000
0100
0001
0100
0010
0001
,  // measure 33
0011
0001
0010
0100
1000
0010
0110
0110
,  // measure 34
1000
0000
0001
0100
0001
0000
0001
0000
1000
0100
1000
0000
1000
0000
0010
0100
,  // measure 35
0010
0000
0010
0000
0100
0001
0100
0000
0001
0000
1000
0001
1000
0000
0001
0000
,  // measure 36
0100
0000
0001
0100
0001
0000
0100
0000
0010
0100
0010
0000
0100
0000
0100
1000
,  // measure 37
0100
0000
0100
0000
0100
0010
0100
0000
0100
0000
0001
0000
0010
0000
0100
0000
,  // measure 38
0010
0000
0010
1000
0010
0000
0010
0000
0010
0100
0010
0000
0010
0000
0010
0001
,  // measure 39
0010
0000
0010
0000
0010
0100
0010
0000
0010
0000
0001
0000
0100
0000
0010
0000
,  // measure 40
1000
0000
1000
0100
1000
0000
1000
0000
1000
0001
1000
0000
0001
0000
0001
1000
,  // measure 41
0001
0000
0001
0000
0001
0100
0001
0000
1000
0010
0100
0001
0010
0100
1000
0000
,  // measure 42
1001
0000
0100
0000
0010
0100
0000
0110
0000
0000
0000
0000
0000
0000
1000
0000
,  // measure 43
1001
0000
0001
0010
0100
1000
0000
0010
0000
0000
0000
0000
0000
0000
0000
0000
,  // measure 44
0110
0000
0100
0000
0001
1000
0000
1001
0000
0000
0000
0000
0000
0000
0010
0000
,  // measure 45
0110
0000
0100
0010
1000
0001
0000
1001
0000
0000
0100
0000
0010
0000
0100
0000
,  // measure 46
1100
0000
1000
0000
0001
0100
0000
0110
0000
0000
0000
0000
0000
0000
0010
0000
,  // measure 47
0110
0000
0010
1000
0100
0010
0000
0110
0000
0000
0000
0000
0000
0000
0000
0000
,  // measure 48
0001
0010
0000
1000
0000
0010
0001
0000
1000
0010
0000
0001
0000
0010
1000
0000
,  // measure 49
0001
0100
0000
1000
0000
0100
0001
0000
0010
1000
0000
1001
0000
0000
0000
0000
,  // measure 50
0100
0010
0000
0001
0000
0000
0100
0000
0010
1000
0000
0100
0000
0000
0010
0000
,  // measure 51
0001
0100
0000
0010
0000
1000
0010
1000
0010
0100
0000
0001
0000
0010
0100
0000
,  // measure 52
0010
0001
0000
0100
0000
0000
0010
0000
1000
0100
0000
0010
0000
0000
0001
0000
,  // measure 53
0100
0010
0000
1000
0000
0100
0010
0100
0010
0001
0000
0100
0000
0010
1000
0000
,  // measure 54
0100
0010
0000
0001
0000
0000
0100
0000
0010
1000
0000
0100
0000
0000
0010
0000
,  // measure 55
0001
0100
0000
0010
0000
1000
0010
1000
0010
0100
0000
0001
0000
0010
0100
0000
,  // measure 56
0010
0001
0000
0100
0000
0000
0010
0000
1000
0100
0000
0010
0000
0000
0001
0000
,  // measure 57
0100
0010
0000
1000
0000
0100
0010
0100
0010
0001
0000
0100
0000
0010
1000
0000
;
