#TITLE:Rendezvous on Ice (Freeze Special);
#SUBTITLE:;
#ARTIST:From Les Patineurs;
#TITLETRANSLIT:;
#SUBTITLETRANSLIT:;
#ARTISTTRANSLIT:;
#CREDIT:;
#BANNER:Rendezvous on Ice.png;
#BACKGROUND:Rendezvous on Ice-bg.png;
#LYRICSPATH:;
#CDTITLE:./CDTITLES/Dance Dance Revolution Mario Mix.png;
#MUSIC:Rendezvous on Ice.mp3;
#OFFSET:1.841;
#SAMPLESTART:15.540;
#SAMPLELENGTH:15.000;
#SELECTABLE:YES;
#DISPLAYBPM:124.000;
#BPMS:0.000=123.996;
#STOPS:;
#BGCHANGES:;

//---------------dance-single - ----------------
#NOTES:
     dance-single:
     :
     Challenge:
     8:
     0.545,0.627,0.192,1.000,0.411: // measure 1
0000
0000
0000
0000
,  // measure 2
0000
0000
0000
0000
,  // measure 3
0000
0000
0000
0000
,  // measure 4
0000
0000
0000
0000
,  // measure 5
0000
0000
0000
0000
,  // measure 6
2002
0000
0000
0000
0000
0003
0200
0000
0000
3000
0020
0000
,  // measure 7
0302
0000
0000
0030
0000
0000
0203
0000
0000
0000
0320
0000
,  // measure 8
2000
0000
0000
0000
0000
0030
0002
0000
0000
0000
0000
3000
,  // measure 9
0200
0000
0000
0000
0000
0000
0003
0000
0000
0000
0300
0000
,  // measure 10
0220
0000
0000
0000
0000
0300
0002
0000
0000
0030
2000
0003
,  // measure 11
0200
0000
3000
0000
0000
0000
0300
0000
0000
0000
0000
0000
,  // measure 12
0022
0000
0000
0000
0000
0000
0203
0000
0000
0030
2000
0300
,  // measure 13
0020
0000
0000
0000
0000
3000
0030
0000
0000
0000
0000
0000
,  // measure 14
2002
0000
0000
0000
0000
0003
0200
0000
0000
3000
0020
0300
,  // measure 15
0002
0000
0000
0000
0000
0030
0023
0000
0000
0000
0200
0030
,  // measure 16
2000
0000
0000
0000
0000
0300
0020
0000
0000
0000
0000
3000
,  // measure 17
0002
0000
0033
0000
,  // measure 18
2000
0000
0200
3000
2000
0300
0200
3000
2000
0300
0020
3000
,  // measure 19
0002
0030
0020
0003
2000
0030
0200
3000
0020
0300
2000
0030
,  // measure 20
0020
3000
0002
0030
0020
0003
0002
0030
0020
0003
0002
0030
,  // measure 21
0020
0003
0200
0030
0020
0300
0200
0030
0020
0300
2000
0030
,  // measure 22
0020
3000
2000
0030
0020
3000
2000
0030
0200
3000
2000
0300
,  // measure 23
0200
3000
0002
0300
2000
0003
0002
3000
0200
0003
2000
0300
,  // measure 24
0002
3000
2000
0003
0002
3000
2000
0003
0002
3000
0020
0003
,  // measure 25
2000
0030
0002
3000
0020
0003
2000
0030
0002
3000
2000
0003
,  // measure 26
3002
0000
0020
0003
0002
0030
0020
0003
0002
0030
0200
0003
,  // measure 27
2000
0300
0200
3000
0002
0300
0020
0003
0200
0030
0002
0300
,  // measure 28
0020
0003
2000
0030
0200
3000
2000
0300
0200
3000
2000
0300
,  // measure 29
0200
3000
0020
0300
0200
0030
0020
0300
0200
0030
0002
0300
,  // measure 30
0200
0003
0002
0300
0200
0003
0002
0300
0020
0003
0002
0030
,  // measure 31
0020
0003
2000
0030
0002
3000
2000
0003
0020
3000
0002
0030
,  // measure 32
2000
0003
0002
3000
2000
0003
0002
3000
2000
0003
0200
3000
,  // measure 33
0002
0000
0000
0000
0300
0000
0000
0000
2000
0000
0000
0000
0003
0000
0000
0000
0200
0000
0000
0000
3000
0000
0000
0000
0002
0000
0000
0000
0300
0000
1000
0000
0003
0001
0000
0000
1000
0000
0000
0000
0000
0000
0000
0000
0000
0000
0000
0000
,  // measure 34
2002
0000
0000
0000
0000
0003
0020
0000
0000
3000
0002
0000
,  // measure 35
0230
0000
0000
0003
0000
0300
2002
0000
0000
0000
0000
3003
,  // measure 36
2002
0000
0000
0000
0000
3000
0020
0000
0000
0003
2000
0030
,  // measure 37
0200
0000
0000
3000
0000
0300
2002
0000
0000
0000
0000
3003
,  // measure 38
0220
0000
0000
0000
0000
0300
0002
0000
0000
0030
2000
0003
,  // measure 39
0200
0000
0000
0000
0000
3000
0002
0000
0000
0300
0020
0003
,  // measure 40
2000
0000
0000
0000
0000
0030
0200
0000
0000
0000
0000
3000
,  // measure 41
0002
0000
0000
0000
0300
0003
0220
0000
0000
0000
0000
0330
,  // measure 42
2002
0000
0000
0000
0000
0003
0020
0000
0000
3000
0002
0000
,  // measure 43
0230
0000
0000
0003
0000
0300
2002
0000
0000
0000
0000
3003
,  // measure 44
0220
0000
0000
0000
0000
0300
2000
0000
0000
0030
0200
3000
,  // measure 45
0002
0000
0000
0300
0000
0003
0220
0000
0000
0000
0000
0330
,  // measure 46
2002
0000
0000
0000
0000
0003
0020
0000
0000
3000
0200
0030
,  // measure 47
2000
0000
0000
0000
0000
0300
3200
0000
0000
0000
0002
0300
,  // measure 48
0020
0000
0000
0000
0003
0000
2000
0000
0000
0000
0030
0000
,  // measure 49
0200
0000
0000
0000
0000
0000
0000
0000
0000
0000
3300
0000
1001
0000
0000
0000
0000
0000
1001
0000
0000
0110
0000
0000
;
