#TITLE:Radiant Silver;
#SUBTITLE:;
#ARTIST:SYNC.ART;
#TITLETRANSLIT:;
#SUBTITLETRANSLIT:;
#ARTISTTRANSLIT:;
#CREDIT:;
#BANNER:Radiant Silver-bn.png;
#BACKGROUND:Radiant Silver-bg.png;
#LYRICSPATH:;
#CDTITLE:;
#MUSIC:Radiant Silver_2.mp3;
#OFFSET:-0.120;
#SAMPLESTART:49.394;
#SAMPLELENGTH:11.340;
#SELECTABLE:YES;
#BPMS:0.000=170.000;
#STOPS:;
#BGCHANGES:;

//---------------dance-single - ----------------
#NOTES:
     dance-single:
     :
     Hard:
     8:
     0.567,0.556,0.428,0.428,0.087:
0000
0000
0000
0000
,
1010
0000
0010
0100
0000
0001
0010
0000
,
0200
2000
0000
0000
0300
3000
0000
0000
,
0110
0000
0100
0001
0000
0010
0100
0000
,
2000
0020
0000
0000
3000
0030
0000
0000
,
0101
0000
0001
0100
0000
0100
0010
0000
,
2000
0200
0000
0000
3000
0300
0000
0000
,
1000
1000
0000
0001
0001
0000
0100
0000
,
0110
0000
1001
0000
,
0001
0100
0010
1000
0000
0100
0010
0001
,
0200
0000
1000
0000
0010
0000
0001
0300
,
1000
0010
0100
0001
0000
0010
0100
1000
,
0020
0000
0001
0000
0100
0000
1000
0030
,
1010
0000
1000
0000
0100
0010
0000
0011
,
0000
0000
0100
0000
0000
0000
1000
0000
0010
0000
0000
1000
0000
0000
0100
0000
,
0021
0000
0100
0000
1030
0010
0001
0200
,
0000
0000
1000
0000
0010
0000
0001
0300
,
0010
0100
1000
0010
0000
0100
0001
0010
,
0200
0000
1000
0000
0010
0000
0001
0300
,
0010
0001
0100
1000
0000
0100
0010
1000
,
0200
0000
0001
0000
0010
0000
1000
0300
,
0101
0000
0001
0000
1000
0100
0000
0110
,
0000
0000
0010
0000
0000
0000
0001
0000
0100
0000
0000
0010
0000
0000
1000
0000
,
1200
0000
0010
0000
0301
0100
1000
0020
,
0000
0000
1000
0000
0100
0000
0001
0031
,
0200
1000
0010
0001
,
0320
1000
0100
0001
,
2030
0000
0010
0000
0001
0000
0100
3000
,
1100
0000
0000
1010
0000
0000
0110
0000
0101
0000
0000
0000
0001
0000
0010
0000
,
0200
0000
1000
0000
0020
0300
0100
0000
,
0002
0030
1000
0000
0200
0003
0010
0000
,
2000
0300
0001
0000
0200
3000
0010
0000
,
0020
0300
1000
0000
2030
0001
3010
0200
,
0000
1000
0010
0001
,
2000
0000
0000
0000
0000
0000
0000
3300
,
1100
0000
1000
0010
0000
0010
0100
0000
,
0101
0001
0000
0100
0000
0010
1000
0000
,
1100
0000
1000
0100
0000
0100
0010
0000
,
0001
0000
0000
0100
0000
0000
0020
0000
0000
0000
0000
0000
0000
0000
1030
0010
,
0100
0000
0000
0000
0100
0000
0010
0000
0100
0000
0000
0001
0000
0000
0010
0000
,
0100
0000
0000
1100
0000
0000
0100
0000
0000
0000
0000
0000
0000
0000
0100
1000
,
0010
0000
0010
0100
0010
0100
0001
0010
,
0100
0000
0101
0100
0000
0000
0000
0000
,
0011
0000
0001
0100
0000
0010
0100
0000
,
1010
0010
0000
1000
0000
0100
0110
0000
,
0010
0001
0000
0101
0000
0100
0010
0000
,
0010
0000
1000
0000
0000
0000
0200
0000
0000
0000
0000
0000
0000
0300
0100
1000
,
0010
0000
0000
0000
0010
0000
0100
0000
0010
0000
0000
1000
0000
0000
0100
0000
,
0010
0000
0000
0011
0000
0000
0010
0000
0000
0000
0000
0000
0000
0000
0010
0001
,
0100
0000
0000
0000
0100
0000
0010
0000
0100
0000
0000
0010
0000
0000
1000
0000
,
1010
0000
0000
0000
0010
0000
0100
0000
0001
0000
0000
0010
0000
0000
0011
0000
,
0010
0000
0001
0100
0000
0100
0010
0000
,
2000
0200
0000
0000
0000
0000
3000
0300
,
0010
0000
0001
0100
0000
0010
1000
0000
,
0200
0020
0000
0000
0000
0000
0300
0030
,
0001
0000
0100
0010
0000
1000
0100
0000
,
0020
0002
0000
0000
0000
0000
0030
0003
,
0011
0011
0000
1010
1010
0000
1100
1100
,
0000
0101
0101
0000
0101
2020
0000
0000
,
0000
0000
0000
0000
0000
0000
0000
0000
0000
0000
0000
0000
0000
0000
0000
0000
0000
0000
0000
0000
0000
0000
0000
0030
0000
0000
0000
3000
0010
0000
1000
0000
,
0001
0000
0000
0000
;

//---------------dance-single - Copied from----------------
#NOTES:
     dance-single:
     Copied from:
     Medium:
     5:
     0.430,0.486,0.162,0.625,0.000:
0000
0000
0000
0000
,
1000
0000
0000
0100
0000
0000
0010
0000
,
0000
0002
0000
0000
0000
0000
0000
0003
,
0010
0000
0000
0100
0000
0000
1000
0000
,
0000
0020
0000
0000
0000
0000
0000
0030
,
0100
0000
0000
0001
0000
0000
0010
0000
,
0000
0200
0000
0000
0000
0000
0000
0300
,
1000
0000
0000
0001
0000
0000
1001
0000
,
0200
0000
0000
0000
0020
0000
0000
0330
,
1000
0010
0100
0001
,
0020
0230
2300
3002
,
0103
0010
1000
0001
,
0200
0320
2030
3200
,
1300
1000
0001
0100
,
0110
1001
0010
0100
,
0110
1001
0001
1000
,
0200
0320
0032
0203
,
0310
0010
1000
0100
,
0002
0023
0032
0203
,
0310
0010
0100
0001
,
0020
2030
3200
2300
,
3010
0010
0100
0001
,
0010
0010
0100
1000
,
0010
0010
0100
1001
,
0000
0000
0000
1000
,
0002
0010
1000
0010
,
2003
0010
0001
0010
,
3020
0000
0100
0000
0001
0000
0100
0030
,
0110
0000
1010
0000
1100
0000
0100
0010
,
0002
0010
1000
0100
,
2003
0010
0001
0100
,
3200
0000
1000
0000
0010
0000
0001
0300
,
1000
0000
1000
0000
1000
0010
0001
0200
,
0000
0000
0000
0000
,
2000
0000
3300
0000
,
1000
0000
1000
0200
0000
0000
0000
0000
,
0310
0001
0000
0200
0000
0000
0000
0000
,
0310
0000
1000
0200
0000
0000
0310
0000
,
0001
0000
0000
1001
0000
0000
0000
1000
,
0020
0100
0130
0001
,
0010
0000
0000
1001
0000
0000
0000
0001
,
0020
0100
0130
1000
,
0010
0000
0000
1001
0000
0000
0000
0000
,
0001
0000
0001
0020
0000
0000
0130
0000
,
0100
1000
0000
0020
0000
0000
0130
0000
,
0100
0001
0020
0000
0000
0000
0130
0000
,
1000
0000
0000
1001
0000
0000
0000
1000
,
0020
0100
0130
0001
,
1000
0000
0000
0110
0000
0000
0000
0000
,
0002
0000
0020
0003
2000
0030
0020
3000
,
0002
0030
0200
0003
2000
0300
0200
3000
,
0310
0000
0000
1000
0000
0000
0100
0000
,
0000
0020
0000
0000
0000
0000
0000
0030
,
0010
0000
0000
0001
0000
0000
0100
0000
,
0000
0020
0000
0000
0000
0000
0000
0030
,
1000
0000
0000
0010
0000
0000
0100
0000
,
0000
0002
0000
0000
0000
0000
0000
0003
,
1000
1000
0000
0001
0001
0000
0100
0100
,
0000
0010
0010
0000
1000
0002
0000
0000
,
0000
0000
0000
0000
,
1003
0000
0000
0000
;

//---------------dance-single - Copied from Copied f----------------
#NOTES:
     dance-single:
     Copied from Copied f:
     Easy:
     2:
     0.154,0.203,0.035,0.104,0.000:
0000
0000
0000
0000
,
1000
0000
0000
0001
,
0000
0000
0000
0000
,
0100
0000
0000
0010
,
0000
0000
0000
0000
,
1000
0000
0000
0001
,
0000
0000
0000
0000
,
0100
0000
0000
0000
,
0010
0000
0000
0000
,
1000
0000
1000
0000
,
0010
0000
0100
0000
,
0001
0000
0001
0000
,
0100
0000
0010
0000
,
1000
0000
1000
0000
,
0100
0000
0010
0000
,
0001
0000
0001
0000
,
0100
0000
0010
0000
,
1000
0000
0001
0000
,
0100
0000
0010
0000
,
1000
0000
0100
0000
,
0010
0000
0001
0000
,
0100
0000
0010
0000
,
1000
0000
0001
0000
,
0010
0000
0100
0000
,
1000
0000
0010
0000
,
0200
0000
0000
0000
,
0320
0000
0000
0000
,
2030
0000
0000
0000
,
3002
0000
0010
0000
,
0023
0000
0000
0000
,
0230
0000
0000
0000
,
2300
0000
0000
0000
,
3020
0000
0000
0000
,
0230
0000
0000
0000
,
0310
0000
0000
0000
,
1000
0000
0000
0000
,
0001
0000
0000
0000
,
0100
0000
0000
0000
,
0010
0000
0000
0000
,
1000
0000
1000
0000
,
0001
0000
0000
0000
,
0010
0000
0010
0000
,
0100
0000
0000
0000
,
0001
0000
0000
0000
,
1000
0000
0000
0000
,
0010
0000
0000
0000
,
0100
0000
0000
0000
,
0001
0000
0001
0000
,
1000
0000
0000
0000
,
0010
0000
0010
0000
,
0100
0000
0100
0000
,
0001
0000
0000
1000
,
0000
0000
0000
0000
,
0100
0000
0000
0010
,
0000
0000
0000
0000
,
0001
0000
0000
0100
,
0000
0000
0000
0000
,
0110
0000
0000
1001
,
0000
0000
0110
0000
;

//---------------dance-single - Copied from Copied f----------------
#NOTES:
     dance-single:
     Copied from Copied f:
     Beginner:
     1:
     0.071,0.102,0.012,0.023,0.000: // measure 1
0000
0000
0000
0000
,  // measure 2
1000
0000
0000
0000
,  // measure 3
0000
0000
0000
0000
,  // measure 4
0001
0000
0000
0000
,  // measure 5
0000
0000
0000
0000
,  // measure 6
1000
0000
0000
0000
,  // measure 7
0000
0000
0000
0000
,  // measure 8
0001
0000
0000
0000
,  // measure 9
0000
0000
0000
0000
,  // measure 10
0100
0000
0000
0000
,  // measure 11
0000
0000
0000
0000
,  // measure 12
0100
0000
0000
0000
,  // measure 13
0000
0000
0000
0000
,  // measure 14
0010
0000
0000
0000
,  // measure 15
0000
0000
0000
0000
,  // measure 16
0010
0000
0000
0000
,  // measure 17
0000
0000
0000
0000
,  // measure 18
1000
0000
0000
0000
,  // measure 19
0001
0000
0000
0000
,  // measure 20
1000
0000
0000
0000
,  // measure 21
0001
0000
0000
0000
,  // measure 22
0100
0000
0000
0000
,  // measure 23
0010
0000
0000
0000
,  // measure 24
0100
0000
0000
0000
,  // measure 25
0010
0000
0000
0000
,  // measure 26
2000
0000
0000
0000
,  // measure 27
0000
0000
0000
0000
,  // measure 28
0000
0000
0000
0000
,  // measure 29
3000
0000
0000
0000
,  // measure 30
0002
0000
0000
0000
,  // measure 31
0000
0000
0000
0000
,  // measure 32
0000
0000
0000
0000
,  // measure 33
0003
0000
0000
0000
,  // measure 34
1000
0000
0000
0000
,  // measure 35
0000
0000
0000
0000
,  // measure 36
0001
0000
0000
0000
,  // measure 37
0001
0000
0000
0000
,  // measure 38
1000
0000
0000
0000
,  // measure 39
1000
0000
0000
0000
,  // measure 40
0010
0000
0000
0000
,  // measure 41
0010
0000
0000
0000
,  // measure 42
0100
0000
0000
0000
,  // measure 43
0100
0000
0000
0000
,  // measure 44
0001
0000
0000
0000
,  // measure 45
1000
0000
0000
0000
,  // measure 46
0001
0000
0000
0000
,  // measure 47
1000
0000
0000
0000
,  // measure 48
0010
0000
0000
0000
,  // measure 49
0100
0000
0000
0000
,  // measure 50
0010
0000
0000
0000
,  // measure 51
0100
0000
0000
0000
,  // measure 52
0001
0000
0000
0000
,  // measure 53
0000
0000
0000
0000
,  // measure 54
1000
0000
0000
0000
,  // measure 55
0000
0000
0000
0000
,  // measure 56
0010
0000
0000
0000
,  // measure 57
0000
0000
0000
0000
,  // measure 58
0100
0000
0000
0000
,  // measure 59
0000
0000
0110
0000
;
