#TITLE:Poochie;
#SUBTITLE:;
#ARTIST:kors k;
#TITLETRANSLIT:;
#SUBTITLETRANSLIT:;
#ARTISTTRANSLIT:;
#CREDIT:;
#BANNER:Poochie.png;
#BACKGROUND:Poochie-bg.png;
#LYRICSPATH:;
#CDTITLE:DDR 2014_cd_title.png;
#MUSIC:Poochie.ogg;
#OFFSET:0.000;
#SAMPLESTART:28.364;
#SAMPLELENGTH:15.000;
#SELECTABLE:YES;
#DISPLAYBPM:110.000:220.000;
#BPMS:0.000=110.000,36.000=220.000,68.000=110.000,180.000=220.000;
#STOPS:;
#BGCHANGES:;

//---------------dance-single - Copied from----------------
#NOTES:
     dance-single:
     Copied from:
     Challenge:
     13:
     1.000,1.000,0.500,0.517,1.000: // measure 1
0000
0000
0000
0000
,  // measure 2
0000
0000
0000
0000
,  // measure 3
0000
0000
0000
0000
,  // measure 4
0000
0000
0000
0000
,  // measure 5
0000
0000
0000
0000
,  // measure 6
1200
0000
0000
0001
0000
0010
0300
0000
0201
0000
0000
1000
0000
0010
0300
0000
,  // measure 7
0021
0000
0000
0100
0000
0001
0030
0000
1020
0000
0000
0001
0000
0100
0030
0000
,  // measure 8
1200
0000
0000
0001
0000
1000
0300
0000
0201
0000
0000
1000
0000
0001
0300
0000
,  // measure 9
0001
0100
1000
0100
0001
0010
1000
0010
0100
1000
0010
0001
0010
0100
0001
0010
,  // measure 10
0100
0000
1000
0000
0010
0100
0010
0100
0010
0000
1000
0000
0100
0000
0000
0000
,  // measure 11
0010
0000
0001
0000
0100
0010
0100
0010
0100
0000
0001
0000
0010
0000
0000
0000
,  // measure 12
0100
0000
1000
0000
0010
1000
0010
1000
0010
0000
1000
0000
0100
0000
0000
0000
,  // measure 13
0010
0000
0001
0000
0100
0001
0100
0001
0100
0000
0001
0000
0010
0000
0000
0000
,  // measure 14
0100
0000
1000
0000
0010
0100
0010
0100
0010
0000
1000
0000
0100
0010
0100
0010
,  // measure 15
0100
0000
1000
0000
0010
0100
0010
0100
0010
0000
1000
0000
0100
0010
0100
0010
,  // measure 16
0100
1000
0010
1000
0100
0010
0001
0010
0100
1000
0010
1000
0100
0010
0001
0010
,  // measure 17
0100
0000
1000
0000
0010
0100
0010
0100
0010
0000
1000
0000
0001
0000
0000
0000
,  // measure 18
0011
0000
0001
0000
0000
1000
0020
0000
0000
0031
0000
0010
1000
0000
0100
0001
0000
0100
1000
0010
1000
0100
0000
0010
,  // measure 19
0001
0000
1000
0000
0000
0010
0002
0000
0000
0013
0000
1000
0100
0000
0001
0100
0000
1000
0020
0000
0000
0000
0000
0000
,  // measure 20
1030
0000
0001
0010
0100
0010
0001
0010
0200
0000
0000
0000
0000
0000
0000
0000
1300
0000
0001
0100
0010
0100
0001
0100
0020
0000
0000
0000
0000
0000
0000
0000
,  // measure 21
2030
0000
0000
0000
0000
0000
3200
0000
0000
M000
0000
0000
0302
0000
0000
0M00
0000
0000
0023
0000
0000
000M
0000
0000
1030
0000
0000
00M0
0100
0000
0001
0000
0000
0000
0100
0000
1000
0000
0000
0000
0010
0000
0200
0000
0000
0000
0000
0000
,  // measure 22
0310
0000
1000
0000
0000
0100
0020
0000
0000
1030
0000
0010
0001
1000
0010
1000
0000
MM10
0002
0000
0000
1003
0000
0100
,  // measure 23
0001
0000
1000
0000
0000
0100
0020
0000
0000
1030
0000
0000
MM10
0001
1000
0010
0100
1000
0002
0000
0000
0013
0000
1000
,  // measure 24
0100
0000
0010
0001
0010
0100
0010
0001
0020
0000
0000
0000
0000
0000
0031
0000
0000
0000
1000
0001
0100
0001
1000
0001
0200
0000
0000
0000
0000
0000
0300
0000
,  // measure 25
0020
0000
0000
0000
2030
0000
0000
0000
3200
M000
0302
0M00
0023
000M
0000
1030
,  // measure 26
11M0
0000
1000
0000
0000
0001
0200
0000
0000
1300
0000
0100
0001
0000
0010
1000
0000
0010
0001
0100
0001
0010
0000
0100
,  // measure 27
1000
0000
0001
0000
0000
0100
2000
0000
0000
3100
0000
0001
0010
0000
1000
0010
0000
0001
0200
0000
0000
0000
0000
0000
,  // measure 28
0301
0000
1000
0100
0010
0100
1000
0100
0020
0000
0000
0000
0000
0000
0000
0000
0031
0000
1000
0010
0100
0010
1000
0010
0200
0000
0000
0000
0000
0000
0000
0000
,  // measure 29
0302
0000
0000
0000
0000
0000
0023
0000
0000
000M
0000
0000
2030
0000
0000
00M0
0000
0000
3200
0000
0000
M000
0000
0000
0301
0000
0000
0M00
0010
0000
1000
0000
0000
0000
0010
0000
0001
0000
0000
0000
0100
0000
0020
0000
0000
0000
0000
0000
,  // measure 30
0130
0000
0001
0000
0000
0010
0200
0000
0000
0301
0000
0100
1000
0001
0100
0001
0000
01MM
2000
0000
0000
3001
0000
0010
,  // measure 31
1000
0000
0001
0000
0000
0010
0200
0000
0000
0301
0000
0000
01MM
1000
0001
0100
0010
0001
2000
0000
0000
3100
0000
0001
,  // measure 32
0010
0000
0100
1000
0100
0010
0100
1000
0200
0000
0000
0000
0000
0000
1300
0000
0000
0000
0001
1000
0010
1000
0001
1000
0020
0000
0000
0000
0000
0000
0030
0000
,  // measure 33
0200
0000
0000
0000
0302
0M00
0000
0000
0023
000M
2030
00M0
3200
M000
0000
0301
,  // measure 34
0M10
0000
0001
0100
0000
0001
0100
0010
1000
0100
0000
1000
0000
0000
0010
1000
0000
0100
0200
0000
0000
1300
0000
0010
,  // measure 35
0000
0000
1000
0100
0000
0110
0000
0000
0001
0100
0000
0110
0000
0000
0010
1000
0000
0100
0200
0000
0000
2300
0000
0000
,  // measure 36
3000
0000
0001
0010
0000
0110
0000
0000
0100
1000
0000
1001
0000
0000
1000
0010
0000
0100
0200
0000
0000
0301
0000
0010
,  // measure 37
0000
0000
0000
0000
0000
0000
0000
0000
0000
0000
0000
0000
0000
0000
0000
0000
0100
0000
0000
0000
0000
0000
0000
0000
1000
0000
0000
0000
0000
0000
0000
0000
0000
0000
0000
0000
0000
0000
0000
0000
0001
0000
0000
0000
0000
0000
0000
0000
0100
0000
0000
0000
0000
0000
0001
0000
0000
0000
0000
0000
0100
0000
0000
0000
0000
0000
0010
0000
0000
0000
0000
0000
1000
0000
0000
0000
0000
0000
0000
0000
0000
0000
0000
0000
0000
0000
0000
0000
0010
0000
0000
0000
0000
0000
0000
0000
0000
0000
0000
0000
0000
0000
0000
0000
0000
0000
0000
0000
0000
0000
0000
0000
0100
0000
0000
0000
0000
0000
0000
0000
0001
0000
0000
0000
0000
0000
0000
0000
0000
0000
0000
0000
0000
0000
0000
0000
0010
0000
0000
0000
0000
0000
0000
0000
0020
0000
0000
0000
0000
0000
0000
0000
0000
0000
0000
0000
0000
0000
0000
0000
0000
0000
0000
0000
0000
0000
0000
0000
0031
0000
0000
0000
0000
0000
0000
0000
0000
0000
0000
0000
0000
0000
0000
0000
0000
0000
0000
0000
0000
0000
0000
0000
,  // measure 38
0001
0000
0100
0000
0010
0100
0010
0100
0010
0000
0100
0000
0001
0000
0000
0000
1000
0000
0010
0000
0100
0010
0100
0010
0100
0000
0010
0000
1000
0000
0000
0000
,  // measure 39
0001
0000
0010
0000
0100
1000
0100
1000
0100
0000
0010
0000
0001
0000
0000
0000
1000
0000
0010
0000
0100
0001
0100
0001
0100
0000
0010
0000
1000
0000
0000
0000
,  // measure 40
0010
0000
1000
0000
0100
0010
0100
0010
0100
0000
1000
0000
0010
0100
0010
0100
0010
0000
1000
0000
0100
0010
0100
0010
0100
0000
1000
0000
0010
0100
0010
0100
,  // measure 41
0010
1000
0010
1000
0010
0100
0010
0100
0001
0010
0001
0010
0100
1000
0100
1000
0001
0100
0002
0000
0010
0000
0000
0003
1000
0010
1000
0000
0001
0010
0001
0000
,  // measure 42
1000
0100
1000
0100
0000
0000
1000
0000
0000
1100
0000
0000
0000
0000
0000
0001
0000
0000
0010
0000
0000
0011
0000
0000
0000
0000
0000
1000
0000
0000
0010
0000
0000
1010
0000
0000
0021
0000
0000
0000
0000
0000
0001
0000
0000
0130
0000
0000
,  // measure 43
0000
0010
0011
1010
0000
1000
1100
0101
0000
0001
0010
1010
1200
0000
0010
0000
,  // measure 44
0300
0010
0011
0101
0000
0100
1100
1010
0000
0010
0001
0101
1200
0000
1000
0010
,  // measure 45
0300
0000
0011
0000
0010
0000
1010
0000
0100
1000
0100
0000
1000
0000
1001
0000
0000
0000
0011
0000
0001
0000
0101
0000
1200
0000
0000
0000
1000
0000
0010
0000
,  // measure 46
1300
0000
0010
0000
0100
0001
0100
0001
0100
0000
0010
0000
1000
0000
0000
0000
,  // measure 47
0001
0000
0100
0000
0010
1000
0010
1000
0010
0000
0100
0000
0001
0000
0000
0000
,  // measure 48
1000
0000
0010
0000
0100
0001
0100
0001
0100
0000
0010
0000
1000
0000
0000
0000
,  // measure 49
0001
0000
0100
0000
0010
1000
0010
1000
0010
0000
0100
0000
0001
0000
0000
0000
,  // measure 50
0010
0000
0001
0000
0100
0010
0100
0010
0100
0000
0001
0000
0010
0100
0010
0100
,  // measure 51
0010
0000
0001
0000
0100
0010
0100
0010
0100
0000
0001
0000
0010
0100
0010
0100
,  // measure 52
0010
0001
0100
0001
0010
0100
1000
0100
0010
0001
0100
0001
0010
0100
1000
0100
,  // measure 53
0010
0000
0001
0000
0100
0010
0100
0010
0100
0000
0001
0000
2000
0000
0000
3000
,  // measure 54
0101
0001
0101
0100
0110
0010
1010
1000
,  // measure 55
1010
0000
1000
0000
1001
0000
0001
0000
0011
0000
0010
0000
0001
1000
0010
0000
,  // measure 56
1010
1000
1100
0100
0110
0010
0011
0001
,  // measure 57
1001
0000
0000
1000
0000
0000
1010
0000
0000
0010
0000
0000
0110
0000
0010
0000
1000
0000
0001
0000
0000
0100
0000
0000
,  // measure 58
0101
1000
1100
0001
0101
1000
1100
0010
,  // measure 59
0101
0000
0010
0000
1100
0000
0010
0000
0101
0000
0010
0000
0001
0100
0010
1000
,  // measure 60
1100
1000
1010
0001
0011
1000
1100
0001
,  // measure 61
0010
0001
0010
0000
0100
0010
0100
0000
0100
1000
0100
0000
1000
0010
1000
0000
,  // measure 62
0001
0100
0001
0000
1000
0100
1000
0000
0001
0010
0001
0000
1000
0010
1000
0000
,  // measure 63
0001
0100
0010
0000
1000
0100
0010
0000
0001
0100
0001
0100
0010
1000
0010
1000
,  // measure 64
0001
1000
0001
0000
1000
0010
1000
0000
0001
0010
0001
0000
0100
0001
0100
0000
,  // measure 65
0010
0000
0000
1000
0000
0000
0001
0000
0000
0000
0000
0000
0010
0000
0000
0001
0000
0000
1000
0000
0000
0000
0000
0000
0010
0000
0000
0000
1000
0000
0000
0000
0100
0000
0000
0000
0010
0000
0000
0000
0000
0000
0001
0000
0000
0000
0000
0000
,  // measure 66
1000
0000
0010
0000
1000
0000
0000
0000
0110
0000
0000
0000
0000
0000
0000
0000
0001
0000
0010
0000
0100
0000
0000
0000
1000
0010
1000
0010
1000
0000
0000
0000
,  // measure 67
0002
0000
0000
0000
0000
0000
0000
0000
0203
0000
0000
0000
0000
0000
0000
0000
0310
0000
0000
0000
0000
0000
0000
0000
1000
0010
1000
0010
1000
0000
0000
0000
,  // measure 68
0001
0000
0010
0000
0100
1000
0010
1000
0100
0000
0010
0000
0001
0100
0010
0100
,  // measure 69
0001
1000
0100
0010
0100
1000
0010
0100
0010
1000
0100
0010
0100
1000
0010
0100
,  // measure 70
0020
0000
0000
0000
,  // measure 71
0000
0000
0000
0000
,  // measure 72
0000
0000
0000
0000
,  // measure 73
0030
0000
0000
0000
;
