#TITLE:Polar Knight (Arrange);
#SUBTITLE:;
#ARTIST:Jake Kaufman feat. Synthescissor;
#TITLETRANSLIT:;
#SUBTITLETRANSLIT:;
#ARTISTTRANSLIT:;
#CREDIT:;
#BANNER:Shovel Knight_bn.jpg;
#BACKGROUND:Polar Knight_bg.jpg;
#LYRICSPATH:;
#CDTITLE:CD_Title.png;
#MUSIC:Polar Knight (Arrange).mp3;
#OFFSET:-0.080;
#SAMPLESTART:8.560;
#SAMPLELENGTH:13.000;
#SELECTABLE:YES;
#BPMS:0.000=113.000;
#STOPS:;
#BGCHANGES:;

//---------------dance-single - ----------------
#NOTES:
     dance-single:
     :
     Challenge:
     12:
     0.798,0.872,0.534,0.830,0.880:
1000
0100
0100
0010
0001
0001
0100
0010
0010
1000
0100
0100
0010
0001
0100
0010
,
1000
0100
0100
0001
0100
0100
1000
0010
0010
0001
0010
0010
1000
0100
0001
0100
,
0010
0000
0000
0000
0001
0000
0001
0000
0000
0000
1000
0000
1000
0000
0000
0000
0010
0000
0010
0000
0000
0000
0100
0000
0100
0000
0000
0000
0001
0000
1000
0001
,
1000
0000
0000
0000
1100
0000
1100
0000
0000
0000
0101
0000
0101
0000
0000
0000
0001
0000
0010
0000
0100
0000
1000
0000
0001
1000
0001
1000
0001
0000
0000
0000
,
1010
1000
0200
0000
0310
0001
0100
0101
0001
0010
0000
0000
11M0
0000
0000
0000
,
1001
0000
0000
0001
0000
0000
0020
0000
0000
0000
0000
0000
0130
0000
0000
0010
0000
0000
0001
0000
0000
0101
0000
0000
0100
0000
0000
0010
0000
0000
0000
0000
0000
0000
0000
0000
0M10
1000
0010
1000
0010
1000
0010
1000
0000
0000
0000
0000
,
1010
0000
1000
0100
0110
0000
0010
0001
0011
0000
0001
0100
0101
0000
0100
0010
,
1001
0000
0001
0010
0011
0000
1000
0010
1010
0000
0001
0010
0011
0000
1001
0000
,
1010
1000
0200
0000
0310
0001
0100
0101
0100
0010
0000
0000
11M0
0000
0000
0000
,
0011
0000
0000
0001
0000
0000
0200
0000
0000
0000
0000
0000
0310
0000
0000
1000
0000
0000
0100
0000
0000
1100
0000
0000
1000
0000
0000
0010
0000
0000
0000
0000
0000
0000
0000
0000
M010
0100
0010
0100
0010
0100
0010
0100
0000
0000
0000
0000
,
1010
0000
1000
0100
0110
0000
0010
0001
0011
0000
0001
0100
0110
0000
0010
1000
,
1010
0000
1000
0100
0011
0000
0001
0100
1010
0000
1000
0100
0011
0000
1001
0000
,
2020
0000
0000
0000
0000
0000
0000
0000
0000
0000
0000
0000
0030
0000
0000
0000
3002
0000
0000
0000
0000
0000
0000
0000
1003
0001
0010
0100
1000
0010
0100
0001
,
2000
0000
0000
0000
0000
0000
0001
0010
3200
0000
0000
0000
0000
0000
0010
0000
,
0002
0000
0300
0000
0000
0000
1000
0000
0200
0000
0003
0000
0000
0000
0310
0001
,
2000
0000
0000
0000
0000
0000
0001
0000
0200
0000
3000
0000
0000
0000
0001
0010
,
0002
0000
0300
0000
0000
0000
0000
0000
0003
0000
0000
0000
0000
0000
0100
1000
,
0020
0000
0000
0000
0000
0000
0001
1000
0002
0000
0030
0000
0000
0000
0010
0000
,
2000
0003
0200
0000
0000
0000
3300
0000
,
0002
0000
0000
0000
0000
0000
0000
0000
0000
0000
0000
0000
0000
0000
0000
0000
0000
0000
0000
0000
0000
0000
0000
0000
0000
0000
0000
0000
0000
0000
0000
0000
0000
0000
0000
0000
0003
0000
0000
0000
0000
0000
0000
0000
0000
0000
0000
0000
1000
0000
0000
0020
0000
0000
0000
0000
0000
0000
0000
0000
0000
0000
0000
0000
0000
0000
0000
0000
0000
0000
0000
0000
0000
0000
0000
0000
0000
0000
0000
0000
0000
0000
0000
0000
0000
0000
0000
0000
0000
0000
0000
0000
0000
0000
0000
0000
0000
0000
0000
0000
0000
0000
0000
0000
0000
0000
0000
0000
0000
0000
0000
0000
0000
0000
0000
0000
0000
0000
0000
0000
0000
0000
0000
0000
0000
0000
0030
0000
0100
0000
0000
0000
0000
0000
0000
0000
0001
0000
0000
0000
0000
0000
0000
0000
2000
0000
0000
0000
0000
0000
0000
0000
0000
0000
0000
0000
0000
0000
0000
0000
0000
0000
0000
0000
0000
0000
0000
0000
0000
0000
0000
0000
0000
0000
0000
0000
0000
0000
0000
0000
0000
0000
0000
0000
0000
0000
0000
0000
0000
0000
0000
0000
,
0200
0000
0000
0000
0000
0000
0000
0000
0000
0000
0000
0000
0000
0000
0000
0000
3300
0000
0000
0000
0000
0000
0000
0000
0010
0001
0100
0001
1000
0010
1000
0100
,
0010
0001
0100
0001
0010
0100
1000
0010
1000
0100
0010
0001
1000
0001
0010
0100
1000
0010
1000
0100
0010
0001
1000
0001
,
0010
0000
0100
0000
0010
0000
0001
0000
1000
0000
0010
0000
0100
0000
0010
0000
1000
0000
0001
0000
0010
0000
0100
0000
1000
0000
0100
0000
0010
0000
0001
0000
1000
0000
0010
0000
0100
0000
0010
0000
1000
0000
0001
0000
0000
0010
0000
0000
,
0200
0000
0000
0000
0000
0000
0000
0000
0000
0000
0000
0000
0000
0000
0000
0000
0000
0000
0000
0000
0000
0000
0300
0010
0002
0000
0000
0000
0000
0000
0000
0000
2000
0000
0000
0000
0000
0000
0000
0000
0003
0000
0000
0000
0000
0000
0000
0000
0020
0000
0000
0000
0000
0000
0000
0000
0000
0000
0000
0000
0000
0000
0000
0000
,
0002
0000
0000
0000
0000
0000
0000
0000
3033
0000
0000
0000
0010
1000
0100
0010
,
2000
0000
0000
0000
0020
0000
0000
0000
0002
0000
3M33
0000
0010
0001
1000
0010
,
0002
0000
0000
0000
0020
0000
0000
0000
2000
0000
3M33
0000
0011
0011
1010
1010
,
1100
0000
0000
0000
0000
0000
0000
0000
1000
0000
0100
0000
0001
0000
0100
0010
0002
0000
0000
0000
1003
0000
0010
0000
0002
0000
0000
0000
0000
0000
0000
0000
,
0003
0000
MM0M
0010
0200
0000
0000
0000
0000
0000
0000
0000
0001
0000
0300
0010
,
0100
0M11
00MM
0000
0000
1000
0100
0001
,
0020
0000
0000
0000
0000
0000
0000
0000
0000
1000
0000
0000
0002
0000
0000
0000
0000
0000
0000
0000
0000
0000
0000
0000
0030
0000
0000
0000
0000
0000
0000
0000
0000
0000
0000
0000
0003
0000
0000
0000
0000
0000
MM10
0001
0010
0001
0010
0001
,
MM10
0000
0000
0000
0001
0000
0000
0000
0000
0000
0000
0000
0000
0000
0000
0000
0000
0000
0000
0000
0000
0000
0000
0000
0000
0000
0000
0000
0000
0000
0000
0000
0000
0000
0000
0000
0000
0000
0000
0000
0000
0000
0000
0000
0000
0000
0000
0000
0001
0000
0000
0000
0000
0000
0000
0000
0000
0000
0000
0000
0100
0000
0000
0000
0000
0000
0000
0000
0000
0000
0000
0000
1000
0000
0000
0000
0000
0000
0000
0000
0000
0000
0000
0000
0100
0000
0000
0000
0000
0000
0010
0000
0000
0000
0000
0000
2000
0000
0000
0000
0000
0000
0000
0000
0000
0000
0000
0000
0000
0000
0000
0000
0000
0000
0000
0000
0000
0000
0000
0000
3100
0000
0000
0000
0000
0000
0000
0000
0000
0000
0000
0000
0010
0000
0000
0000
0000
0000
0000
0000
0000
0000
0000
0000
0001
0000
0000
0000
0000
0000
0000
0000
0000
0000
0000
0000
0000
0000
0000
0000
0000
0000
M00M
0000
0000
0000
0000
0000
0000
0000
0000
0000
0000
0000
0000
0000
0000
0000
0000
0000
0000
0000
0000
0000
0000
0000
0000
0000
0000
0000
0000
0000
,
1001
0000
1010
0100
0011
0M00
00MM
0000
0000
0000
0000
0000
0101
0000
0000
0020
,
2000
0001
0000
0000
3030
M1M0
0001
0010
,
0200
0000
0000
1000
0020
0000
0000
0301
2000
0000
0000
0000
3030
0000
M0M0
0000
,
0011
0000
0000
0000
0000
0000
0000
0000
0001
0000
0010
0000
1000
0000
0010
0100
1000
0000
0001
0000
0100
0000
1000
0000
0001
0000
0001
0000
0010
0000
0010
0000
,
2020
0000
0001
3030
0022
0000
1000
0033
0202
0000
1000
0303
2200
0000
0001
3300
,
1001
0000
0000
0000
0000
0000
0000
0000
0000
0000
0000
0000
0010
0000
0000
1000
0000
0000
0100
0000
0000
0001
0000
0000
0200
0000
0000
0000
0000
0000
0000
0000
0300
0010
0001
0010
0001
0000
0000
0000
0000
0000
0001
0000
0000
0000
0000
0000
,
0200
0000
0000
0310
1000
0100
0020
0000
0000
0000
0000
0000
0031
0010
0100
1000
0010
0100
0010
1000
0100
0010
0001
0100
,
0101
0000
0000
0000
0000
0000
0000
0000
0001
0000
0010
0000
1000
0000
0010
0100
1000
0000
0001
0000
0100
0000
1000
0000
0001
0000
0001
0000
0010
0000
0010
0000
,
2020
0000
0001
3030
0022
0000
1000
0033
0202
0000
1000
0303
2200
0000
0001
3300
,
1001
0000
0000
0000
0000
0000
0000
0000
0000
0000
0000
0000
0100
0000
0000
0001
0000
0000
0010
0000
0000
1000
0000
0000
0020
0000
0000
0000
0000
0000
0000
0000
0000
0000
0000
0000
0000
0000
0000
0000
0000
0000
0130
0000
1000
0000
0010
0000
,
0200
0000
0000
0000
0000
0000
0000
0000
1000
0000
0000
0000
M3MM
0000
0000
0000
0M00
0000
0000
0000
0000
0000
0000
0000
0100
0010
1000
0100
0010
0001
1000
0001
,
2000
0000
0000
0000
0000
0000
0010
0001
0020
0000
0000
0000
3000
0000
0001
0000
,
0200
0000
0000
0000
0030
0000
1000
0000
0002
0000
0000
0000
0300
0000
0010
0100
,
2000
0000
0003
0000
0000
0000
0100
0000
0020
0000
3000
0000
0000
0000
1000
0100
,
0002
0000
0030
0000
2000
0000
0000
0000
3003
0000
M00M
0000
1000
0100
0001
0010
,
0200
0000
0000
0000
0000
0000
0010
1000
0020
0000
0300
0000
0000
0000
0001
0000
,
2000
0030
0200
0000
0001
0000
0010
3300
,
0021
0000
0000
0000
0031
1000
0020
0000
0000
0000
0000
0000
0200
0000
0000
0000
0000
0000
0002
0000
0000
0000
0000
0000
,
1333
0000
0000
0000
0000
0000
0000
0000
1110
0000
0000
0000
0000
0000
0000
0000
0111
0000
0000
0000
0000
0000
0000
0000
0001
0100
0001
0100
0010
1000
0001
1000
,
0020
0000
0000
0000
0000
0000
0100
0001
0200
0000
0030
0000
2000
0000
0300
0000
,
0020
0000
3000
0000
0002
0000
0000
0000
2000
0000
0000
0000
3033
0000
0010
1000
,
1200
0000
0000
0000
0000
0000
0000
0000
0000
0000
0000
0000
0000
0000
0000
0000
0000
0000
0000
0000
0300
0000
0000
0010
0002
0000
0000
0000
0000
0000
0000
0000
0200
0000
0000
0000
0000
0000
0000
0000
0000
0000
0000
0000
0000
0000
0000
0000
0010
0000
0000
0000
0000
0000
0000
0000
0303
0000
0000
0000
0000
0000
0000
0000
,
2020
0000
0000
0000
0000
0000
0000
0000
3030
0000
M0M0
0000
0010
1000
0100
0010
,
0002
0000
0100
0000
2000
0000
0013
0000
0002
0000
3100
0000
1003
0001
0010
1000
,
0020
0000
1000
0000
0002
0000
0130
0000
0023
0000
0031
0000
0011
0011
1010
1010
,
1001
0000
0000
0000
0000
0000
0000
0000
0001
0000
0010
0000
1000
0000
0010
0100
2000
0000
0000
0000
3001
0000
0100
0000
2000
0000
0000
0000
0000
0000
0000
0000
,
3000
0000
M0MM
0100
0020
0000
0000
0000
0000
0000
0000
0000
0100
0000
0030
0001
,
0010
11MM
MM00
0000
0000
1000
0100
0001
,
0200
0000
0000
0000
0000
0000
0000
0000
0000
0001
0000
0000
2000
0000
0000
0000
0000
0000
0000
0000
0000
0000
0000
0000
0300
0000
0000
0000
0000
0000
0000
0000
0000
0000
0000
0000
3000
0000
0000
0000
0000
0000
01MM
1000
0100
1000
0100
1000
,
01MM
0000
0000
0000
1000
0000
0000
0000
0000
0000
0000
0000
0000
0000
0000
0000
0000
0000
0000
0000
0000
0000
0000
0000
0000
0000
0000
0000
0000
0000
0000
0000
0000
0000
0000
0000
0000
0000
0000
0000
0000
0000
0000
0000
0000
0000
0000
0000
1000
0000
0000
0000
0000
0000
0000
0000
0000
0000
0000
0000
0010
0000
0000
0000
0000
0000
0000
0000
0000
0000
0000
0000
0001
0000
0000
0000
0000
0000
0000
0000
0000
0000
0000
0000
0010
0000
0000
0000
0000
0000
0100
0000
0000
0000
0000
0000
0002
0000
0000
0000
0000
0000
0000
0000
0000
0000
0000
0000
0000
0000
0000
0000
0000
0000
0000
0000
0000
0000
0000
0000
0013
0000
0000
0000
0000
0000
0000
0000
0000
0000
0000
0000
0100
0000
0000
0000
0000
0000
0000
0000
0000
0000
0000
0000
1000
0000
0000
0000
0000
0000
0000
0000
0000
0000
0000
0000
0000
0000
0000
0000
0000
0000
M00M
0000
0000
0000
0000
0000
0000
0000
0000
0000
0000
0000
0000
0000
0000
0000
0000
0000
0000
0000
0000
0000
0000
0000
0000
0000
0000
0000
0000
0000
,
1001
0000
0101
0010
1100
00M0
MM00
0000
0000
0000
0000
0000
0020
0000
0000
0001
,
0200
0030
0001
0000
0000
0000
0000
0000
0300
0000
MM01
0000
0100
0000
1000
0000
,
0020
0000
0000
1000
0200
0000
0030
1000
0002
0000
0000
0000
0300
0000
0M03
0000
,
110M
0000
0000
0000
0000
0000
0000
0000
1000
0000
0100
0000
0001
0000
0100
0010
0001
0000
1000
0000
0010
0000
0001
0000
1000
0000
1000
0000
0100
0000
0100
0000
,
0202
0000
1000
0303
2200
0000
0001
3300
2020
0000
0001
3030
0022
0000
1000
0033
,
1001
0000
0000
0000
0000
0000
0000
0000
0000
0000
0000
0000
0100
0000
0000
0001
0000
0000
0010
0000
0000
1000
0000
0000
0020
0000
0000
0000
0000
0000
0000
0000
0030
0100
1000
0100
1000
0000
0000
0000
0000
0000
1000
0000
0000
0000
0000
0000
,
0020
0000
0000
0130
0001
0010
0210
0000
0000
0000
0000
0000
1300
0010
0100
0001
0010
0100
0010
0001
0100
0010
1000
0001
,
1010
0000
0000
0000
0000
0000
0000
0000
1000
0000
0100
0000
0001
0000
0100
0010
0001
0000
1000
0000
0010
0000
0001
0000
1000
0000
1000
0000
0100
0000
0100
0000
,
0202
0000
1000
0303
2200
0000
0001
3300
2020
0000
0001
3030
0022
0000
1000
0033
,
1001
0000
0000
0000
0000
0000
0000
0000
0000
0000
0000
0000
0010
0000
0000
1000
0000
0000
0100
0000
0000
0001
0000
0000
0200
0000
0000
0000
0000
0000
0000
0000
0000
0000
0000
0000
0000
0000
0000
0000
0000
0000
0310
0000
0001
0000
0100
0000
,
0020
0000
0000
0000
0000
0000
0000
0000
0001
0000
0000
0000
MM3M
0000
0000
0000
00M0
0000
0000
0000
0000
0000
0000
0000
0010
1000
0010
1000
0001
0010
0100
1000
,
0001
1000
0100
0000
0M10
0001
0100
0101
0001
0010
0000
0000
11M0
0000
0000
0000
,
0202
0000
0000
0000
,
0303
0000
0000
0000
;

//---------------dance-single - ----------------
#NOTES:
     dance-single:
     :
     Hard:
     9:
     0.597,0.658,0.157,0.717,0.541:
1000
0000
0010
1000
0000
0100
1000
0000
0010
1000
0000
0100
1000
0000
0010
0000
,
0100
0000
0001
0010
0000
0001
0100
0000
0001
0010
0000
0001
0100
0000
0010
0000
,
2000
0000
0000
0000
0100
0000
0100
0000
0000
0000
0001
0000
0001
0000
0000
0000
0100
0000
0100
0000
0000
0000
0001
0000
0001
0000
3000
0000
0000
0000
0001
1000
,
0002
0000
1000
1000
0000
0010
0013
0000
0001
0100
0010
1000
0200
0000
0300
0000
,
1000
0010
1000
0000
0001
0010
0001
0100
0010
2000
0000
0000
3001
0000
0000
0000
,
0001
0010
0001
0000
1000
0010
1000
0100
0010
0002
0000
0000
1003
0000
0000
0000
,
0010
0000
1000
0010
1000
0000
0010
0100
0010
0000
0100
0001
0100
0000
0001
0010
,
0001
0000
0010
0100
0010
0000
0100
1000
0100
0000
1000
0010
1000
0000
0001
0000
,
1000
0010
1000
0000
0001
0010
0100
0010
0001
2000
0000
0000
3001
0000
0000
0000
,
0100
0001
0100
0000
0001
1000
0001
0010
0100
2000
0000
0000
3001
0000
0000
0000
,
1000
0000
0010
1000
0010
0000
1000
0001
1000
0000
0001
0010
0001
0000
0100
0001
,
0100
0000
0010
1000
0010
0000
1000
0100
1000
0000
0001
0010
0001
0000
2000
0000
,
0002
0000
0000
0000
0000
0000
0000
0000
3003
0000
0000
0000
0000
0000
0001
1000
,
0020
0000
0000
0000
0000
0000
0130
0010
2000
0000
0000
0000
0000
0000
3100
0000
,
0020
0000
0000
0000
0000
0000
0031
0000
0200
0000
0000
0000
0000
0000
0310
1000
,
0002
0000
0000
0000
0000
0000
0013
0000
0200
0000
0000
0000
0000
0000
0310
0001
,
2000
0000
0000
0000
0000
0000
0000
0000
0000
0000
0000
0000
3000
0000
0010
0100
,
0002
0000
0000
0000
0000
0000
0013
0100
2000
0000
0000
0000
0000
0000
3010
0000
,
0200
0000
0002
0000
0000
0303
0000
0000
,
2000
0000
0000
0000
0000
0000
3020
0000
0000
0000
0000
0000
0000
0000
0000
0030
0100
0010
0100
0000
0000
0000
0000
0000
,
0020
0000
0000
0000
0000
0000
0000
0000
0030
0000
0000
0000
0010
1000
0010
0100
,
0002
0000
0000
0000
0000
0000
0013
0100
2000
0000
0000
0000
0000
0000
3010
0000
,
0200
0000
0000
0000
0000
0000
0301
0000
0020
0000
0000
0000
0000
0000
0031
0100
,
0020
0000
0000
1030
0200
0000
0320
0000
,
0032
0000
0000
0000
0003
0000
0000
0000
0000
0000
0000
0000
0001
0100
0010
1000
,
0200
0000
0000
0000
1000
0000
0000
0000
0010
0000
0300
0000
0100
1000
0010
0100
,
0002
0000
0000
0000
1000
0000
0000
0000
0010
0000
0003
0000
1000
1000
0001
0001
,
1000
0000
0000
0000
0000
0000
0000
0000
0001
0000
0100
0000
0010
0000
1000
0001
2000
0000
0000
0000
3100
0000
0010
0000
0001
0000
0000
0000
0000
0000
0000
0000
,
0000
0000
0000
1000
0020
0000
0000
0000
0000
0000
0000
0000
0130
0000
0000
0001
,
0020
0200
0000
0030
0300
0010
0010
0001
,
2000
0000
0000
0000
0000
0000
0001
0000
0002
0000
0000
0000
0000
0000
0000
0000
3003
0000
0000
0000
0000
0000
0000
0000
0000
0000
0000
0000
0000
1000
0001
1000
,
0001
0000
0000
0000
0000
0000
0000
0000
1000
0000
0010
0000
0100
0000
0001
1000
0002
0000
0000
0000
0013
0000
0100
0000
2000
0000
0000
0000
0000
0000
0000
0000
,
3010
0000
0010
0100
0002
0000
0000
0000
0000
0000
0003
0000
0001
0000
0000
1000
,
0200
0020
0000
0300
0030
0100
0100
1000
,
0002
0000
0000
1000
2000
0000
0003
0001
3001
0000
0000
0000
0000
0000
0000
0000
,
0011
0000
0000
0000
0000
0000
0000
0000
0001
0000
0100
0000
0010
0000
1000
0001
1000
0000
0001
0000
1000
0000
0010
0000
0100
0000
0000
0000
0000
0000
0000
0000
,
2001
0000
0100
3000
1002
0000
0100
0003
0021
0000
1000
0030
1020
0000
0001
0030
,
1010
0000
0000
0000
0000
0000
0000
0000
1000
0000
0010
0000
1000
0000
0100
0000
0010
0000
0000
0000
0000
0000
0001
0010
0001
0000
0000
0000
0001
0000
0000
0000
,
0100
0000
0000
0010
1000
0010
2000
0000
0000
0000
0000
0000
0001
0000
0000
0000
0000
0000
0100
0000
0000
3000
0000
0000
,
1100
0000
0000
0000
0000
0000
0000
0000
1000
0000
0010
0000
0100
0000
0001
1000
0001
0000
1000
0000
0001
0000
0100
0000
0010
0000
0000
0000
0000
0000
0000
0000
,
0210
0000
0001
0300
0120
0000
1000
0030
2010
0000
0100
3000
0012
0000
0100
0003
,
1100
0000
0000
0000
0000
0000
0000
0000
0000
0000
0000
0000
0001
0000
0000
0100
0000
0000
0001
0000
0000
0010
0000
0000
0200
0000
0000
0000
0000
0000
0000
0000
0000
0000
0000
0000
0000
0000
0000
0000
0300
0000
1000
0000
0001
0000
1000
0000
,
0020
0000
0000
0000
0000
0000
0230
0000
0000
0000
0000
0000
0300
0000
0000
0000
0000
0000
0010
1000
0010
1000
0001
1000
,
0002
0000
0000
0000
0000
0000
0013
0100
2000
0000
0000
0000
0000
0000
3010
0000
,
0200
0000
0000
0000
0300
0000
0001
0000
0020
0000
0000
0000
0030
0000
0001
1000
,
0002
0000
0000
0000
0000
0000
1003
0000
0020
0000
0000
0000
0030
0000
0100
0010
,
2000
0000
0000
0000
0002
0000
0000
0000
3003
0000
0000
0000
0001
0100
0010
1000
,
0200
0000
0000
0000
0000
0000
0310
0001
0200
0000
0000
0000
0300
0000
0010
0000
,
2000
0200
3300
0000
,
0020
0000
0000
0030
0001
1000
0002
0000
0000
0000
0000
0000
0003
0000
0000
0000
0000
0000
0020
0000
0000
0000
0000
0000
,
0230
0000
0000
0000
0000
0000
0300
0000
0000
0000
0000
0000
1000
0010
0100
0001
,
0020
0000
0000
0000
0000
0000
0031
0010
0200
0000
0000
0000
0320
0000
0000
0000
,
0032
0000
0000
0000
2003
0000
0000
0000
3200
0000
0000
0000
0300
0000
1000
0010
,
0200
0000
0300
0001
0020
0000
0230
0000
,
0302
0000
0000
0000
0000
0000
0000
0000
0003
0000
0000
0000
0100
1000
0001
0100
,
0020
0000
0000
0000
0001
0000
0000
0000
0100
0000
0030
0000
0001
0010
0100
0001
,
0200
0000
0000
0000
1000
0000
0000
0000
0010
0000
0300
0000
0010
0010
0001
0001
,
1000
0000
0000
0000
0000
0000
0000
0000
0001
0000
0100
0000
0010
0000
1000
0001
2000
0000
0000
0000
3100
0000
0010
0000
0001
0000
0000
0000
0000
0000
0000
0000
,
0000
0000
0000
1000
0020
0000
0000
0000
0000
0000
0000
0000
0130
0000
0000
0001
,
0020
0200
0000
0030
0300
0010
0010
0001
,
2000
0000
0000
0000
0000
0000
0001
0000
0002
0000
0000
0000
0000
0000
0000
0000
3003
0000
0000
0000
0000
0000
0000
0000
0000
0000
0000
0000
0000
0010
0001
0010
,
0001
0000
0000
0000
0000
0000
0000
0000
1000
0000
0010
0000
0100
0000
0001
1000
0002
0000
0000
0000
0013
0000
0100
0000
2000
0000
0000
0000
0000
0000
0000
0000
,
3010
0000
0010
0100
0002
0000
0000
0000
0000
0000
0003
0000
0001
0000
0000
1000
,
0200
0020
0000
0300
0030
0100
0100
1000
,
0002
0000
0000
1000
2000
0000
0003
0001
3001
0000
0000
0000
0000
0000
0000
0000
,
1100
0000
0000
0000
0000
0000
0000
0000
1000
0000
0010
0000
0100
0000
0001
1000
0001
0000
1000
0000
0001
0000
0100
0000
0010
0000
0000
0000
0000
0000
0000
0000
,
1002
0000
0010
0003
2001
0000
0010
3000
1200
0000
0001
0300
0201
0000
1000
0300
,
0101
0000
0000
0000
0000
0000
0000
0000
0001
0000
0100
0000
0001
0000
0010
0000
0100
0000
0000
0000
0000
0000
1000
0100
1000
0000
0000
0000
1000
0000
0000
0000
,
0010
0000
0000
0100
0001
0100
0002
0000
0000
0000
0000
0000
1000
0000
0000
0000
0000
0000
0010
0000
0000
0003
0000
0000
,
0011
0000
0000
0000
0000
0000
0000
0000
0001
0000
0100
0000
0010
0000
1000
0001
1000
0000
0001
0000
1000
0000
0010
0000
0100
0000
0000
0000
0000
0000
0000
0000
,
0120
0000
1000
0030
0210
0000
0001
0300
0102
0000
0010
0003
2100
0000
0010
3000
,
0011
0000
0000
0000
0000
0000
0000
0000
0000
0000
0000
0000
1000
0000
0000
0010
0000
0000
1000
0000
0000
0100
0000
0000
0020
0000
0000
0000
0000
0000
0000
0000
0000
0000
0000
0000
0000
0000
0000
0000
0030
0000
0001
0000
1000
0000
0001
0000
,
0200
0000
0000
0000
0000
0000
0320
0000
0000
0000
0000
0000
0030
0000
0000
0000
0000
0000
0100
0010
1000
0001
0010
0100
,
1000
0100
1000
0000
0001
0100
0001
0010
0100
2000
0000
0000
3001
0000
0000
0000
,
0220
0000
0000
0330
;

//---------------dance-single - Copied from----------------
#NOTES:
     dance-single:
     Copied from:
     Medium:
     6:
     0.461,0.493,0.075,0.484,0.163:
1000
0000
0000
0100
0000
0000
0010
0000
0000
0001
0000
0000
0010
0000
0001
0000
,
0001
0000
0000
0010
0000
0000
0100
0000
0000
1000
0000
0000
0100
0000
1000
0000
,
2000
0000
0000
0001
0000
0000
0001
0000
0000
0001
0000
0000
0001
0000
3001
0000
,
0020
0000
0000
0100
0000
0000
0100
0000
0130
0000
1000
0000
1001
0000
0000
0000
,
0001
0000
0010
0000
0100
0000
0000
1000
0000
0001
0000
0000
1001
0000
0000
0000
,
1000
0000
0010
0000
0100
0000
0000
0001
0000
1000
0000
0000
1001
0000
0000
0000
,
1000
0010
1000
0100
0010
0001
0100
0001
,
0010
0100
1000
0100
0010
0001
0100
0001
,
1000
0000
0010
0000
0100
0000
0000
0001
0000
0010
0000
0000
1100
0000
0000
0000
,
0001
0000
0100
0000
0010
0000
0000
1000
0000
0100
0000
0000
0011
0000
0000
0000
,
0001
0100
0001
0010
0100
1000
0010
1000
,
0100
0010
0001
0010
0100
1000
0010
2000
,
0002
0000
0000
0000
3003
0000
0000
1000
,
0020
0000
0000
0130
0002
0000
0000
0013
,
0200
0000
0000
1300
0020
0000
0000
1030
,
0002
0000
0000
0013
0200
0000
0000
1300
,
0020
0000
0000
0000
0030
0000
0100
0001
,
0020
0000
0000
0130
2000
0000
0000
3010
,
0200
0002
0303
0000
,
0002
2003
0000
3020
,
0230
0000
0000
0000
0300
0000
0010
1000
,
0002
0000
0000
0013
0200
0000
0000
1300
,
0020
0000
0000
0130
0002
0000
0000
1003
,
0002
0000
0000
0013
0200
0000
0320
0000
,
0032
0000
0000
0000
0003
0000
1000
0001
,
0200
0000
1000
0000
0010
0300
0001
1000
,
0200
0000
0001
0000
0010
0300
0001
0000
,
1000
0000
0000
0000
0001
0010
0001
0010
0001
0000
0010
0001
0010
0000
0000
0000
,
0000
0000
0000
0001
2000
0000
0000
0000
0000
0000
0000
0000
3010
0000
0000
0000
,
1000
0200
0000
0000
0300
0010
0010
0001
,
0010
0002
0003
0000
,
1000
0000
0000
0000
1000
0010
1000
0010
1000
0000
0010
1000
0010
0000
0000
0000
,
1000
0002
0000
0103
,
0001
0020
0000
0000
0030
0001
0001
1000
,
0002
0203
0310
0000
,
1010
0000
0000
0000
1000
0001
1000
0001
1000
0000
0001
0010
0001
0000
0000
0000
,
1000
0100
0001
0100
0010
0001
0100
1000
,
0100
0000
0010
1000
0002
0000
0023
0000
,
0130
1000
0100
0000
0000
0000
0000
0000
,
0011
0000
0000
0000
0001
1000
0001
1000
0001
0000
1000
0010
1000
0000
0000
0000
,
0001
0100
1000
0100
0010
1000
0100
0001
,
0100
0000
0010
0001
2000
0000
3000
0010
,
0200
0000
0002
0000
0303
0000
0001
1000
,
0020
0100
0130
0010
2000
0001
3001
1000
,
0020
0100
0130
0001
0020
0100
0130
0001
,
2000
0010
3010
1000
0200
0010
0310
0001
,
2000
0000
0002
0000
3003
0000
1000
0010
,
0200
0001
0301
0010
0200
1000
1300
0100
,
0020
0032
0003
0000
,
1000
0000
0001
1000
0002
0000
0000
0000
0000
0000
0000
0000
0203
0000
0000
0000
,
0320
0000
0000
0000
0030
0000
1000
0001
,
0010
0100
0010
0001
0100
1000
0100
0010
,
2000
0001
3020
0001
0230
0001
2300
0001
,
3010
0100
0001
0010
1000
0010
0100
1000
,
0002
1000
0203
1000
0320
1000
0032
1000
,
0013
0100
1000
0010
1000
0100
0010
0001
,
1000
0010
0001
0010
1000
0100
0010
0001
,
1010
0000
0000
0000
1000
0010
1000
0100
0010
0000
0001
0100
0001
0000
0000
0000
,
0000
0000
0000
0001
2000
0000
0000
0000
0000
0000
3000
0000
0010
0000
0000
1000
,
0100
0020
0000
0000
0000
0031
0001
1000
,
0010
0000
0000
0010
0200
0000
0000
0000
0300
0000
0000
0000
0100
0001
0100
0001
,
1000
0000
0000
0000
0001
0100
0001
0010
0100
0000
1000
0010
1000
0000
0000
0000
,
0001
0000
0010
0100
0020
0000
0000
0000
0000
0000
0030
0000
0001
0000
0000
1000
,
0010
2000
0000
0000
3000
0001
0001
1000
,
0010
0000
0000
1000
0200
0000
0300
0010
0002
0000
0000
0003
0000
0000
0000
0000
,
1010
0000
0000
0000
1000
0010
1000
0100
0010
0000
0010
0001
0010
0000
0000
0000
,
0001
0100
1000
0100
0010
1000
0100
0001
,
0100
0000
0010
0001
2000
0000
3010
0100
,
0001
0010
1000
0000
0000
0000
0000
0000
,
0011
0000
0000
0000
0001
0100
0001
0010
0100
0000
0100
1000
0100
0000
0000
0000
,
1000
0100
0001
0100
0010
0001
0100
1000
,
0100
0000
0010
1000
0002
0000
0003
0010
,
0200
2000
3300
0000
,
1000
0000
0010
0000
0100
0000
0000
0001
0000
0010
0000
0000
0110
0000
0000
0000
,
2200
0000
0000
3300
;

//---------------dance-single - Copied from Copied f----------------
#NOTES:
     dance-single:
     Copied from Copied f:
     Easy:
     2:
     0.234,0.304,0.013,0.396,0.000:
2000
0000
0000
0000
,
3002
0000
0000
0000
,
0203
0000
0000
0000
,
0320
0000
0000
0000
,
1030
0010
0100
0000
,
0001
0010
0100
0000
,
1000
0001
1000
0001
,
0100
0010
0100
0010
,
1000
0001
0100
0000
,
0001
1000
0100
0000
,
1000
0010
1000
0010
,
0100
0001
0100
0001
,
1000
0000
0000
0000
,
0002
0000
0203
0000
,
0320
0000
2030
0000
,
3200
0000
0320
0000
,
0032
0000
0003
0000
,
2000
0000
3002
0000
,
0013
0010
0000
0000
,
0001
0002
0000
1003
,
2000
0000
3000
0010
,
0020
0000
2030
0000
,
3002
0000
0203
0000
,
0302
0000
2003
0000
,
3010
0000
0000
1000
,
0002
0000
0000
0013
,
0200
0000
0000
0300
,
0000
1000
0100
1000
,
0000
0002
0000
0103
,
0010
0000
0000
1000
,
0001
1000
0000
0000
,
1001
0001
0010
0001
,
1000
0020
0000
0130
,
0001
0000
0000
1000
,
0001
1000
0010
0000
,
0000
0100
0001
0100
,
0020
2030
3002
0023
,
0031
1000
0001
1000
,
0010
0100
0000
0000
,
0000
0010
1000
0010
,
0200
0302
2003
3020
,
1030
0001
0010
0000
,
0001
1000
0000
0010
,
2000
0000
3200
0000
,
0320
0000
0032
0000
,
0023
0000
0230
0000
,
2300
3001
0000
0001
,
0200
0000
0320
0000
,
1030
0001
0000
0000
,
0001
2000
0000
3010
,
0200
0000
0300
0010
,
2000
0000
3200
0000
,
0310
0001
0020
0000
,
0032
0000
1003
0001
,
0020
0000
0030
0001
,
2000
0010
0010
0001
,
3002
0100
0100
1000
,
0003
0001
0010
0001
,
0000
2000
0000
3010
,
0100
0000
0000
0001
,
1000
0001
0000
0000
,
1010
1000
0010
1000
,
0100
0020
0000
0031
,
0010
0000
0000
0001
,
1000
0001
0010
0000
,
0000
0001
0100
0001
,
0020
0032
2003
3020
,
1030
0001
1000
0010
,
0100
0001
0000
0000
,
0000
1000
0010
1000
,
0200
0320
0032
2003
,
3010
1000
0200
0000
,
0310
0002
0000
0003
,
1000
0001
0010
0000
,
0001
1000
0010
0000
;

//---------------dance-single - Copied from Copied f----------------
#NOTES:
     dance-single:
     Copied from Copied f:
     Beginner:
     1:
     0.133,0.164,0.000,0.000,0.000: // measure 1
1000
0000
0000
0000
,  // measure 2
0001
0000
0000
0000
,  // measure 3
0100
0000
0000
0000
,  // measure 4
0010
0000
0000
0000
,  // measure 5
1000
0000
0000
0000
,  // measure 6
0001
0000
0000
0000
,  // measure 7
0100
0000
0100
0000
,  // measure 8
0010
0000
0010
0000
,  // measure 9
1000
0000
0000
0000
,  // measure 10
0001
0000
0000
0000
,  // measure 11
1000
0000
1000
0000
,  // measure 12
0001
0000
0001
0000
,  // measure 13
0010
0000
0000
0000
,  // measure 14
0001
0000
0100
0000
,  // measure 15
0010
0000
1000
0000
,  // measure 16
0100
0000
0010
0000
,  // measure 17
0001
0000
0000
0000
,  // measure 18
1000
0000
0001
0000
,  // measure 19
0100
0000
0000
0000
,  // measure 20
0010
0000
0000
1000
,  // measure 21
0001
0000
0000
0100
,  // measure 22
0010
0000
1000
0000
,  // measure 23
0100
0000
0010
0000
,  // measure 24
0001
0000
1000
0000
,  // measure 25
0001
0000
0000
0100
,  // measure 26
0100
0000
0000
0010
,  // measure 27
0010
0000
0000
0000
,  // measure 28
0000
1000
0001
1000
,  // measure 29
0000
0010
0000
0010
,  // measure 30
0100
0000
0000
0001
,  // measure 31
1000
0000
0000
0000
,  // measure 32
0000
0001
1000
0001
,  // measure 33
1000
0010
0000
0100
,  // measure 34
0100
0000
0000
0000
,  // measure 35
0001
0000
1000
0000
,  // measure 36
0010
0000
0100
0000
,  // measure 37
0001
0010
0100
0010
,  // measure 38
0001
0000
1000
0000
,  // measure 39
0001
0000
0000
0000
,  // measure 40
0000
0001
1000
0001
,  // measure 41
1000
0100
0010
0100
,  // measure 42
1000
0000
0001
0000
,  // measure 43
1000
0000
0000
0000
,  // measure 44
0010
0000
0100
0000
,  // measure 45
0001
0000
1000
0000
,  // measure 46
0001
0000
0010
0000
,  // measure 47
0100
0000
0000
0000
,  // measure 48
1000
0000
0010
0000
,  // measure 49
0100
0000
0000
0000
,  // measure 50
0001
1000
0000
1000
,  // measure 51
0001
0000
0000
0100
,  // measure 52
0010
0000
1000
0000
,  // measure 53
0100
0000
0010
0000
,  // measure 54
0001
0000
0100
0000
,  // measure 55
0010
0000
0000
1000
,  // measure 56
0001
0000
0000
0001
,  // measure 57
1000
0000
0000
0000
,  // measure 58
0000
0010
0100
0010
,  // measure 59
0000
1000
0000
1000
,  // measure 60
0001
0000
0000
0001
,  // measure 61
0100
0001
0000
0000
,  // measure 62
0000
0100
0010
0100
,  // measure 63
0001
1000
0000
1000
,  // measure 64
0001
0000
0000
0001
,  // measure 65
0100
0001
1000
0000
,  // measure 66
0000
0010
0100
0010
,  // measure 67
1000
0100
0010
0100
,  // measure 68
1000
0000
0001
0000
,  // measure 69
0100
0000
0000
0000
,  // measure 70
0000
1000
0001
1000
,  // measure 71
0001
0010
0100
0010
,  // measure 72
0001
0000
1000
0000
,  // measure 73
0001
0000
0000
0000
,  // measure 74
0100
0000
0010
0000
,  // measure 75
1000
0000
0001
0000
;
