#TITLE:Polar 240;
#SUBTITLE:;
#ARTIST:ParagonX9;
#TITLETRANSLIT:;
#SUBTITLETRANSLIT:;
#ARTISTTRANSLIT:;
#CREDIT:;
#BANNER:Polar 240.png;
#BACKGROUND:;
#LYRICSPATH:;
#CDTITLE:CD_Title.png;
#MUSIC:Polar 240.ogg;
#OFFSET:-0.075;
#SAMPLESTART:4.000;
#SAMPLELENGTH:11.980;
#SELECTABLE:YES;
#BPMS:0.000=120.000,8.000=240.001,232.000=120.000,248.000=240.001,312.000=120.000;
#STOPS:;
#BGCHANGES:;

//---------------dance-single - ----------------
#NOTES:
     dance-single:
     :
     Hard:
     10:
     0.920,1.000,1.000,0.327,0.245: // measure 1
1100
0000
0000
0001
0100
0010
0100
0001
0011
0000
0000
1000
0010
0100
0010
1000
,  // measure 2
1100
0000
0000
0010
0100
0001
0100
0010
1010
0000
0000
0100
0010
1000
0010
0100
,  // measure 3
0101
0000
0010
1000
0000
0010
0001
0000
,  // measure 4
1010
0000
1000
0010
0000
0001
0010
0000
,  // measure 5
0011
0000
1000
0100
0000
0001
0100
1000
,  // measure 6
0020
0000
0001
0000
2030
0000
0100
3000
,  // measure 7
0101
0000
0010
1000
0000
0001
0010
0000
,  // measure 8
0011
0000
1000
0010
0000
0001
0100
0000
,  // measure 9
1100
0000
0001
0010
0000
1000
0010
0001
,  // measure 10
0200
0000
1000
0000
0002
0300
0010
0003
,  // measure 11
1010
0000
0100
0010
0000
0001
0010
0000
,  // measure 12
0011
0000
0001
1000
0000
0010
0001
0000
,  // measure 13
1010
0000
0001
1000
0000
0001
1000
0010
,  // measure 14
0002
0000
1000
0000
0023
0000
1000
0030
,  // measure 15
1100
0000
0001
0010
0000
1000
0001
0000
,  // measure 16
0011
0000
1000
0001
0000
0010
1000
0000
,  // measure 17
1100
0000
0010
0001
0000
1000
0001
0010
,  // measure 18
2000
0000
0010
0000
0002
3000
0100
0003
,  // measure 19
1100
0000
0010
1000
0100
1000
0010
0000
,  // measure 20
0011
0000
0001
0100
0010
0100
0001
0000
,  // measure 21
1010
0000
1000
0001
0010
0001
1000
0010
,  // measure 22
0200
0000
1000
0000
0020
0300
0001
0030
,  // measure 23
1010
0000
1000
0001
0000
0010
0001
0100
,  // measure 24
0101
0000
0001
1000
0000
0010
1000
0100
,  // measure 25
1100
0000
1000
0001
0000
0010
0001
0100
,  // measure 26
0020
0000
0001
0000
2000
0030
0100
3000
,  // measure 27
1100
0000
1000
0001
0000
0010
0001
1000
,  // measure 28
1010
0000
1000
0010
0000
0100
0001
0010
,  // measure 29
0011
0000
0001
0100
0000
0010
1000
0100
,  // measure 30
0020
0000
1000
0000
0002
0030
0100
0003
,  // measure 31
0101
0000
0010
1000
0000
0100
0010
0001
,  // measure 32
0011
0000
0100
0001
0000
0100
0010
1000
,  // measure 33
1100
0000
0010
0001
0000
1000
0010
0100
,  // measure 34
0101
0000
0001
0100
0010
1000
0100
0010
,  // measure 35
0011
0000
0100
0010
1000
0001
0010
0000
,  // measure 36
0011
0000
0001
1000
0010
0100
0001
0000
,  // measure 37
1001
0000
1000
0010
0100
0001
0010
0100
,  // measure 38
2000
0000
0100
0000
0020
3000
0001
0030
,  // measure 39
1010
0000
1000
0001
0010
0100
0010
0000
,  // measure 40
0011
0000
0001
1000
0010
0100
0010
0000
,  // measure 41
1010
0000
1000
0010
0001
0010
0100
0001
,  // measure 42
0020
0000
1000
0000
0200
0030
0010
0300
,  // measure 43
0011
0000
0001
1000
0010
0001
0010
0000
,  // measure 44
1010
0000
1000
0100
0001
0100
0010
0000
,  // measure 45
0011
0000
0001
0100
1000
0100
0010
1000
,  // measure 46
0200
0000
0010
0000
0002
0300
0100
0003
,  // measure 47
1100
0000
0100
1000
0010
0001
0010
0000
,  // measure 48
0011
0000
0001
0010
1000
0100
0010
0000
,  // measure 49
0110
0000
0100
1000
0010
0100
0001
0010
,  // measure 50
0200
0000
1000
0000
0002
0300
0100
0003
,  // measure 51
1100
1010
1010
0011
,  // measure 52
0000
0101
0101
1100
,  // measure 53
0000
1100
1010
1100
,  // measure 54
1010
0000
1001
0000
0011
1000
0000
0000
,  // measure 55
0000
0101
0101
1100
,  // measure 56
0000
1010
1010
0011
,  // measure 57
0000
0101
1001
0101
,  // measure 58
1001
0000
1100
0000
1010
0001
0000
0000
,  // measure 59
0101
0000
0000
0101
0000
0101
0000
0000
1100
0000
0000
1100
0000
1100
0000
0000
,  // measure 60
1001
0000
0000
1001
0000
1001
0000
0000
0011
0000
0101
0000
0011
1000
0000
0000
,  // measure 61
1010
0000
0000
1010
0000
0011
0000
0000
0011
0000
0000
0011
0000
1010
0000
0000
,  // measure 62
1100
0000
0000
1100
0000
0101
0000
0000
1010
0000
1100
0000
1010
0001
0000
0000
,  // measure 63
0010
0001
0100
0001
0010
0001
1000
0010
,  // measure 64
0100
0001
1000
0001
0100
0010
1000
0001
,  // measure 65
0010
0100
0010
0001
0010
0100
1000
0010
,  // measure 66
1000
0001
0010
0001
1000
0010
0100
0001
,  // measure 67
0010
0100
1000
0100
0010
0001
1000
0010
,  // measure 68
1000
0001
0100
0001
1000
0010
0100
0001
,  // measure 69
0010
0100
0010
0001
0010
0100
1000
0010
,  // measure 70
1000
0001
0010
0001
1000
0010
0100
0001
,  // measure 71
0010
0100
1000
0100
0010
0001
1000
0010
,  // measure 72
0100
0001
0100
0010
1000
0100
0010
0100
,  // measure 73
1000
0010
0001
0010
1000
0100
0010
0001
,  // measure 74
0010
0100
0001
0100
0010
0001
1000
0010
,  // measure 75
0100
0001
0010
1000
0010
0001
0100
0010
,  // measure 76
1000
0100
0010
1000
0010
0100
1000
0010
,  // measure 77
0100
0001
0010
0100
0010
0001
1000
0010
,  // measure 78
1000
0001
0010
0001
0100
0010
0001
0010
,  // measure 79
0200
0000
0000
0010
0000
1000
0300
0000
0020
0000
0000
1000
0000
0100
0030
0000
,  // measure 80
2000
0000
0000
0001
0000
0100
3000
0000
1100
0000
0101
0000
0011
0000
0000
0000
,  // measure 81
0020
0000
0000
0001
0000
0100
0030
0000
2000
0000
0000
0010
0000
0001
3000
0000
,  // measure 82
0020
0000
0000
0100
0000
0001
0030
0000
0101
0000
1100
0000
1010
0000
0000
0000
,  // measure 83
1010
0000
1000
0100
0000
1000
0010
0000
0011
0000
0100
0001
0000
0010
0001
0000
,  // measure 84
1010
0000
1000
0010
0000
0100
0001
0010
0200
0000
1000
0000
0020
0300
0001
0030
,  // measure 85
1001
0000
0000
1100
0000
0101
0000
0000
1001
0000
0000
0101
0000
1100
0000
0000
,  // measure 86
1010
0000
0000
0011
0000
0101
0000
0000
0020
0000
0001
0000
2000
0030
0001
3000
,  // measure 87
2002
0000
0000
0000
,  // measure 88
3003
0000
0000
0000
;

//---------------dance-single - Copied from----------------
#NOTES:
     dance-single:
     Copied from:
     Medium:
     8:
     0.670,0.878,0.423,0.596,0.072:
1100
0000
0001
0010
0011
0000
1000
0100
,
1100
0000
0001
0100
0101
0000
1000
0010
,
1010
0000
0000
0010
0000
0000
1000
0000
,
1001
0000
0000
0001
0000
0000
0010
0000
,
0011
0000
0000
0001
0000
0000
0100
0000
,
0120
2030
3002
0003
,
1001
0000
0000
0001
0000
0000
0100
0000
,
0110
0000
0000
0010
0000
0000
1000
0000
,
1001
0000
0000
1000
0000
0000
0100
0000
,
1200
2300
3002
0003
,
0011
0000
0000
0001
0000
0000
1000
0000
,
1010
0000
0000
1000
0000
0000
0001
0000
,
0011
0000
0000
0010
0000
0000
0001
0000
,
0021
0032
2003
3000
,
1010
0000
0000
0010
0000
0000
1000
0000
,
1001
0000
0000
0001
0000
0000
0010
0000
,
0011
0000
0000
0001
0000
0000
0100
0000
,
0120
2030
3002
0003
,
1000
0010
1000
0010
,
0100
0001
0010
0100
,
1000
0000
0010
0000
1000
0000
0010
0100
,
0020
2030
3002
0003
,
1000
0010
1000
0010
,
0100
0000
0001
0000
1000
0000
0100
1000
,
0100
0000
1000
0000
0010
0000
0100
0001
,
0200
0302
2003
3000
,
1010
0010
1000
0001
,
0010
0001
0100
0001
,
0010
0000
0001
0000
1000
0000
0010
1000
,
0020
2030
3002
0003
,
0011
0001
0100
0010
,
1010
1000
0100
0010
,
0011
0001
0100
0010
,
2000
3002
0023
0030
,
0011
0000
0001
0200
0000
0000
0310
0000
,
1010
0000
1000
0200
0000
0000
0310
0000
,
0011
0000
0001
2000
0000
3010
1000
0010
,
2000
3002
0023
0030
,
0011
0000
0001
0200
0000
0000
0310
0000
,
1010
0000
1000
0200
0000
0000
0310
0000
,
0011
0000
0001
0200
0000
0310
1000
0010
,
2000
3002
0023
0030
,
0011
0000
0001
1000
0000
0001
1000
0000
,
1010
0000
1000
0001
0000
1000
0001
0000
,
0011
0000
0001
0100
0000
0001
0100
0001
,
0200
0320
2030
3000
,
1010
0000
1000
0001
0000
0010
0001
0000
,
0011
0000
0001
1000
0000
0010
1000
0000
,
1010
0000
1000
0100
0000
0010
0001
0010
,
0002
2003
3020
0030
,
1000
0100
0100
0001
,
0000
0001
0100
1000
,
0000
1000
0100
0001
,
0100
0000
1000
0000
0010
1000
0000
0000
,
0001
0100
0100
1000
,
0000
1000
0100
0001
,
0000
0001
0010
1000
,
0010
0000
0001
0000
1000
0010
0000
0000
,
1000
0010
0010
0001
0000
0001
0010
1000
,
0000
0000
1000
0000
0010
0000
0001
0000
0010
0000
1000
0000
0010
0100
0000
0000
,
0001
0010
0010
1000
0000
1000
0010
0001
,
0000
0000
0001
0000
0100
0000
1000
0000
0100
0000
0001
0000
0010
0100
0000
0000
,
1000
0000
0010
0100
0010
0000
0100
0000
,
0001
0000
1000
0001
1000
0000
0001
0000
,
0010
0000
0100
0010
0100
0000
0010
0000
,
0001
0000
1000
0001
1000
0000
0010
0000
,
0100
0000
0010
1000
0010
0000
1000
0000
,
0100
0000
0010
0001
0010
0000
0001
0000
,
0100
0000
0010
1000
0010
0000
1000
0000
,
0001
0000
0010
0001
0010
0000
0001
0000
,
1000
0000
0010
1000
0001
0000
1000
0000
,
0001
0000
0100
0001
1000
0000
0010
0000
,
1000
0000
0100
1000
0001
0000
0010
0000
,
0001
0000
0010
0001
1000
0000
0010
0000
,
0100
0000
0010
1000
0100
0000
0010
0000
,
0001
0000
0100
0010
1000
0000
0001
0000
,
1000
0000
0010
1000
0100
0000
0010
0000
,
0001
0000
0100
0010
1000
0000
0001
0000
,
2000
0000
0000
0001
0000
0000
0100
0000
3002
0000
0000
1000
0000
0000
0100
0000
,
2003
0000
0000
0001
0000
0000
3100
0000
0020
0000
2030
0000
3002
0000
0003
0000
,
0020
0000
0000
0001
0000
0000
0100
0000
0032
0000
0000
1000
0000
0000
0100
0000
,
2003
0000
0000
0010
0000
0000
3001
0000
2000
0000
3002
0000
0023
0000
0030
0000
,
0011
0000
0000
0001
0000
0000
0100
0000
1010
0000
0000
1000
0000
0000
0100
0000
,
0011
0000
0000
0001
0000
0000
0100
0000
1020
0000
2030
0000
3002
0000
0003
0000
,
1020
0000
0000
0100
0000
0000
1000
0030
0021
0000
0000
0001
0000
0000
0100
0030
,
2001
0000
0000
0010
0000
0000
0100
0000
3001
0000
1000
0000
0010
1000
0000
0000
,
2002
0000
0000
0000
,
3003
0000
0000
0000
;

//---------------dance-single - Copied from Copied f----------------
#NOTES:
     dance-single:
     Copied from Copied f:
     Easy:
     6:
     0.428,0.502,0.259,0.202,0.000:
1100
0000
0011
0000
,
0101
0000
1010
1000
,
0001
0001
0001
0000
,
1000
1000
1000
0000
,
0010
0010
0010
0000
,
0100
0010
1010
0000
,
0001
0001
0001
0000
,
1000
1000
1000
0000
,
0010
0010
0010
0000
,
0100
0000
0010
0000
,
1000
0100
1000
0000
,
0001
0100
0001
0000
,
1000
0010
1000
0000
,
0001
0010
0011
0000
,
1000
0001
1000
0000
,
0001
0010
0001
0000
,
0100
0001
0100
0000
,
0010
0000
0100
0000
,
0010
0000
0000
1000
0000
0000
0010
0000
,
1000
0000
0000
0001
0000
0000
1000
0000
,
0001
0000
0000
0010
0000
0000
0001
0000
,
1000
0010
1010
0000
,
1000
0000
0000
0001
0000
0000
1000
0000
,
0010
0000
0000
0100
0000
0000
0010
0000
,
1000
0000
0000
0100
0000
0000
1000
0000
,
0001
0000
0100
0000
,
0010
0000
0000
1000
0000
0000
0100
0000
,
1000
0000
0000
0001
0000
0000
0010
0000
,
0001
0000
0000
0100
0000
0000
0010
0000
,
1000
0001
0011
0000
,
0001
0000
0000
0100
0000
0000
0010
0000
,
1000
0000
0000
0100
0000
0000
0010
0000
,
0001
0000
0000
1000
0000
0000
0010
0000
,
0100
0000
0010
0000
,
1010
1000
1000
0000
,
0011
0001
0001
0000
,
0110
0100
0100
0000
,
0010
1000
1001
0000
,
0001
0001
0011
0000
,
1000
1000
1010
0000
,
0010
0010
0110
0000
,
0100
0000
0001
0000
,
1000
0010
1010
0000
,
0001
0010
0011
0000
,
1000
0010
1010
0000
,
1001
0000
0101
0000
,
0001
0010
1010
0000
,
1000
0100
0101
0000
,
0010
1000
0101
0000
,
0110
0000
1010
0000
,
1000
0010
1000
0100
,
0000
0010
0001
0100
,
0000
0010
1000
0010
,
0100
0000
0001
0000
1000
0001
0000
0000
,
0000
0010
0001
0100
,
0000
0010
1000
0100
,
0000
1000
0001
0010
,
0001
0000
1000
0000
0010
1000
0000
0000
,
2002
0000
0203
3000
,
0320
0000
0031
1000
,
2020
0000
0000
3000
0200
0000
0030
0000
,
0002
0300
1003
0001
,
1000
0010
1000
0100
,
0010
0001
0100
0001
,
0010
0001
1000
0010
,
1000
0100
0010
0001
,
0010
0100
1000
0010
,
0100
0001
1000
0100
,
1000
0010
0100
0001
,
1000
0100
1000
0010
,
0100
0001
0010
0100
,
0010
0001
1000
0010
,
0100
0010
1000
0001
,
0010
0100
0010
0001
,
1000
0100
1000
0010
,
0100
0001
0010
0001
,
1000
0010
0100
0001
,
0010
0100
1000
0001
,
2000
0000
3200
0000
,
0320
0000
0031
1000
,
0020
0000
0230
0000
,
0302
0000
1003
0001
,
0020
0000
0230
0000
,
2300
0000
3010
1000
,
0002
0000
2003
0000
,
3020
0000
0130
0001
,
2000
0000
0000
0000
,
3000
0000
0000
0000
;
