#TITLE:One More Night;
#SUBTITLE:;
#ARTIST:Cascada;
#TITLETRANSLIT:;
#SUBTITLETRANSLIT:;
#ARTISTTRANSLIT:;
#CREDIT:;
#BANNER:One More Night-bn.png;
#BACKGROUND:One More Night-bg.png;
#LYRICSPATH:;
#CDTITLE:;
#MUSIC:One More Night.mp3;
#OFFSET:0.120;
#SAMPLESTART:27.680;
#SAMPLELENGTH:15.000;
#SELECTABLE:YES;
#BPMS:0.000=142.000;
#STOPS:;
#BGCHANGES:;

//---------------dance-single - ----------------
#NOTES:
     dance-single:
     :
     Challenge:
     10:
     0.745,0.846,0.831,0.000,0.632:
0000
0000
0000
0000
,
1000
0010
0100
0000
,
0001
0100
1000
1000
,
0100
0001
0010
0000
,
0001
0100
1000
1000
,
0010
0001
0100
0000
,
0001
0001
0010
1000
,
0100
0000
0000
0000
,
1000
0000
1001
0001
,
1000
0010
0001
0000
,
1000
0100
1001
0010
,
0001
0100
0011
0000
,
1000
0010
1100
0001
,
0010
1000
0101
0000
,
0010
1000
0101
0010
,
1100
0000
0000
0000
,
1001
0000
0001
1000
,
1100
1000
0001
0000
0011
0001
0100
0000
,
0110
0010
1000
0100
0001
0100
1000
0010
,
0000
0100
0000
0101
0000
0100
1000
0010
,
0000
0011
0000
1010
0000
0010
1000
0100
,
1100
1000
0001
0000
0011
0001
0100
0000
,
0110
0100
0001
0010
1000
0010
0001
0100
,
0000
0101
0000
1100
0000
0010
0001
0100
,
0000
0101
0000
1100
0000
1000
0010
0100
,
0101
0100
0110
0010
1000
0100
0110
0010
,
0001
0100
0101
0001
1000
0100
1100
1100
,
1000
0010
0110
0101
0001
0010
0011
0101
,
0100
0110
1000
1010
1000
0100
1100
1010
,
0010
0100
0101
0001
0010
0100
1100
1010
,
0010
0100
0101
0110
0010
1000
1100
1010
,
0010
0110
0100
0101
0001
0010
0110
1100
,
0000
1010
0000
0101
0000
0000
0000
0000
,
0001
0000
1000
0100
0000
1000
0010
1000
0100
0000
0010
0001
0000
0100
0001
0010
,
0001
0000
0100
0010
0000
1000
0100
1000
0010
0010
0100
0000
0001
0010
0000
0001
,
0011
0000
0001
0100
0000
0010
1000
0100
1000
0000
0010
0100
0000
0001
0010
0001
,
0100
0000
0010
1000
0000
0100
0010
0001
0010
0010
0100
0000
0010
0001
0100
0010
,
1010
1100
0101
0011
,
1010
1000
1100
0001
0011
0100
1010
1000
,
1100
1100
0101
0101
0011
1010
0101
1100
,
0010
1000
0100
0010
0001
0100
1000
0100
0010
1000
0100
0001
0100
0010
0001
0100
,
0110
0000
0000
0000
,
1010
0000
1000
0100
0000
0010
0001
0100
0001
0000
0010
0100
0000
1000
0010
0100
,
0010
0000
0100
0001
0000
0010
0100
1000
0010
0100
0010
0000
0110
0000
0101
0000
,
0011
0000
0001
0100
0000
0010
1000
0100
0010
0000
0100
1000
0000
0010
0100
0001
,
0010
0000
0100
1000
0000
0010
0100
0001
0010
0010
0100
0000
0110
0000
1010
0000
,
1000
0000
0010
0100
0000
0001
0010
0100
0010
0000
0100
1000
0000
0010
0100
0001
,
0010
0000
0100
1000
0000
0010
0100
0001
0011
0000
0101
0000
0011
0001
0000
0100
,
0110
0000
0010
1000
0000
0100
0010
0001
0100
0000
0010
1000
0000
0100
1000
0010
,
0100
0000
0010
0001
0000
0100
0010
1000
0100
0100
0010
0001
0001
0000
1001
0000
,
1010
0000
1000
0100
0000
0010
0001
0100
0100
0000
0010
1000
0000
0100
0010
1000
,
1000
0000
0010
0100
0000
0001
0010
0100
0100
1000
0010
0000
0100
0101
0000
0001
,
1001
0000
1000
0100
0000
0100
1000
0010
0010
0000
0100
0001
0000
0010
0001
0100
,
0100
0000
0010
1000
0000
0100
0010
0100
1000
1000
0010
0100
0100
0000
0110
0000
,
1001
0000
0010
0001
0000
0100
0010
1000
0100
0000
0010
1000
0000
0100
1000
0010
,
0100
0000
0001
0010
0000
0001
0100
0010
1000
0000
1100
0000
1010
1000
0000
0010
,
0110
0000
0100
0001
0000
0010
0100
1000
0010
0000
0100
0001
0000
0010
0100
1000
,
0010
0000
0100
0001
0000
1000
0010
0100
0001
0001
0010
0100
0100
0000
1001
0000
,
0101
0000
0001
0100
0000
0100
0010
1000
1000
0000
0010
0100
0000
0001
0010
0100
,
0100
0000
1000
0010
0000
0100
0001
0010
0100
0100
1000
0000
0010
1010
0000
1000
,
1100
0000
1000
0010
0000
0100
0001
0010
0010
0000
0100
1000
0000
0010
0100
0001
,
0001
0000
0010
0100
0000
1000
0010
0100
0100
0010
1000
1000
0100
1000
0001
0000
,
1001
0001
0010
1000
,
1001
1000
0010
0001
,
0011
0010
1000
0100
,
1100
0100
0001
0010
,
1100
0000
0000
0000
;

//---------------dance-single - Copied from----------------
#NOTES:
     dance-single:
     Copied from:
     Hard:
     8:
     0.506,0.613,0.256,0.080,0.146:
0000
0000
0000
0000
,
1000
0010
0100
0000
,
0001
0100
0010
0000
,
1000
0001
0100
0000
,
0001
1000
0100
0000
,
0110
1000
0001
0000
,
1001
0010
0100
0000
,
0220
0000
0000
0330
,
1001
0000
1000
0100
,
1001
0100
1000
0000
,
0001
0100
0101
0000
,
1000
0010
1010
0000
,
0001
0010
1001
0100
,
1001
0010
0001
0000
,
1000
0010
1001
0100
,
0120
0000
0000
0000
,
1030
0000
1000
0001
,
1001
0000
0000
1000
0100
0001
0100
1000
,
1000
0000
0000
0010
0001
0001
0100
0020
,
0000
0000
1030
0200
0000
0000
0310
0001
,
0000
0011
0000
1010
0000
0000
1000
0200
,
0000
0300
0001
0100
1000
0100
0001
0001
,
1000
0000
0000
0010
1000
1000
0100
0010
,
0000
0011
0000
1010
0000
0000
1000
0100
,
0000
0101
0000
1100
0000
0010
1000
0100
,
0010
0001
0100
0001
0100
0010
1000
0010
,
1000
0100
0010
0100
0010
0001
0100
0001
,
0100
0010
1000
0100
0010
0001
0100
0010
,
1000
0100
1000
0001
0010
0100
1000
0010
,
0100
0001
0010
0100
0010
0001
1000
0010
,
0100
0001
0010
0100
0010
0001
1000
0100
,
1000
0010
0100
0001
0010
0100
0010
0001
,
0000
0101
0000
1100
0000
0000
0000
0000
,
1000
1100
0001
0101
,
1000
0000
1100
0000
0010
1000
0100
0000
,
0001
0011
1000
1010
,
0001
0000
0011
0000
0100
0010
1000
0001
,
1000
1100
0001
0101
,
1000
0010
0100
0000
0001
0010
0100
0000
,
0010
0001
0100
0010
1000
0100
0001
0100
,
1000
0010
0100
0001
0010
1000
0010
0001
,
0000
0000
0000
0000
,
1000
0010
0100
0000
0010
1000
0100
0000
,
1000
0010
0100
0000
0010
1000
0001
0000
,
0001
0100
0010
0000
0010
0100
0001
0000
,
0001
0100
0010
0000
0010
1000
0100
0010
,
0001
0100
0010
0000
0010
1000
0100
0000
,
0100
0010
0001
0000
0001
1000
0100
1000
,
0010
0100
0001
0000
0010
0100
1000
0000
,
0010
0100
0001
0000
0100
0010
1000
1000
,
0010
0000
0100
0001
0000
0000
0010
0000
0100
0000
1000
0010
0000
0000
0100
0000
,
0001
0000
0010
0100
0000
0000
1000
0000
0010
0000
0100
0000
0001
1000
0000
1000
,
0001
0000
0100
0010
0000
0000
1000
0000
0010
0000
0100
0001
0000
0000
0001
0000
,
0100
0000
0010
1000
0000
0000
0100
0000
1000
0010
1000
0000
0010
0000
0100
0000
,
0001
0000
0010
0001
0000
0000
0001
0000
0100
0000
0010
1000
0000
0000
1000
0000
,
0100
0000
0010
0001
0000
0000
0001
0000
0100
0000
0010
0000
1000
0100
0000
0010
,
0001
0000
0100
0010
0000
0000
1000
0000
0100
0000
1000
0010
0000
0000
0100
0000
,
0001
0000
0010
0100
0000
0000
1000
0000
0010
0100
0010
0000
1000
0000
0100
0000
,
1000
0000
0100
1000
0000
0100
1000
0000
0010
0000
0100
0001
0000
0100
0001
0000
,
0010
0000
0100
1000
0000
0100
1000
0000
0010
0000
0100
0000
0001
0010
0000
0100
,
1000
0000
0010
0100
0000
0010
0100
0000
0001
0000
0010
0100
0000
0010
0100
0000
,
1000
0000
0010
0100
0000
0010
0100
0000
0001
0010
0001
0000
0100
0000
0010
0000
,
1000
0001
0020
0000
,
0130
1000
0020
0000
,
0130
0001
0020
0000
,
0130
1000
0010
0100
,
1001
0000
0000
0000
;

//---------------dance-single - Copied from Copied f----------------
#NOTES:
     dance-single:
     Copied from Copied f:
     Medium:
     6:
     0.399,0.438,0.380,0.115,0.000:
0000
0000
0000
0000
,
0001
0000
0100
0000
,
0010
1000
0100
0000
,
1000
0000
0001
0000
,
0010
0001
0100
0000
,
0010
0000
1000
0000
,
0100
0010
0001
0000
,
1001
0000
0000
0000
,
0110
0000
0100
0000
,
0010
1000
1100
0000
,
1000
0000
0001
0000
,
0010
0001
0101
0000
,
0001
0000
1000
0000
,
0010
0100
0101
0000
,
0010
0000
1000
0000
,
1001
0000
0000
0000
,
0110
0000
1000
0001
,
1001
1000
0010
0100
,
0001
0100
0010
1000
,
0100
1100
1000
0001
,
0010
0011
0001
0100
,
0010
1010
0010
0011
,
0100
0101
0100
1100
,
1000
1010
0001
0011
,
1010
0101
1001
1000
,
1001
0000
0010
0000
0010
0100
0010
0000
,
1100
0000
0010
0000
0100
0001
0100
0000
,
0001
0011
1000
0100
,
1000
1010
0010
0100
,
0110
0000
1000
0000
1000
0001
1000
0000
,
0010
0000
0100
0000
0001
1000
0001
0000
,
0100
0101
0001
1000
,
1100
0101
1001
0000
,
2000
3100
0002
0103
,
2000
0000
3100
0000
0010
0001
0100
0000
,
0002
0013
2000
3010
,
0002
0000
0013
0000
1000
0010
0100
0000
,
0010
0010
0010
0010
,
1000
0001
1000
0000
1000
0001
1000
0000
,
0010
0100
0010
0100
0010
0100
0010
0100
,
0001
0010
0100
1000
0010
0100
0001
1000
,
0100
0000
0000
0000
,
1010
0010
1000
0100
,
1100
0000
1000
0000
0010
0100
0100
0000
,
0101
0001
0010
0100
,
1100
0000
1000
0000
0010
0100
0010
0000
,
0101
0001
1000
0100
,
1100
0000
1000
0000
0010
0100
0100
0000
,
0101
0001
1000
0100
,
0110
0000
0010
0000
0001
1000
0001
0000
,
1000
0100
1000
0000
1000
0100
1000
0000
,
0010
0000
0100
0000
0001
0010
0100
0000
,
0010
0001
0010
0000
0010
0001
0010
0000
,
0001
0000
0100
0000
0010
1000
0100
0000
,
0010
0100
1000
0000
0010
0100
0001
0000
,
1000
0000
0100
0000
0010
0001
0100
0000
,
0010
1000
0100
0000
0010
0001
0100
0000
,
0010
0000
1010
0000
0010
1000
0100
0010
,
0001
0011
0010
1010
,
1000
0000
1100
0000
0100
1000
0010
0000
,
0100
0101
0100
1100
,
1000
0000
1010
0000
0010
1000
0100
0010
,
0002
0000
0023
0000
,
0230
0000
1000
1300
,
0020
0000
0230
0000
,
0302
0000
2003
0001
,
3001
0000
0000
0000
;

//---------------dance-single - Copied from Copied f----------------
#NOTES:
     dance-single:
     Copied from Copied f:
     Easy:
     3:
     0.248,0.263,0.062,0.062,0.000:
0000
0000
0000
0000
,
0010
0000
1000
0000
,
0010
0100
0010
0000
,
0100
0000
0001
0000
,
1000
0001
1000
0000
,
0010
0000
0100
0000
,
0001
0010
0001
0000
,
1001
0000
0000
0000
,
0000
0000
1000
0001
,
0100
0000
0010
0000
,
1000
0010
1000
0000
,
0010
0000
0100
0000
,
0001
0010
0001
0000
,
0100
0000
0010
0000
,
1000
0100
1000
0000
,
1001
0000
0000
0000
,
0110
0000
0010
0010
,
0110
0000
1000
0001
,
1000
0000
0010
0100
,
0020
0000
0100
0000
,
0230
0000
0001
0000
,
0301
0000
0001
1000
,
0001
0000
1000
0100
,
2000
0000
0010
0000
,
3001
1000
0001
0000
,
1001
0000
1000
0010
,
0100
0000
0010
0100
,
0002
0000
0100
0000
,
2003
0000
0100
0000
,
3010
0000
0010
0100
,
0001
0000
1000
0010
,
0200
0000
0010
0000
,
0320
0000
1030
0000
,
1000
0000
0001
0000
,
1000
0000
0010
0100
,
0001
0000
1000
0000
,
0001
0000
0100
0010
,
1000
1000
1000
1000
,
0001
0001
0100
0100
,
0010
1000
0010
1000
,
0100
0010
0001
0100
,
0100
0000
0000
0000
,
0110
0000
0100
0000
,
0010
0000
1000
0100
,
0010
0000
0001
0000
,
0100
0000
0010
1000
,
1001
0000
1000
0000
,
0010
0000
0100
0001
,
0010
0000
0100
0000
,
1000
0000
0001
1000
,
1000
1000
0001
0001
,
0100
0100
0010
0010
,
1000
1000
0010
0010
,
0100
0100
0001
0001
,
1000
0010
1000
0010
,
0100
0001
0100
0001
,
0010
0100
0010
0100
,
1000
0010
1000
0010
,
0100
0001
0010
0100
,
1000
0010
0100
0001
,
1000
0100
0010
0001
,
0100
0010
1000
0001
,
0100
0000
0010
0000
,
0010
0000
1000
0000
,
1000
0000
0001
0000
,
0001
0000
0100
0000
,
0100
0000
0000
0000
;

//---------------dance-single - Copied from Copied from Copied f----------------
#NOTES:
     dance-single:
     Copied from Copied from Copied f:
     Beginner:
     2:
     0.116,0.144,0.018,0.000,0.000: // measure 1
0000
0000
0000
0000
,  // measure 2
1000
0000
0000
0000
,  // measure 3
0001
0000
0000
0000
,  // measure 4
1000
0000
0000
0000
,  // measure 5
0001
0000
0000
0000
,  // measure 6
0100
0000
0000
0000
,  // measure 7
0010
0000
0000
0000
,  // measure 8
0110
0000
0000
0000
,  // measure 9
0000
0000
0000
0000
,  // measure 10
0010
0000
0000
0000
,  // measure 11
0100
0000
0000
0000
,  // measure 12
0010
0000
0000
0000
,  // measure 13
0100
0000
0000
0000
,  // measure 14
0001
0000
0000
0000
,  // measure 15
1000
0000
0000
0000
,  // measure 16
1001
0000
0000
0000
,  // measure 17
0000
0000
0000
0000
,  // measure 18
1000
0000
1000
0000
,  // measure 19
1000
0000
0000
0000
,  // measure 20
0001
0000
0001
0000
,  // measure 21
0001
0000
0000
0000
,  // measure 22
0100
0000
0100
0000
,  // measure 23
0100
0000
0000
0000
,  // measure 24
0010
0000
0010
0000
,  // measure 25
0010
0000
0000
0000
,  // measure 26
1000
0000
0010
0000
,  // measure 27
1000
0000
0000
0000
,  // measure 28
0010
0000
0100
0000
,  // measure 29
0010
0000
0000
0000
,  // measure 30
0100
0000
0001
0000
,  // measure 31
0100
0000
0000
0000
,  // measure 32
0001
0000
0010
0000
,  // measure 33
0001
0000
0000
0000
,  // measure 34
1000
0000
1000
0000
,  // measure 35
1000
0000
1000
0000
,  // measure 36
0001
0000
0001
0000
,  // measure 37
0001
0000
0001
0000
,  // measure 38
0100
0000
0100
0000
,  // measure 39
0100
0000
0100
0000
,  // measure 40
0010
0000
0010
0000
,  // measure 41
0010
0000
0010
0000
,  // measure 42
0000
0000
0000
0000
,  // measure 43
1000
0000
0001
0000
,  // measure 44
1000
0000
0000
0000
,  // measure 45
0001
0000
1000
0000
,  // measure 46
0001
0000
0000
0000
,  // measure 47
0100
0000
0010
0000
,  // measure 48
0100
0000
0000
0000
,  // measure 49
0010
0000
1000
0000
,  // measure 50
0010
0000
0000
0000
,  // measure 51
1000
0000
0100
0000
,  // measure 52
0010
0000
0000
0000
,  // measure 53
0001
0000
0100
0000
,  // measure 54
0010
0000
0000
0000
,  // measure 55
1000
0000
0001
0000
,  // measure 56
0100
0000
0000
0000
,  // measure 57
0001
0000
1000
0000
,  // measure 58
0100
0000
0000
0000
,  // measure 59
1000
0000
0100
0000
,  // measure 60
0010
0000
0001
0000
,  // measure 61
0100
0000
0010
0000
,  // measure 62
1000
0000
0001
0000
,  // measure 63
0100
0000
0000
0000
,  // measure 64
0010
0000
0000
0000
,  // measure 65
1000
0000
0000
0000
,  // measure 66
0001
0000
0000
0000
;
