#TITLE:ナイト・オブ・ナイツ;
#SUBTITLE:;
#ARTIST:ビートまりお(COOL&CREATE);
#TITLETRANSLIT:Night of knights;
#SUBTITLETRANSLIT:;
#ARTISTTRANSLIT:beatMARIO (COOL&CREATE);
#CREDIT:;
#BANNER:Night of Knights.png;
#BACKGROUND:DDR A_bg.png;
#LYRICSPATH:;
#CDTITLE:cd_title.png;
#MUSIC:Night of knights.ogg;
#OFFSET:-0.020;
#SAMPLESTART:33.333;
#SAMPLELENGTH:15.000;
#SELECTABLE:YES;
#DISPLAYBPM:180.000;
#BPMS:0.000=180.000;
#STOPS:;
#BGCHANGES:;

//---------------dance-single - Copied from----------------
#NOTES:
     dance-single:
     Copied from:
     Challenge:
     12:
     1.000,1.000,1.000,0.603,0.888:
0000
0000
0000
0000
,
0000
0000
0000
0000
,
0000
0000
0000
0000
,
0000
0000
0000
0000
,
0000
0000
0000
0000
,
1000
0000
0010
0000
1000
0100
0000
0010
0000
0001
0000
0100
0010
1000
0010
0000
,
1000
0001
0010
0000
0001
0010
0000
0001
0000
0100
0000
0010
1000
0000
0100
0000
,
1000
0001
0010
0000
0001
0100
0000
0010
0000
1000
0000
0100
0010
0001
0010
0000
,
0001
0100
0010
0000
1000
0001
0000
0101
0000
1100
1000
0000
1001
0000
0110
0000
,
0001
0100
0010
0000
1000
0100
0000
0010
0000
0001
0000
0100
0010
1000
0010
0000
,
1000
0001
0010
0000
0001
0010
0000
0011
0000
0101
0000
0001
1000
0000
1001
0000
,
0110
0000
1000
0000
0010
0100
0000
0001
0000
0010
0000
0100
1000
0100
0010
0001
,
0100
0001
0100
0000
0010
1000
0000
1010
0000
1100
0000
0101
0001
0000
1000
0000
,
1010
0000
1001
0000
0001
0010
0000
0001
0000
1000
0000
0010
1000
0010
1000
0100
,
0010
0001
0010
0000
0001
0100
0000
0101
0000
1100
0000
1010
0010
0000
0100
0000
,
0110
0010
1000
0000
0100
0010
0000
0011
0000
1001
0000
1000
0010
1000
0100
0010
,
0001
1000
0001
0000
0010
0001
0000
1001
0000
1010
0000
0010
1000
0100
0010
0000
,
0011
0000
1001
0000
0001
1000
0100
1000
0001
0000
1001
0000
1000
0001
0010
0001
,
1000
0000
1001
0000
0001
1000
0010
1000
0001
0000
1001
0000
0101
0000
1010
0000
,
1001
0000
1000
0000
0001
0010
0100
0010
0001
0000
1001
0000
1000
0010
0100
0010
,
1000
0000
1001
0000
0001
0010
0100
0010
0001
0000
1001
0000
1010
0000
0101
0000
,
1001
0000
1000
0000
0001
0010
0100
1000
0001
0000
1001
0000
0001
1000
0100
0010
,
0001
0000
0000
0000
0000
0000
1001
0000
0000
0000
0000
0000
0001
0000
0000
0010
0000
0000
0100
0000
0000
1000
0000
0000
0001
0000
0000
0000
0000
0000
1000
0000
0010
0000
0100
0000
0001
0000
0000
0000
0000
0000
1000
0000
0000
0000
0000
0000
,
1001
0000
0010
1000
0100
0000
0010
0000
1001
0000
0010
0001
0100
0000
0010
0000
,
1001
0000
0010
1000
1100
0000
0010
0001
0101
0000
0000
0000
MMMM
0000
0000
0000
,
1100
0000
1001
0000
1000
0001
0010
0001
1000
0000
1001
0000
0001
1000
0100
1000
,
0001
0000
1001
0000
1000
0001
0100
0001
1000
0000
1001
0000
1010
0000
0101
0000
,
1001
0000
0001
0000
1000
0100
0010
0100
1000
0000
1001
0000
0001
0100
0010
0100
,
0001
0000
1001
0000
1000
0100
0010
0100
1000
0000
1001
0000
0101
0000
1010
0000
,
1001
0000
0001
0000
1000
0100
0010
0001
1000
0000
1001
0000
1000
0001
0010
0100
,
1000
0000
0000
0000
0000
0000
1001
0000
0000
0000
0000
0000
1000
0000
0000
0100
0000
0000
0010
0000
0000
0001
0000
0000
1000
0000
0000
0000
0000
0000
0001
0000
0100
0000
0010
0000
1000
0000
0000
0000
0000
0000
0001
0000
0000
0000
0000
0000
,
1001
0000
0000
0000
0000
0000
0010
0000
0000
0100
0000
0000
0001
0000
0000
0000
0000
0000
1000
0000
0000
0000
0000
0000
1001
0000
0000
0000
0000
0000
0001
0000
0010
0000
0100
0000
1000
0000
0000
0000
0000
0000
0001
0000
0000
0000
0000
0000
,
1001
MMMM
MMMM
MMMM
,
0101
0000
0011
0000
0010
0100
1000
0000
1010
0000
1000
0010
1000
0100
0010
0001
,
0100
0000
0001
0100
0001
0010
0100
1000
0010
0000
1010
0000
1100
0000
0011
0000
,
1001
0000
1000
0000
0001
1000
0100
0000
1001
0000
1000
0001
0010
0001
1000
0010
,
0100
0000
0000
0000
0000
0000
0010
0000
0000
1000
0000
0000
0100
0000
0000
0010
0000
0000
0001
0000
0000
0100
0000
0000
0001
0000
0000
0000
0000
0000
1000
0000
0010
0000
0100
0000
0001
0000
0000
0000
0000
0000
1000
0000
0000
0000
0000
0000
,
1001
0000
0001
0010
0100
0000
1100
0000
0100
0010
0001
0000
1000
0000
0001
0000
,
1001
10M0
0100
001M
1000
00M1
0100
M010
,
0001
0000
1000
0000
0010
0100
0001
0000
1001
0000
1000
0000
0001
0010
0100
0000
,
1100
0000
1000
0010
1000
0010
0100
0001
0010
0000
0001
0000
0101
0000
1010
0000
,
1001
0000
1100
0000
0100
0010
0001
0000
0101
0000
0001
0100
0001
0010
0100
1000
,
0010
0000
1000
0010
0100
0010
0100
0001
0010
0000
0001
0000
0101
0000
1010
0000
,
1001
0000
0001
0000
1000
0001
0100
0000
1001
0000
0001
1000
0100
1000
0001
0100
,
0010
0000
0000
0000
0000
0000
1000
0000
0000
0010
0000
0000
1000
0000
0000
0100
0000
0000
0010
0000
0000
0001
0000
0000
0100
0000
0000
0000
0000
0000
0001
0000
0100
0000
0010
0000
1000
0000
0000
0000
0000
0000
0001
0000
0000
0000
0000
0000
,
1001
0000
1000
0100
0010
0000
0011
0000
0010
0100
1000
0000
0001
0000
1000
0000
,
1001
0M01
0010
M100
0001
1M00
0010
010M
,
1000
0000
0001
0000
0100
0010
1000
0000
1001
0000
0001
0000
1000
0100
0010
0000
,
0011
0000
0001
0000
0100
0010
1000
0100
0010
0000
0001
0000
1001
0000
MMMM
0000
,
2000
3010
0200
0310
2000
3100
0020
0032
,
1003
0010
2000
3100
0020
0031
0200
0301
,
0020
0130
2000
3010
2000
3100
0020
0032
,
1003
0010
020M
13M0
0M02
M013
0200
0302
,
2003
3100
0020
0130
2000
3010
0200
0302
,
0013
0100
0002
0103
0020
0031
2000
3010
,
1020
1030
0100
0010
0021
0031
0100
0010
,
1020
1030
2001
3001
0012
0013
0120
0130
,
1200
1300
2010
3010
0200
0301
0021
1032
,
1003
0010
1020
1030
2001
3001
0012
0123
,
2130
3001
1002
1003
2010
3201
0301
1002
,
0013
0100
1200
0310
0201
0310
1200
0310
,
0201
0310
1002
1003
2010
3001
2001
3201
,
0321
0130
1020
0130
0021
0130
1020
0231
,
2301
3001
0010
0100
0012
1003
0010
0220
,
0000
0000
1000
0001
1000
0000
0330
MMMM
,
1010
0000
1001
0000
0001
1000
0100
1000
0001
0000
1001
0000
1000
0001
0010
0001
,
1000
0000
1001
0000
0001
1000
0100
1000
0001
0000
1001
0000
0101
0000
1010
0000
,
1001
0000
0001
0000
1000
0010
0100
0010
1000
0000
1001
0000
0001
0010
0100
0010
,
0001
0000
1001
0000
1000
0010
0100
0010
1000
0000
1010
0000
0101
0000
0011
0000
,
1100
0000
1000
0000
0001
0100
0010
1000
0100
0000
1100
0000
1000
0010
0100
0001
,
0010
0000
0000
0000
0000
0000
0011
0000
0000
0000
0000
0000
0001
0000
0000
0100
0000
0000
0010
0000
0000
1000
0000
0000
0100
0000
0000
0000
0000
0000
1000
0000
0001
0000
0010
0000
0100
0000
0000
0000
0000
0000
1000
0000
0000
0000
0000
0000
,
1001
0000
0001
1000
0010
0000
0100
0000
1001
0000
0010
1000
0001
0000
0100
0000
,
0110
0000
0010
1000
1100
0000
0010
0001
0101
0000
0000
0000
MMMM
0000
0000
0000
,
1001
0000
0010
1000
0100
0010
0001
0100
0001
0000
1000
0010
0100
0001
0010
0100
,
1000
0000
0010
0100
0001
1000
0100
0010
0001
0000
0011
0000
1100
0000
1010
0000
,
0101
0000
0001
0100
0001
0010
0100
1000
0001
0000
1000
0010
1000
0100
0010
0001
,
0100
0000
0001
0100
0001
0010
0100
1000
0010
0000
1010
0000
1001
0000
0101
0000
,
2002
0000
0000
0000
3003
0000
0001
1000
0010
0000
0100
0000
0100
0000
1001
0000
,
M00M
0000
0010
0000
01M0
0000
0M01
1000
0001
0010
0100
1000
0001
0000
1000
0000
,
1001
0000
1000
0100
0001
0000
0100
0000
1001
0000
0001
0100
1000
0000
0100
0000
,
0201
0310
1200
0310
0201
0310
1200
0310
,
2002
0000
0000
0000
,
0000
0000
0000
0000
,
0000
0000
0000
0000
,
0000
0000
0000
0000
,
3003
0000
0000
0000
;
