#TITLE:Mighty Obstacle;
#SUBTITLE:Ys IV_The Ark of Napishtim;
#ARTIST:Levo Lution;
#TITLETRANSLIT:;
#SUBTITLETRANSLIT:;
#ARTISTTRANSLIT:;
#CREDIT:;
#BANNER:Ys_VI_bn.png;
#BACKGROUND:Ys_VI.png;
#LYRICSPATH:;
#CDTITLE:CD_Title.png;
#MUSIC:Mighty Obstacle.ogg;
#OFFSET:-0.200;
#SAMPLESTART:0.000;
#SAMPLELENGTH:14.580;
#SELECTABLE:YES;
#BPMS:0.000=268.001;
#STOPS:;
#BGCHANGES:;

//---------------dance-single - ----------------
#NOTES:
     dance-single:
     :
     Hard:
     10:
     0.998,0.931,0.662,0.556,0.159:
1001
0000
0001
1000
0000
1000
0001
0000
,
0101
0000
0000
1010
0000
0000
1001
0000
,
0110
0000
1000
0001
0000
0001
1000
0000
,
1010
0000
0000
0101
0000
0000
0011
0000
,
1100
0000
0001
0010
0000
0010
0001
0000
,
0101
0000
0000
1010
0000
0000
1100
0000
,
0011
0000
0000
0101
0000
0000
1010
0000
,
1100
0000
1000
0010
1000
0010
0100
0001
,
1000
1001
0001
0101
,
0100
0110
0010
1010
,
1000
1001
0001
0101
,
0100
0110
0010
1010
,
1000
0110
0001
0110
,
0100
1001
0010
1001
,
1000
0100
0010
0100
1000
0010
0100
0001
,
0010
0100
0010
0001
0100
0010
1000
0100
,
0020
0001
0031
0002
,
0203
0010
0010
1000
,
0310
0000
0010
1000
0100
0000
0010
0000
,
0001
0000
0000
0001
0010
0100
1000
0000
0000
1000
0100
0010
,
0001
0000
0100
0000
0100
0001
1000
0010
,
0100
0000
0000
0010
0100
0010
0200
0000
0000
0302
0000
0000
,
1003
0100
1000
0010
0100
0010
0100
0001
,
0100
0001
0010
0001
0100
0010
1000
0100
,
0020
0100
0130
0010
,
0002
1000
1000
0010
,
1003
0000
0001
1000
0100
0000
0010
0000
,
0001
0000
0000
1000
0100
0010
0001
0000
0000
0001
0010
0100
,
1000
0000
0010
0000
0100
0001
1000
0010
,
0100
0000
0000
0001
1000
0001
2000
0000
0000
3020
0000
0000
,
0130
0001
0100
0010
1000
0010
1000
0100
,
1000
0100
0010
0100
0010
0001
0100
0010
,
2000
0100
3100
1000
,
0020
0100
0100
0001
,
0130
0000
0100
0001
0010
0000
0100
0000
,
1000
0000
0000
1000
0100
0010
0001
0000
0000
0001
0010
0100
,
1000
0000
0010
0000
0010
1000
0001
0100
,
0010
0000
0000
0100
0010
0100
0020
0000
0000
2030
0000
0000
,
3001
0010
0001
0100
0010
0100
0010
1000
,
0010
1000
0100
1000
0010
0100
0001
0010
,
0200
0010
0310
0001
,
2000
0010
0010
0001
,
3010
0000
1000
0001
0010
0000
0100
0000
,
1000
0000
0000
0001
0100
0010
1000
0000
0000
1000
0010
0100
,
0001
0000
0010
0000
0100
1000
0010
0100
,
0001
0000
0000
1000
0001
1000
0002
0000
0000
0203
0000
0000
,
0301
0100
0010
0000
1000
0100
0000
0010
,
0001
0100
0001
0000
0100
0010
0000
1000
,
0010
0100
0001
0000
0010
0100
0000
0010
,
0001
0100
0010
0000
1000
0100
0000
1000
,
0010
0100
0001
0000
0010
0001
0000
0100
,
0010
1000
0010
0000
0100
0001
0000
0010
,
0100
1000
0100
0000
0010
0001
0000
0100
,
0010
1000
0010
0000
0100
0001
1000
0001
,
0100
0010
1000
0000
0001
0001
0000
0100
,
0010
1000
0100
0000
1000
1000
0000
0010
,
0100
0001
0010
0000
0001
0001
0000
0010
,
0001
0100
0010
0000
1000
1000
0000
0010
,
0100
0001
0010
0000
0100
0100
0000
0010
,
0001
1000
0010
0000
0100
0010
1000
0001
,
0020
0100
0130
2000
,
3020
0001
0001
0100
,
0031
0000
0010
1000
0100
0000
0010
0000
,
0001
0000
0000
1000
0010
0100
0001
0000
0000
1000
0010
0100
,
0002
0000
0010
0000
0013
0001
1000
0010
,
0200
0000
0000
0301
1000
0001
2000
0000
0000
3020
0000
0000
,
0130
0001
0010
0100
1000
0010
0100
0001
,
0100
0010
1000
0100
0010
0100
1000
0010
,
0200
0001
0301
0020
,
0230
0010
0010
1000
,
0310
0000
0010
0001
0100
0000
0010
0000
,
1000
0000
0000
0001
0100
0010
1000
0000
0000
0001
0100
0010
,
2000
0000
0010
0000
3010
1000
0001
0100
,
0010
0000
0000
1000
0100
0010
0002
0000
0000
2003
0000
0000
,
3010
0100
0001
0010
0100
1000
0010
0100
,
0010
1000
0100
0010
0001
0100
0010
1000
,
0002
0000
1003
0100
1000
0100
1000
0020
,
0000
0130
0001
0100
0001
0010
0100
1000
,
0010
0100
0001
0010
0000
0100
1000
0002
,
0000
1000
0010
1003
,
1001
0000
1000
0200
0000
0320
0000
0000
,
0032
0203
2300
3020
,
2030
0000
3100
0020
0000
0031
0200
0000
,
0000
0000
0300
0000
,
0020
0000
1030
0001
1000
0001
1000
0020
,
0000
0130
0001
0100
0001
0010
0100
1000
,
0100
0010
0001
2000
0000
3001
0010
0200
,
0000
0010
1000
0310
,
0011
0000
0000
1010
0000
0000
1100
0000
,
0101
0000
0000
1100
0000
0000
1010
0000
,
1001
0000
0010
0200
0000
0000
0000
0000
,
0300
0000
0000
0000
,
0001
0010
0001
0010
0100
1000
0010
0200
,
0000
0310
1000
0010
1000
0100
0010
0001
,
0100
0001
0100
0020
0000
1030
0100
0020
,
0000
0001
0100
0031
,
0011
0000
0001
0200
0000
0020
0300
0000
,
2030
3200
0302
0023
,
2030
0000
3010
1000
0000
0100
0020
0000
,
0030
0000
0000
0000
,
0100
1000
0100
1000
0010
0100
0001
0020
,
0000
0031
0100
0001
0100
0010
1000
0100
,
0010
0001
0100
0002
0000
1003
0010
0200
,
0000
1000
0010
1300
,
1001
0000
0000
1010
0000
0000
0011
0000
,
0101
0000
0000
0011
0000
0000
1010
0000
,
1100
0000
1000
0001
1000
0001
0100
0010
,
1010
0000
0000
1001
0000
0000
0011
0000
,
1001
0000
0001
1000
0001
1000
0010
0100
,
0101
0000
0000
1010
0000
0000
1100
0000
,
1001
0000
0010
0100
0010
0100
0001
0010
,
0011
0000
0000
1100
0000
0000
1001
0000
,
0110
0000
0000
1010
0000
0000
1100
0000
,
0011
0000
0001
0100
0001
0100
0010
1000
,
0001
1001
0100
1010
,
0001
0110
1000
0101
,
0010
1100
0010
0101
,
1000
1001
0010
1100
,
0001
0110
1000
1001
,
0010
0101
0010
1100
,
0010
0101
0010
1100
,
1001
0000
1000
0010
1000
0100
0010
0001
,
2002
0000
0000
0000
,
0000
0000
0000
0000
,
3003
0000
0000
0000
;

//---------------dance-single - Copied from----------------
#NOTES:
     dance-single:
     Copied from:
     Medium:
     9:
     0.750,0.876,0.547,0.574,0.000:
1001
0000
0000
0000
,
0001
0000
0000
1000
0000
0000
0001
0000
,
1001
0000
0000
0000
,
1000
0000
0000
0001
0000
0000
0100
0000
,
0110
0000
0000
0000
,
0010
0000
0000
0100
0000
0000
0001
0000
,
1001
0000
0000
1000
0000
0000
0001
0000
,
0001
0000
0100
0001
0100
0001
0100
0001
,
2000
3100
2000
3100
,
1000
0000
0010
0100
0000
0100
0001
0000
,
0020
0031
0020
0031
,
0100
0000
0010
1000
0000
1000
0100
0000
,
2000
3010
2000
3010
,
0100
0000
0001
0010
0000
0010
0100
0000
,
1000
0010
1000
0000
0001
0010
0001
0000
,
1000
0100
1000
0100
0010
0001
0010
0001
,
0200
0000
0310
1000
,
0002
0000
0010
0000
,
0010
0000
0000
0013
0001
0000
1000
0000
,
0001
0000
0010
0001
0100
0000
0100
0001
,
0020
0000
0000
0000
0001
0000
0031
0100
,
0001
0000
1000
0010
0100
0000
0001
0000
,
2000
0000
0000
3200
0000
0000
0320
0000
,
0000
0032
0000
0000
0103
0000
0010
0000
,
2000
0000
3001
0010
,
0200
0000
0010
0000
,
0010
0000
0000
0310
0001
0000
1000
0000
,
0010
0000
0100
0010
1000
0000
1000
0010
,
0200
0000
0000
0000
0010
0000
0310
1000
,
0001
0010
0100
0010
,
0002
0000
0000
0203
0000
0000
0320
0000
,
0000
2030
0000
0000
3100
0000
0010
0000
,
0002
0000
0103
0010
,
2000
0000
0100
0000
,
0100
0000
0000
3100
1000
0000
0001
0000
,
0100
0000
0010
1000
0001
0000
0001
1000
,
0020
0000
0000
0000
1000
0000
1030
0010
,
1000
0000
0001
0010
0100
0000
1000
0000
,
0002
0000
0000
0023
0000
0000
0230
0000
,
0000
2300
0000
0000
3010
0000
0100
0000
,
0002
0000
1003
0010
,
0200
0000
0001
0000
,
0001
0000
0000
0301
0100
0000
0010
0000
,
1000
0000
0100
0010
0001
0000
0001
0010
,
0200
0000
0000
0000
1000
0000
1300
0010
,
0200
0000
0000
0302
0000
0000
1003
0000
,
1001
0000
1000
0000
0001
0010
0000
0000
,
1001
0000
0001
0000
1000
0100
0000
0000
,
1010
0000
0010
0000
1000
0001
0000
0000
,
0011
0000
0010
0000
0001
1000
0000
0000
,
1100
0000
1000
0000
0010
0100
0000
0000
,
0011
0000
0001
0000
0100
0010
0000
0000
,
1010
0000
1000
0000
0001
0010
0000
0000
,
0011
0000
0001
0000
1000
0100
0000
0000
,
1010
0000
1001
0000
0001
0010
0000
0000
,
0011
0000
1001
0000
1000
0100
0000
0000
,
1010
0000
0101
0000
1000
0001
0000
0000
,
0011
0000
1100
0000
0001
1000
0000
0000
,
0110
0000
1010
0000
0001
0010
0000
0000
,
0011
0000
0000
0101
0000
0000
1010
0000
,
0020
0000
0130
0001
,
2000
0000
0001
0000
,
0100
0000
3000
0001
0010
0000
0100
0000
,
1000
0000
0010
0100
0001
0000
0010
0100
,
2000
0000
0000
0000
0010
3000
0010
1000
,
0100
0000
0010
0001
0100
0000
0010
0000
,
2000
0000
0000
3020
0000
0000
0230
0000
,
0000
0302
0000
0000
0013
0000
0100
0000
,
2000
0000
3010
0100
,
0002
0000
1000
0000
,
0010
0000
0003
1000
0001
0000
0100
0000
,
0010
0000
1000
0100
0010
0000
0001
0100
,
0020
0000
0000
0000
0100
0000
0130
0010
,
1000
0100
0010
0001
,
2000
0000
0000
3020
0000
0000
0230
0000
,
0000
0302
0000
0000
0013
0000
0001
0000
,
1001
0000
1000
0010
0000
0010
1000
0010
,
0000
0010
1000
0000
0100
0000
0010
0000
,
0001
0000
0010
0001
0000
0001
0010
0002
,
0000
0000
0000
0103
,
0101
0000
0100
0010
0000
2000
0000
3000
,
1010
1100
1001
0101
,
1001
0000
1000
0001
0000
0010
0200
0000
,
0300
0000
0000
0000
,
0011
0000
0001
0010
0000
0010
0001
0010
,
0000
0010
0001
0000
0100
0000
0010
0000
,
1010
0000
0010
1000
0000
1000
0100
0020
,
0000
0000
0000
0031
,
0011
0000
0000
1001
0000
0000
1100
0000
,
1001
0000
0000
1010
0000
0000
1001
0000
,
0101
0000
0001
0020
0000
0000
0000
0000
,
0030
0000
0000
0000
,
0011
0000
1000
0010
0000
0010
1000
0100
,
0000
0100
1000
0010
1000
0000
0100
0000
,
1100
0000
1000
0010
0000
0010
0100
0002
,
0000
0000
0000
1003
,
1001
0000
1000
0010
0000
0200
0000
0300
,
0101
0011
1010
1100
,
1001
0000
1000
0001
0000
0010
0002
0000
,
0003
0000
0000
0000
,
0011
0000
0001
0100
0000
0100
0001
0010
,
0000
0010
0001
0100
0001
0000
1000
0000
,
1010
0000
1000
0100
0000
0010
0001
0200
,
0000
0000
0000
0310
,
0110
0000
0000
1010
0000
0000
1100
0000
,
0101
0000
0000
0011
0000
0000
1010
0000
,
2002
0000
3003
0000
,
0001
0000
0000
1000
0000
0000
0001
0000
,
2002
0000
3003
0000
,
1000
0000
0000
0001
0000
0000
0010
0000
,
0220
0000
0330
0000
,
0100
0000
0000
1000
0000
0000
0010
0000
,
0210
0000
0000
0320
0000
0000
0130
0000
,
0110
0000
0010
0100
0010
0100
0010
0100
,
0010
0000
1000
0100
1000
0100
1000
0000
,
0010
0000
0100
0001
0000
0001
0010
0000
,
0001
0000
0010
0001
0010
0001
0010
0000
,
0001
0000
1000
0010
0000
0010
0100
0000
,
0001
0000
0010
0100
0010
0100
0010
0000
,
0100
0000
1000
0010
0000
0010
0100
0000
,
0010
0000
1000
0010
1000
0010
0100
0000
,
0001
0000
1000
0001
1000
0001
0010
0200
,
2000
0000
0000
0000
,
0000
0000
0000
0000
,
3300
0000
0000
0000
;

//---------------dance-single - Copied from Copied f----------------
#NOTES:
     dance-single:
     Copied from Copied f:
     Easy:
     6:
     0.438,0.547,0.256,0.486,0.000:
0000
0000
0000
0000
,
0000
0000
0000
0000
,
0000
0000
0000
0000
,
0000
0000
0000
0000
,
0000
0000
0000
0000
,
0000
0000
0000
0000
,
0000
0000
0000
0000
,
0000
0000
0000
0000
,
1000
0000
1000
0000
,
0001
0000
0001
0000
,
0100
0000
0100
0000
,
0010
0000
0010
0000
,
1000
0000
0010
0000
,
0100
0000
0001
0000
,
1000
0100
1000
0100
,
0010
0001
0100
0010
,
2000
0000
3000
0100
,
0020
0000
0000
0000
,
0030
0000
0001
0100
,
0002
1000
1003
2000
,
3002
0000
0000
0103
,
0001
1000
0010
0200
,
0300
0000
0000
0000
,
0000
0000
0000
0000
,
0002
0000
0003
0010
,
0200
0000
0000
0000
,
0300
0000
1000
0010
,
2000
0001
3001
0002
,
2003
0000
0000
3001
,
0100
0010
1000
0001
,
1001
0000
0000
0000
,
0000
0000
0000
0000
,
0020
0000
0030
0100
,
0002
0000
0000
0000
,
0003
0000
1000
0010
,
0020
0100
0130
0020
,
2030
0000
0000
3001
,
1000
0010
0100
0002
,
0003
0000
0000
0000
,
0000
0000
0000
0000
,
2000
0000
3000
0010
,
0200
0000
0000
0000
,
0300
0000
0001
0010
,
0200
0010
0310
0200
,
2300
0000
3000
0001
,
0100
0010
1000
0001
,
1001
0000
1001
0000
,
1100
0000
1100
0000
,
1001
0000
1001
0000
,
0011
0000
0011
0000
,
1001
0000
1001
0000
,
0110
0000
0110
0000
,
1001
0000
1001
0000
,
0011
0000
1100
0000
,
0011
0001
1000
0000
,
1010
1000
0001
0000
,
0101
0001
1000
0000
,
1100
1000
0001
0000
,
0110
1000
0001
0000
,
0110
0001
1000
0010
,
0200
0000
0300
0010
,
2000
0000
0000
0000
,
3000
0000
0001
1000
,
0200
0010
0310
0002
,
0203
0000
0000
0310
,
1000
0001
0100
0020
,
0030
0000
0000
0000
,
0000
0000
0000
0000
,
0200
0000
0300
0010
,
2000
0000
0000
0000
,
3000
0000
0001
0010
,
0200
1000
1300
0020
,
0230
0000
0000
0301
,
1000
0001
0100
0010
,
2000
0000
0000
0000
,
3000
0000
0000
0000
,
0010
0100
0001
2000
,
3000
1000
1000
0001
,
0010
0001
0100
0020
,
0030
0000
0000
0010
,
1000
0100
0020
0030
,
0001
0100
0100
0001
,
1000
0010
0100
2002
,
3003
0000
0000
0000
,
0001
1000
0100
0020
,
0030
0010
0010
0001
,
0100
0010
1000
0002
,
0003
0000
0000
1000
,
0020
0030
0100
0001
,
0020
0030
0100
1000
,
0010
0100
0200
0000
,
0300
0000
0000
0000
,
0001
0100
0001
0020
,
0030
0100
0100
1000
,
0010
1000
0001
0020
,
0030
0000
0000
0100
,
1000
0010
0200
0300
,
0001
0001
1000
0001
,
0100
0010
2000
3002
,
0003
0000
0000
0000
,
1000
0010
0100
0002
,
0003
0100
0100
0010
,
1000
0001
0010
0200
,
0300
0000
0000
1000
,
0020
0030
0100
0001
,
0020
0030
0100
1000
,
1001
0000
0000
0000
,
0001
0000
1000
0000
,
1001
0000
0000
0000
,
0010
0000
0100
0000
,
0110
0000
0000
0000
,
1000
0000
0001
0000
,
1001
0000
0010
0000
,
0110
0000
0000
0000
,
1000
0000
1000
0000
,
0001
0000
0001
0000
,
0100
0000
0100
0000
,
0010
0000
0010
0000
,
1000
0000
0010
0000
,
0100
0000
0001
0000
,
0010
0000
0100
0000
,
1000
0010
0100
0002
,
2000
0000
0000
0000
,
0000
0000
0000
0000
,
3003
0000
0000
0000
;

//---------------dance-double - Copied from----------------
#NOTES:
     dance-double:
     Copied from:
     Hard:
     10:
     0.979,0.985,0.671,0.433,0.150:
00001001
00000000
00000001
00001000
00000000
00001000
00000001
00000000
,
00000101
00000000
00000000
00001010
00000000
00000000
00010100
00000000
,
00011000
00000000
00001000
00010000
00000000
00010000
00001000
00000000
,
00011000
00000000
00000000
01010000
00000000
00000000
11000000
00000000
,
10010000
00000000
10000000
00010000
00000000
00010000
10000000
00000000
,
10010000
00000000
00000000
01010000
00000000
00000000
00101000
00000000
,
00011000
00000000
00000000
00010100
00000000
00000000
00001010
00000000
,
00001001
00000000
00000001
00001000
00000001
00001000
00000010
00000100
,
00000001
00000101
00001000
00001100
,
00000100
00010100
00010000
00011000
,
00001000
01001000
01000000
01010000
,
00010000
10010000
10000000
10100000
,
01010000
00100000
00011000
00000100
,
00001010
00000100
00000011
00001000
,
00000001
00000100
00000010
00001000
00000100
00010000
00001000
00100000
,
00010000
01000000
00100000
10000000
01000000
00100000
00010000
10000000
,
00200000
01000000
01300000
00010000
,
00200000
01000000
01000000
00010000
,
01300000
00000000
00100000
00001000
00010000
00000000
00001000
00000000
,
00100000
00000000
00000000
00001000
00010000
00001000
00010000
00000000
00000000
00001000
00010000
00001000
,
00020000
00000000
00030100
00000000
00000100
00000010
00000001
00000100
,
00000020
00000000
00000000
00001030
00000001
00001000
00000002
00000000
00000000
00000203
00000000
00000000
,
00000310
00001000
00000010
00000100
00000001
00000010
00000100
00010000
,
00001000
00010000
00001000
01000000
00010000
00100000
01000000
10000000
,
00020000
10000000
10030000
00010000
,
00200000
01000000
01000000
00010000
,
01300000
00000000
00100000
00001000
00010000
00000000
00000010
00000000
,
00000100
00000000
00000000
00000001
00001000
00000001
00001000
00000000
00000000
00000001
00001000
00000001
,
00002000
00000000
00003010
00000000
00000100
00000001
00000010
00000100
,
00010000
00000000
00000000
00001000
00010000
00001000
00020000
00000000
00000000
00031000
00000000
00000000
,
00010000
00001000
00010000
00001000
01000000
00100000
10000000
01000000
,
00100000
00001000
00010000
00001000
00010000
00000100
00000010
00000001
,
00000200
00000010
00000310
00001000
,
00000200
00000010
00000010
00001000
,
00000310
00000000
00000100
00010000
00001000
00000000
00010000
00000000
,
00000100
00000000
00000000
00010000
00001000
00010000
00001000
00000000
00000000
00010000
00001000
00010000
,
00002000
00000000
00103000
00000000
00100000
01000000
10000000
00100000
,
02000000
00000000
00000000
03010000
10000000
00010000
20000000
00000000
00000000
30200000
00000000
00000000
,
01300000
00010000
01000000
00100000
10000000
01000000
00100000
00001000
,
00010000
00001000
00010000
00000010
00001000
00000100
00000010
00000001
,
00002000
00000001
00003001
00001000
,
00000200
00000010
00000010
00001000
,
00000310
00000000
00000100
00010000
00001000
00000000
01000000
00000000
,
00100000
00000000
00000000
10000000
00010000
10000000
00010000
00000000
00000000
10000000
00010000
10000000
,
00020000
00000000
01030000
00000000
00100000
10000000
01000000
00100000
,
00110000
00000000
00000000
00011000
00000000
00000000
00001100
00000000
,
00001000
00000010
00000100
00000000
00000001
00000010
00000000
00000001
,
00000100
00000010
00000100
00000000
00000010
00001000
00000000
00000100
,
00010000
00000100
00010000
00000000
00001000
01000000
00000000
00100000
,
10000000
00100000
01000000
00000000
00010000
00100000
00000000
00100000
,
00001000
00010000
00001000
00000000
00010000
00000100
00000000
00000100
,
00000010
00000001
00000010
00000000
00000001
00000100
00000000
00000010
,
00001000
00000010
00000100
00000000
00000001
00001000
00000000
00000100
,
00010000
00001000
00010000
00000000
00001000
01000000
00100000
01000000
,
00100000
10000000
01000000
00000000
00100000
00100000
00000000
00100000
,
00001000
00010000
00001000
00000000
00010000
00010000
00000000
00001000
,
00010000
00000100
00000010
00000000
00000001
00000001
00000000
00000100
,
00000010
00001000
00000100
00000000
00010000
00010000
00000000
00001000
,
01000000
00100000
10000000
00000000
10000000
01000000
00100000
00001000
,
00011000
00000000
00000000
00010100
00000000
00000000
00001100
00000000
,
00001020
00000100
00000130
00000001
,
00000021
00000100
00000100
00001000
,
00000130
00000000
00000010
00000001
00000100
00000000
00000010
00000000
,
00010000
00000000
00000000
00001000
00010000
00001000
01000000
00000000
00000000
00001000
00010000
00001000
,
01000000
00000000
01000000
00000000
01000000
00100000
10000000
01000000
,
00100000
00000000
00000000
00100000
00001000
00010000
00002000
00000000
00000000
00013000
00000000
00000000
,
00001000
00010000
00001000
01000000
00100000
10000000
01000000
00100000
,
00001000
00010000
00001000
00010000
00000100
00000010
00000001
00000100
,
00000120
00001000
00001030
00000001
,
00000021
00000100
00000100
00001000
,
00000130
00000000
00000010
00000001
00000100
00000000
00000010
00000000
,
00001000
00000000
00000000
00000100
00010000
00001000
00010000
00000000
00000000
00010000
00001000
01000000
,
00002000
00000000
00013000
00000000
00001000
00100000
01000000
10000000
,
00100000
00000000
00000000
01000000
00010000
01000000
00100000
00000000
00000000
20000000
00000000
00000000
,
00020000
00000000
00000000
00000000
,
30030000
00000000
00000000
00000000
,
10100000
00000000
00100000
10000000
00100000
10000000
01000000
00200000
,
00300000
00100000
00001000
00100000
00001000
00010000
00000100
00000010
,
00000001
00000100
00000001
00000100
00000000
00000010
00001000
00000200
,
00000000
00000000
00000300
00010000
,
00011000
00000000
00001000
01000000
00000000
02000000
00000000
00000000
,
03200000
00000000
00000000
00000000
20300000
00000000
00000000
00000000
32000000
00000000
00000000
00000000
03200000
00000000
00000000
00300000
,
00011000
00000000
00001000
00010000
00000000
00010000
00000200
00000000
,
00000000
00000300
00000000
00000000
,
00000011
00000000
00000001
00000100
00000001
00000100
00000010
00002000
,
00000000
00003100
00010000
00000100
00010000
00001000
01000000
00100000
,
10000000
01000000
00100000
02000000
00000000
03100000
00002000
00020000
,
00000000
00000000
00003000
00031000
,
00011000
00000000
00001000
01000000
00000000
00100000
10000000
00000000
,
10100000
00000000
10000000
01000000
00000000
00100000
00001000
00000000
,
00011000
00000000
00010000
00000200
00000000
00000000
00000000
00000000
,
00000300
00000000
00000000
00000000
,
00001000
00000010
00001000
00000010
00000100
00000001
00000010
00000200
,
00000000
00001300
00000100
00001000
00000100
00010000
00001000
01000000
,
00100000
10000000
00100000
02000000
00000000
03100000
10000000
00020000
,
00000000
00100000
10000000
01030000
,
01001000
00000000
00001000
00010000
00000000
00010000
00000100
00000000
,
00000100
00000010
00000001
00000010
00000100
00010000
00000100
00010000
,
00001000
01000000
00100000
10000000
00010000
00100000
02000000
00000000
,
03000000
00000000
00000000
00000000
,
10000000
00100000
10000000
00100000
01000000
00010000
00100000
00002000
,
00000000
00013000
00001000
00010000
00000100
00000010
00000001
00000100
,
00000010
00001000
00000010
00000200
00000000
00000310
00010000
00002000
,
00000000
00000000
00010000
00000000
00000100
00000000
00010000
00003000
,
00011000
00000000
00001000
01000000
00001000
01000000
00100000
00000000
,
01100000
00100000
10000000
01000000
00100000
00010000
00100000
00001000
,
00011000
00000000
00001000
00010000
00001000
00010000
00000100
00000010
,
00000011
00000000
00000000
00000101
00000000
00000000
00001010
00000000
,
00001100
00000000
00001000
00000001
00001000
00000001
00000010
00000100
,
00001100
00000000
00010000
00001000
00000000
00001000
00010000
00000000
,
00011000
00000000
00001000
01000000
00001000
01000000
00100000
10000000
,
11000000
00000000
00000000
10100000
00000000
00000000
01010000
00000000
,
00110000
00000000
00100000
00001000
00000000
00001000
00010000
00000000
,
00011000
00000000
00001000
00010000
00001000
00010000
00000100
00000010
,
00000011
00000100
00011000
00100000
,
11000000
00100000
01010000
00100000
,
00011000
00000100
00001010
00000100
,
00000011
00000100
00011000
00100000
,
01010000
00100000
11000000
00100000
,
01010000
00100000
00011000
00000100
,
00010010
00001000
00000101
00000011
,
00001010
00000000
00010000
00001000
01000000
00010000
00100000
02000000
,
20000000
00000000
00000000
00000000
,
00000000
00000000
00000000
00000000
,
33000000
00000000
00000000
00000000
;

//---------------dance-double - Copied from Copied f----------------
#NOTES:
     dance-double:
     Copied from Copied f:
     Medium:
     9:
     0.689,0.876,0.388,0.539,0.000: // measure 1
20020000
00000000
30030000
00000000
,  // measure 2
00010000
00000000
00000000
10000000
00000000
00000000
01000000
00000000
,  // measure 3
02200000
00000000
03300000
00000000
,  // measure 4
00100000
00000000
00000000
00001000
00000000
00000000
00010000
00000000
,  // measure 5
00022000
00000000
00033000
00000000
,  // measure 6
00001000
00000000
00000000
00010000
00000000
00000000
00000100
00000000
,  // measure 7
00000110
00000000
00000000
00000001
00000000
00000000
00001000
00000000
,  // measure 8
00001001
00000000
00000000
00000000
,  // measure 9
00000100
00000010
00001000
00000100
,  // measure 10
00010000
00000000
00001000
00010000
00000000
00010000
00001000
00000000
,  // measure 11
00100000
00010000
01000000
00100000
,  // measure 12
10000000
00000000
00010000
10000000
00000000
10000000
00010000
00000000
,  // measure 13
01000000
00100000
10000000
01000000
,  // measure 14
00100000
00000000
00001000
00010000
00000000
00010000
00001000
00000000
,  // measure 15
00010000
00001000
00010000
00000000
00000100
00001000
00000100
00000000
,  // measure 16
00001000
00000001
00001000
00000000
00000001
00000010
00000001
00000010
,  // measure 17
00000200
00000000
00000310
00000001
,  // measure 18
00000200
00000000
00000010
00000000
,  // measure 19
00000010
00000000
00000300
00001000
00000100
00000000
00010000
00000000
,  // measure 20
00001000
00000000
00010000
00001000
01000000
00000000
01000000
00001000
,  // measure 21
00020000
00000000
00031000
01000000
,  // measure 22
00100000
00000000
10000000
01000000
00100000
00000000
00010000
00000000
,  // measure 23
00200000
00000000
00000000
00302000
00000000
00000000
00023000
00000000
,  // measure 24
00000000
00030200
00000000
00000000
00000310
00000000
00000001
00000000
,  // measure 25
00002000
00000000
00003010
00010000
,  // measure 26
00002000
00000000
00010000
00000000
,  // measure 27
00010000
00000000
00003000
00010000
00001000
00000000
01000000
00000000
,  // measure 28
00100000
00000000
10000000
00010000
00100000
00000000
00100000
00010000
,  // measure 29
20000000
00000000
30100000
01000000
,  // measure 30
00001000
00000000
00010000
00001000
00100000
00000000
00002000
00000000
,  // measure 31
00023000
00000000
00000000
00000000
,  // measure 32
00030000
00000000
00000000
00000000
,  // measure 33
00000200
00000000
00001300
00000010
,  // measure 34
00000200
00000000
00000001
00000000
,  // measure 35
00000001
00000000
00000300
00000001
00001000
00000000
00000100
00000000
,  // measure 36
00010000
00000000
00001000
00100000
01000000
00000000
01000000
00100000
,  // measure 37
00002000
00000000
00103000
00010000
,  // measure 38
01000000
00000000
00100000
10000000
00010000
00000000
01000000
00000000
,  // measure 39
00200000
00000000
00000000
20300000
00000000
00000000
30020000
00000000
,  // measure 40
00000000
00230000
00000000
00000000
00301000
00000000
00010000
00000000
,  // measure 41
00002000
00000000
00013000
00000100
,  // measure 42
00000020
00000000
00000001
00000000
,  // measure 43
00000001
00000000
00000030
00000001
00000100
00000000
00000010
00000000
,  // measure 44
00001000
00000000
00000100
00010000
00001000
00000000
00001000
00010000
,  // measure 45
00000100
00000000
00010000
00000000
00001000
01000000
00001000
01000000
,  // measure 46
00020000
00000000
00000000
20030000
00000000
00000000
30010000
00000000
,  // measure 47
10010000
10000000
01000000
00000000
,  // measure 48
00110000
00001000
00010000
00000000
,  // measure 49
00001100
00010000
00000100
00000000
,  // measure 50
00001010
00001000
00000001
00000000
,  // measure 51
00000011
00000001
00000100
00000000
,  // measure 52
00001010
00001000
00000100
00000000
,  // measure 53
00011000
00001000
01000000
00000000
,  // measure 54
01100000
00100000
10000000
01000000
,  // measure 55
01100000
00001000
00011000
00000000
,  // measure 56
00010100
00001000
00001010
00000000
,  // measure 57
00000101
00000010
00001001
00000000
,  // measure 58
00001100
00010000
00011000
00000000
,  // measure 59
01001000
00010000
01100000
00000000
,  // measure 60
10100000
10000000
00010000
00100000
,  // measure 61
00200000
00000000
01300000
10000000
,  // measure 62
00200000
00000000
01000000
00000000
,  // measure 63
01000000
00000000
00300000
00010000
00100000
00000000
00001000
00000000
,  // measure 64
00010000
00000000
00001000
00010000
00000010
00000000
00000010
00010000
,  // measure 65
00002000
00000000
00013000
00000010
,  // measure 66
00000100
00000000
00000001
00000010
00000100
00000000
00001000
00000000
,  // measure 67
00000200
00000000
00000000
00020300
00000000
00000000
00032000
00000000
,  // measure 68
00000000
00203000
00000000
00000000
01300000
00000000
10000000
00000000
,  // measure 69
00020000
00000000
01030000
00001000
,  // measure 70
00020000
00000000
00001000
00000000
,  // measure 71
00001000
00000000
00030000
00001000
00010000
00000000
00000010
00000000
,  // measure 72
00000100
00000000
00000001
00001000
00000100
00000000
00000100
00001000
,  // measure 73
00000002
00000000
00000103
00000010
,  // measure 74
00010000
00000000
00001000
00010000
00000100
00000000
00020000
00000000
,  // measure 75
00032000
00000000
00000000
00000000
,  // measure 76
00003000
00000000
00000000
00000000
,  // measure 77
00011000
00000000
00001000
01000000
00000000
01000000
00100000
01000000
,  // measure 78
00000000
00100000
10000000
00000000
01000000
00000000
00100000
00000000
,  // measure 79
00010000
00000000
00100000
00001000
00000000
00010000
00001000
00020000
,  // measure 80
00000000
00000000
00000000
00031000
,  // measure 81
00011000
00000000
00010000
00000200
00000000
00000320
00000000
00000000
,  // measure 82
00000031
00000100
00000010
00001000
,  // measure 83
00001100
00000000
00010000
00001000
00000000
00001000
00020000
00000000
,  // measure 84
00000000
00030000
00000000
00000000
,  // measure 85
00011000
00000000
00010000
00000100
00000000
00000100
00000010
00000100
,  // measure 86
00000000
00000010
00000001
00000000
00000100
00000000
00000010
00000000
,  // measure 87
00001010
00000000
00001000
00000100
00000000
00010000
00001000
00020000
,  // measure 88
00000000
00000000
00000000
00031000
,  // measure 89
00012000
00000000
00000000
02003000
00000000
00000000
03200000
00000000
,  // measure 90
20300000
00000000
00000000
32000000
00000000
00000000
03100000
00000000
,  // measure 91
00011000
00000000
00010000
00000200
00000000
00000000
00000000
00000000
,  // measure 92
00000300
00000000
00000000
00000000
,  // measure 93
00000011
00000000
00000010
00000001
00000000
00000001
00000100
00000001
,  // measure 94
00000000
00000100
00000010
00001000
00000010
00000000
00010000
00000000
,  // measure 95
00011000
00000000
00001000
01000000
00000000
01000000
00100000
20000000
,  // measure 96
00000000
00010000
00010000
30010000
,  // measure 97
10010000
00000000
10000000
01000000
00000000
01200000
00000000
00000000
,  // measure 98
00302000
00023000
00030200
00000310
,  // measure 99
00000011
00000000
00000001
00000010
00000000
00001000
00000100
00000000
,  // measure 100
00000000
00000000
00000000
00000000
,  // measure 101
00011000
00000000
00010000
00001000
00000000
00001000
01000000
00001000
,  // measure 102
00000000
01000000
00100000
10000000
00100000
00000000
01000000
00000000
,  // measure 103
01010000
00000000
00010000
00100000
00000000
00100000
00001000
00020000
,  // measure 104
00000000
00001000
00001000
00031000
,  // measure 105
00011000
00000000
00000000
01001000
00000000
00000000
01100000
00000000
,  // measure 106
00100000
10000000
00100000
10000000
01000000
00100000
00001000
00010000
,  // measure 107
00001000
00000000
00000000
00000000
,  // measure 108
00010000
00000000
00000000
00000100
00000000
00000000
00000010
00000000
,  // measure 109
00000011
00000000
00000000
00000000
,  // measure 110
00000001
00000000
00000000
00000100
00000000
00000000
00000010
00000000
,  // measure 111
00001010
00000000
00000000
00000000
,  // measure 112
00010000
00000000
00000000
00001000
00000000
00000000
01000000
00000000
,  // measure 113
01100000
00000000
00000000
00100000
00000000
00000000
20000000
00000000
,  // measure 114
00020000
00000000
30030000
00000000
,  // measure 115
10000000
00000000
00100000
01000000
00100000
01000000
00010000
00000000
,  // measure 116
00100000
00000000
00001000
00010000
00000000
00010000
00001000
00000000
,  // measure 117
00010000
00000000
00000100
00000010
00000100
00000010
00000001
00000000
,  // measure 118
00000100
00000000
00000010
00001000
00000000
00001000
00000100
00000000
,  // measure 119
00010000
00000000
00001000
00010000
00001000
00010000
00000100
00000000
,  // measure 120
00010000
00000000
00001000
01000000
00000000
01000000
00100000
00000000
,  // measure 121
10000000
00000000
00100000
01000000
00000000
01000000
00010000
00000000
,  // measure 122
00100000
00000000
00001000
00010000
00001000
00010000
00000100
00000010
,  // measure 123
00000002
00000000
00000000
00000000
,  // measure 124
00000000
00000000
00000000
00000000
,  // measure 125
00000003
00000000
00000000
00000000
;

//---------------dance-double - Copied from Copied f----------------
#NOTES:
     dance-double:
     Copied from Copied f:
     Easy:
     7:
     0.492,0.657,0.327,0.530,0.000:
10000000
00000000
00000000
00000000
,
00100000
00000000
01000000
00000000
,
00010000
00000000
00000000
00000000
,
00100000
00000000
00001000
00000000
,
00010000
00000000
00000000
00000000
,
00000100
00000000
00001000
00000000
,
00000001
00000000
00001000
00000000
,
00001001
00000000
00000000
00000000
,
00000001
00000000
00000001
00000000
,
00001000
00000000
00000100
00000000
,
00010000
00000000
00010000
00000000
,
00001000
00000000
01000000
00000000
,
00100000
00000000
00100000
00000000
,
10000000
00000000
01000000
00000000
,
10000000
01000000
00100000
00010000
,
00001000
00000100
00000010
00000001
,
00002000
00000000
00003000
00000001
,
00000020
00000000
00000000
00000000
,
00000030
00000000
00000001
00001000
,
00000100
00010000
00020000
00031000
,
00002000
00000000
00003000
01000000
,
00100000
10000000
10000000
00020000
,
00030000
00000000
00000000
00000000
,
00000000
00000000
00000000
00000000
,
20000000
00000000
00000000
30100000
,
02000000
00000000
00000000
00000000
,
03000000
00000000
00100000
01000000
,
00001000
00010000
00020000
00031000
,
00002000
00000000
00000000
00013000
,
00000100
00000010
00000010
00000002
,
00001003
00000000
00000000
00000000
,
00000000
00000000
00000000
00000000
,
00000002
00000000
00000000
00001003
,
00000200
00000000
00000000
00000000
,
00000300
00000000
00010000
00001000
,
01000000
02000000
03100000
00200000
,
20300000
00000000
00000000
30010000
,
10000000
01000000
01000000
00200000
,
00300000
00000000
00000000
00000000
,
00000000
00000000
00000000
00000000
,
00020000
00000000
00000000
10030000
,
00200000
00000000
00000000
00000000
,
00300000
00000000
01000000
00010000
,
00100000
00001000
00002000
00013000
,
00020000
00000000
00000000
00030100
,
00001000
00000000
00000000
00000001
00000000
00000000
00000010
00000000
,
00000110
00000000
00000110
00000000
,
00001100
00000000
00001100
00000000
,
00011000
00000000
00011000
00000000
,
01010000
00000000
01010000
00000000
,
01100000
00000000
01100000
00000000
,
10100000
00000000
10100000
00000000
,
11000000
00000000
11000000
00000000
,
10010000
00000000
10010000
00000000
,
10100000
00000000
01010000
00000000
,
00101000
00000000
00010100
00000000
,
00001010
00000000
00000101
00000000
,
00000011
00000000
00001100
00000000
,
00110000
00000000
11000000
00000000
,
10010000
00000000
00001001
00000000
,
00012000
00000000
00013000
00001000
,
02000000
00000000
00100000
00000000
,
00100000
03000000
00100000
10000000
,
01000000
00100000
00200000
00301000
,
00002000
00000000
00010000
00013000
,
00000100
00000010
00000001
00002000
,
00003000
00000000
00000000
00000000
,
00000000
00000000
00000000
00000000
,
00001002
00000000
00001003
00000001
,
00000020
00000000
00000100
00000000
,
00000100
00000000
00000130
00010000
,
00001000
01000000
02000000
03010000
,
00020000
00000000
10000000
10030000
,
00010000
00100000
01000000
20000000
,
00020000
00000000
00000000
00000000
,
30030000
00000000
00000000
00000000
,
10000000
00100000
01000000
02000000
,
03000000
00100000
00100000
01000000
,
00010000
00100000
00002000
00020000
,
00000000
00000000
00033000
00010000
,
00000100
00000010
00000002
00000000
,
00000103
00000010
00001000
00000100
,
00010000
00010000
00001000
01000000
,
00000000
00000000
00000000
00000000
,
00010000
10000000
01000000
02000000
,
03000000
00100000
00001000
00010000
,
00000100
00000100
00001000
00000020
,
00000030
00000000
00000000
00000100
,
00000200
00000301
00000010
00000100
,
00020000
00031000
00100000
01000000
,
20000000
30020000
00230000
00000000
,
00300000
00000000
00000000
00000000
,
00010000
10000000
00100000
00200000
,
00300000
00100000
01000000
00001000
,
00001000
00010000
00000200
00000020
,
00000000
00000000
00000030
00000310
,
00000001
00000100
00000200
00000300
,
00000010
00001000
00000100
00010000
,
00001000
00001000
00100000
01000000
,
00000000
00000000
00000000
00000000
,
10000000
00010000
00100000
00200000
,
00300000
00100000
00001000
00010000
,
00000100
00000010
00000001
00000200
,
00000000
00000000
00000300
00000010
,
00002000
00003001
00000010
00000100
,
00020000
00031000
00100000
01000000
,
11000000
00000000
00000000
00000000
,
10000000
00000000
00010000
00000000
,
00011000
00000000
00000000
00000000
,
00000001
00000000
00001000
00000000
,
00011000
00000000
00000000
00000000
,
00100000
00000000
01000000
00000000
,
00011000
00000000
00000000
00000000
,
00010001
00000000
10001000
00000000
,
20000000
30010000
20000000
30010000
,
01000000
00100000
10000000
00010000
,
00200000
00301000
00200000
00301000
,
00010000
00000100
00000010
00000001
,
00002000
00003001
00002000
00003001
,
00000100
00000010
00010000
00001000
,
00020000
00031000
00020000
00031000
,
01000000
00100000
10000000
00020000
,
20000000
00000000
00000000
00000000
,
00000000
00000000
00000000
00000000
,
30030000
00000000
00000000
00000000
;

//---------------dance-single - Copied from----------------
#NOTES:
     dance-single:
     Copied from:
     Challenge:
     13:
     1.000,1.000,0.945,0.627,0.340:
1010
0000
0001
0M10
0000
0M10
1000
0000
,
0011
0000
0000
0101
0000
0000
1100
0000
,
0101
0000
1000
01M0
0000
01M0
0001
0000
,
1100
0000
0000
0101
0000
0000
0011
0000
,
1010
0000
0010
0M01
0000
0M10
1000
0000
,
1100
0000
0000
0101
0000
0000
0011
0000
,
1020
0000
0000
2030
0000
0000
3200
0000
,
0301
0000
0100
1000
0010
0001
0010
1000
,
1001
M00M
0100
0M00
1001
M00M
0100
0M00
,
1001
M00M
0010
00M0
1001
M00M
0010
00M0
,
0101
0M0M
1000
M000
0101
0M0M
1000
M000
,
1100
MM00
0001
000M
1100
MM00
0001
000M
,
1010
M0M0
0001
000M
0101
0M0M
1000
M000
,
1010
M0M0
0100
0M00
0011
00MM
0100
0M00
,
1000
0100
0001
0100
1000
0010
0001
0010
,
1000
0100
0010
1000
0010
0001
0100
1000
,
0200
0001
0010
2300
,
3002
0010
0010
1003
,
0100
0000
0100
0001
0020
0000
1000
0000
,
0100
0000
0000
0030
0000
0000
0010
0000
0001
0000
1000
0000
0010
0000
0000
0000
0000
0000
0100
0000
0001
0000
0010
0000
,
0100
0M00
0100
0M00
0100
1000
0010
0001
,
0010
0000
0000
00M0
0000
0000
0010
0000
1000
00M0
0100
0000
0010
0000
0000
00M0
0000
0000
0001
0000
0000
000M
0000
0000
,
1000
M100
0100
0010
01M0
0100
0001
010M
,
0100
0010
01M0
0100
1000
M010
0001
001M
,
0200
0000
0001
0000
0010
0300
2000
0000
,
3020
0001
0001
0031
,
0020
0000
1030
0100
0020
0000
1000
0000
,
0032
0000
0000
1003
0001
0100
0010
0M00
00M0
0010
0100
0001
,
1000
M000
1000
M000
0001
0100
1000
0100
,
0010
0000
0000
0000
0000
0000
1000
0000
0100
0000
0001
0000
0100
0000
0000
0M00
0000
0000
0010
0000
0000
00M0
0000
0000
,
0001
001M
0010
0100
0M10
0010
1000
M010
,
0010
0100
0M10
0010
0001
010M
1000
M100
,
0002
0000
1000
0000
0100
0000
0020
0003
,
0230
1000
1000
0310
,
0011
0000
0001
0100
2000
0000
3200
0000
,
0302
0000
0000
0013
1000
0010
M001
0000
000M
1000
0010
0001
,
0010
00M0
0010
00M0
0010
1000
0100
0001
,
0100
0000
0000
0000
0000
0000
1000
0000
0010
0000
0001
0000
0010
0000
0000
00M0
0000
0000
0100
0000
0000
0M00
0000
0000
,
0001
001M
0010
0100
0M10
0010
1000
M010
,
0010
0100
0M10
0010
0001
010M
1000
M100
,
0020
0000
1000
0000
0100
0030
0002
0000
,
0023
1000
1000
0130
,
0011
0000
0001
0010
2000
0000
3020
0000
,
0031
0000
0000
1000
0100
0010
0100
00M0
0M00
0010
0100
0010
,
0001
000M
0001
000M
0001
0100
1000
0100
,
0110
0000
0MM0
0000
0000
0000
0000
0000
0000
1010
0000
M0M0
0000
0000
0000
0000
0000
0000
1100
0000
MM00
0000
0000
0000
,
1001
0001
0100
MMMM
0010
0110
MMMM
0100
,
0110
0010
1000
MMMM
0001
1001
MMMM
1000
,
1010
0010
1000
MMMM
0001
0101
MMMM
0100
,
0110
0010
1000
MMMM
0001
1001
MMMM
1000
,
1100
0100
0010
MMMM
0010
0011
MMMM
0001
,
0101
0100
0010
MMMM
1000
1010
MMMM
0010
,
1010
1000
0100
MMMM
0011
0001
0100
MMMM
,
1010
1000
0100
MMMM
0011
0001
1000
MMMM
,
1001
0100
1001
MMMM
0010
0110
MMMM
MMMM
,
1001
0010
1001
MMMM
0100
0110
MMMM
MMMM
,
0110
0100
1001
MMMM
0001
1001
MMMM
0000
,
1010
0010
1001
MMMM
0100
0110
MMMM
MMMM
,
1001
0100
1001
MMMM
1001
0010
1001
MMMM
,
0110
0010
1000
0100
0110
0010
0001
0100
,
0020
1000
0100
0032
,
2003
0100
0100
3001
,
0010
0000
0010
1000
0200
0000
0001
0000
,
0010
0000
0000
0300
0000
0000
0100
0000
1000
0000
0010
0000
0100
0000
00M0
0000
0M00
0000
0010
0000
1000
0000
0100
0000
,
0010
00M0
0010
00M0
0010
0001
0100
1000
,
0100
0000
0000
0M00
0000
0000
0100
0000
0001
0M00
0010
0000
0100
0000
0000
0M00
0000
0000
1000
0000
0000
M000
0000
0000
,
0001
001M
0010
0100
0M10
0010
1000
M010
,
0010
0100
0M10
0010
0001
010M
1000
M100
,
0020
0000
1000
0000
0100
0030
0002
0000
,
0203
1000
1000
1300
,
0100
0000
0001
0010
0200
0000
0001
0000
,
2300
0000
0000
3001
1000
0010
M001
00M0
0000
0001
0010
1000
,
0001
000M
0001
000M
1000
0010
0001
0010
,
0100
0000
0000
0000
0000
0000
0001
0000
0010
0000
1000
0000
0010
0000
0000
00M0
0000
0000
0100
0000
0000
0M00
0000
0000
,
1000
M100
0100
0010
01M0
0100
0001
010M
,
0100
0010
01M0
0100
1000
M010
0001
001M
,
1000
0100
0001
0100
0001
1000
0010
0002
,
MMM3
001M
1000
0010
1000
0100
0001
0100
,
1000
0010
0100
1000
MMMM
1000
0100
0002
,
0000
0000
0000
0000
0000
0000
0003
000M
0002
0000
0000
0000
0000
0000
0003
000M
0002
0000
0000
0000
0000
0000
0003
000M
0002
0000
0000
0000
0000
0000
0003
0000
,
200M
0000
3010
0002
0000
2003
0000
3000
,
11MM
M1M1
MM11
1M1M
,
11MM
0000
0001
001M
00M0
1000
M200
0000
,
0300
0M00
0M00
0M00
0000
0000
0000
0000
0000
0000
0000
0000
0000
0000
0000
0000
0000
0000
0000
0000
0000
0000
0000
0000
0000
0000
0000
0000
0000
0000
0000
0000
,
0001
0010
1000
0010
1000
0001
0100
2000
,
3MMM
M100
0001
0100
0001
0010
1000
0010
,
0001
0100
0010
0001
MMMM
0001
0010
2000
,
0000
0000
0000
0000
0000
0000
3000
M000
2000
0000
0000
0000
0000
0000
3000
M000
2000
0000
0000
0000
0000
0000
3000
M000
2000
0000
0000
0000
0000
0000
3000
0000
,
M001
0100
1000
0200
0000
1000
1300
MMMM
,
1000
0100
0001
0200
0000
0001
0301
MMMM
,
0001
0000
1000
0200
0010
0010
0310
0100
,
0010
00M0
00M0
00M0
0000
0000
0000
0000
0001
0000
0000
0000
001M
0000
0000
0000
00M0
0000
0000
0000
1000
0000
0000
0000
M200
0000
0000
0000
0000
0000
0000
0000
,
1300
0M00
0M00
0M00
0010
0000
0000
0000
1000
0000
0000
0000
0010
0000
0000
0000
0001
0000
0000
0000
0010
0000
0000
0000
1000
0000
0000
0000
0002
0000
0000
0000
,
0000
1000
1000
0100
0100
0010
0013
0001
,
1000
0010
0001
0010
MMMM
0010
1000
0200
,
M0MM
0000
0000
0000
0000
0000
0300
0M00
0200
0000
0000
0000
0000
0000
0300
0M00
0200
0000
0000
0000
0000
0000
0300
0M00
0200
0000
0000
0000
0000
0000
0300
0M00
,
0200
0000
0310
2000
0000
3002
0000
0003
,
MM11
1M1M
11MM
M1M1
,
0011
0001
0100
0M10
00M0
1000
M100
0M02
,
0000
0000
0000
0000
0003
000M
000M
000M
0000
0000
0000
0000
0000
0000
0000
0000
0000
0000
0000
0000
0000
0000
0000
0000
0000
0000
0000
0000
0000
0000
0000
0000
,
0001
00M0
00M0
00M0
0100
0000
0000
0000
0001
0000
0000
0000
0100
0000
0000
0000
1000
0000
0000
0000
0100
0000
0000
0000
0001
0000
0000
0000
2000
0000
0000
0000
,
0000
0001
0001
0010
0010
0100
3100
1000
,
0001
0100
1000
0100
MMMM
0100
0001
0020
,
MM0M
0000
0000
0000
0000
0000
0030
00M0
0020
0000
0000
0000
0000
0000
0030
00M0
0020
0000
0000
0000
0000
0000
0030
00M0
0020
0000
0000
0000
0000
0000
0030
00M0
,
0010
0001
0100
1000
0100
0010
1000
0100
,
0001
0100
0010
0001
0100
1000
0100
0010
,
1010
1000
0100
0010
0100
0001
0100
0010
,
1010
0000
0000
1100
0000
0000
0101
0000
,
0011
0001
0100
0010
0100
1000
0100
0010
,
1010
0000
0000
1100
0000
0000
0101
0000
,
1010
0010
1000
0100
0010
0100
0001
0100
,
1100
0000
0000
1010
0000
0000
1100
0000
,
0202
0000
0000
2000
0000
0000
0020
3333
,
1111
MMMM
0010
0100
1000
0100
0001
0100
,
1001
MMMM
0100
MMMM
1001
MMMM
0100
MMMM
,
1001
MMMM
0010
MMMM
1001
MMMM
0010
MMMM
,
1001
MMMM
0100
MMMM
1001
MMMM
0010
MMMM
,
1001
MMMM
0100
MMMM
1001
MMMM
0010
MMMM
,
0101
MMMM
1000
MMMM
0101
MMMM
1000
MMMM
,
1010
MMMM
0001
MMMM
1010
MMMM
0001
MMMM
,
0101
MMMM
1010
MMMM
1100
MMMM
0011
MMMM
,
0101
0001
0100
0010
1010
1000
0100
0010
,
0022
0000
0000
0000
,
0000
0000
0000
0000
,
0033
00MM
00MM
00MM
0000
0000
0000
0000
0000
0000
0000
0000
0000
0000
0000
0000
0000
0000
0000
0000
0000
0000
0000
0000
0000
0000
0000
0000
0000
0000
0000
0000
;

//---------------dance-double - Copied from Copied f----------------
#NOTES:
     dance-double:
     Copied from Copied f:
     Challenge:
     12:
     1.000,0.985,0.715,0.556,0.150:
10100000
00000000
00100000
10000000
01000000
00100000
00001000
00010000
,
00001100
00000000
00000000
00000011
00000000
00000000
00000101
00000000
,
00000011
00000000
00000010
00000001
00000100
00000010
00001000
00000100
,
00011000
00000000
00000000
00110000
00000000
00000000
01010000
00000000
,
10100000
00000000
10000000
01000000
00100000
00001000
00010000
00000100
,
00000011
00000000
00000000
00000101
00000000
00000000
00001010
00000000
,
00011000
00000000
00000000
01010000
00000000
00000000
10100000
00000000
,
10010000
00000000
10000000
01000000
00100000
00001000
00010000
00000000
,
00010100
00000001
00010100
00000001
,
00001010
00100000
00001010
00100000
,
01010000
00001000
01010000
00001000
,
10100000
00001000
10100000
00001000
,
00101000
01000000
00101000
01000000
,
01010000
00000100
01010000
00000100
,
00010100
00010000
00000100
00000001
00000100
00010000
00001000
01000000
,
10000000
01000000
00100000
10000000
01000000
00010000
00001000
00000010
,
00000002
00002003
00023000
20030000
,
32000000
00100000
00100000
00001000
,
03100000
00000000
00100000
00001000
00000020
00000000
00000001
00000000
,
00010030
00000000
00000000
00000010
00000001
00000010
00000001
00000000
00000000
00000001
00000100
00010000
,
01000000
00000000
01000000
00000000
01000000
00100000
10000000
01000000
,
00100000
00000000
00000000
00100000
00000010
00100000
00000020
00000000
00000000
00000130
00000000
00000000
,
00000001
00000100
00000100
00001000
00010000
00010000
00100000
10000000
,
10000000
01000000
00010000
00010000
00001000
00000010
00000010
00000001
,
00000200
00000320
00200030
02300000
,
23000000
00010000
00010000
00001000
,
30010000
00000000
10000000
00100000
00002000
00000000
00100000
00000000
,
00003010
00000000
00000000
00000010
00001000
00000010
00001000
00000000
00000000
00001000
00000100
00000001
,
00000100
00000000
00000100
00000000
00000100
00010000
00001000
00010000
,
00002000
00000000
00000000
01003000
00000100
01000000
00000200
00000000
00000000
00010300
00000000
00000000
,
00001000
01000000
01000000
10000000
01000000
01000000
00001000
00010000
,
00010000
00000100
00000001
00000001
00000100
00010000
00001000
01000000
,
20000000
32000000
03002000
00023000
,
00030200
00000001
00000001
00010000
,
00000301
00000000
00000001
00000100
00010000
00000000
00001000
00000000
,
02000000
00000000
00000000
03100000
01000000
00100000
01000000
00000000
00000000
01000000
00000100
01000000
,
00000100
00000000
00000100
00000000
00000100
00001000
00000010
00000100
,
00000001
00000000
00000000
00000001
00000100
00001000
00000200
00000000
00000000
00000310
00000000
00000000
,
00010000
00000100
00000100
00000001
00000100
00000100
00010000
00001000
,
00001000
01000000
10000000
10000000
01000000
00100000
10000000
00010000
,
20000000
30020000
00032000
00003002
,
00000203
00010000
00010000
00000001
,
00010300
00000000
00000100
00000001
00000010
00000000
00000100
00000000
,
00020000
00000000
00000000
00031000
01000000
00010000
10000000
00000000
00000000
10000000
00010000
00100000
,
00001000
00000000
00001000
00000000
00001000
00010000
00000100
00000010
,
00000002
00000000
00000000
00002003
00000000
00000000
00003001
00000000
,
00000001
00000100
00000010
00000000
00001000
00000100
00000000
00010000
,
00001000
01000000
10000000
00000000
01000000
00100000
00000000
10000000
,
01000000
00010000
00001000
00000000
00000010
00000001
00000000
00000001
,
00000100
00010000
00000100
00000000
00000010
00010000
00000000
00010000
,
00001000
01000000
10000000
00000000
01000000
00100000
00000000
10000000
,
01000000
00010000
01000000
00000000
00100000
00001000
00000000
00010000
,
00000100
00000001
00000100
00000000
00000010
00000001
00000100
00000000
,
00000010
00001000
00100000
00000000
01000000
00010000
00100000
10000000
,
00100000
01000000
00100000
00000000
00100000
00000010
00000000
00000010
,
00000100
00000100
00000010
00000000
00000010
00100000
00000000
00100000
,
00010000
01000000
01000000
00000000
01000000
00000100
00000000
00000100
,
00000001
00000010
00000100
00000000
00000100
01000000
00000000
01000000
,
00100000
10000000
01000000
00000000
01000000
00010000
00000100
00000000
,
00000100
00000001
00000100
00010000
00001000
01000000
10000000
01000000
,
00200000
02300000
03000200
00000320
,
00000032
00001000
00001000
00010000
,
00001003
00000000
00000001
00000100
00020000
00000000
00000100
00000000
,
01030000
00000000
00000000
01000000
00010000
01000000
00010000
00000000
00000000
00010000
00100000
10000000
,
00100000
00000000
00100000
00000000
00100000
00001000
00010000
00001000
,
00020000
00000000
00000000
00030010
00100000
00000010
00200000
00000000
00000000
00301000
00000000
00000000
,
00010000
00000010
00000010
00000001
00000010
00000010
00010000
00001000
,
00001000
00100000
10000000
10000000
00100000
00001000
00010000
00000010
,
00000002
00000023
00020030
00032000
,
00203000
10000000
10000000
00001000
,
10300000
00000000
10000000
00100000
00001000
00000000
00010000
00000000
,
00000020
00000000
00000000
00000130
00000010
00000100
00000010
00000000
00000000
00000010
00100000
00000010
,
00100000
00000000
00100000
00000000
00100000
00010000
01000000
00100000
,
10000000
00000000
00000000
10000000
00100000
00010000
00200000
00000000
00000000
01300000
00000000
00000000
,
00001000
00100000
00100000
10000000
00100000
00100000
00001000
00010000
,
00010000
00000010
00000001
00000001
00000010
00000100
00000001
00000000
,
00001001
00000000
10000000
00100000
01000000
00100000
01000000
00000200
,
00000300
00000100
00010000
00000100
00010000
00000100
00000001
00000100
,
00010000
00001000
01000000
20000000
00000000
31000000
00001000
00020000
,
00000000
00001000
00001000
00031000
,
00011000
00000000
00000010
00000100
00000000
00000001
00000000
00000010
,
00000110
00011000
01100000
00011000
,
00000110
00000000
00000010
00010000
00000000
00001000
02000000
00000000
,
23000000
00000000
30000000
00000000
,
10010000
00000000
00000001
00000100
00000010
00000100
00000010
00200000
,
00300000
00100000
00001000
00100000
00001000
00100000
10000000
00100000
,
00001000
00010000
00000010
00000002
00000000
00000013
00010000
00002000
,
00000000
00010000
00010000
00013000
,
00011000
00000000
01000000
00100000
00000000
10000000
01000000
00000000
,
01100000
00000000
00001000
00010000
00000000
00000100
00000010
00000000
,
00001001
00000000
00001001
00000100
00000010
00000100
00000010
00010000
,
00001000
00000000
00001000
01000000
00000000
01000000
00000100
00000000
,
00011000
00000000
10000000
01000000
10000000
01000000
00100000
00002000
,
00003000
00001000
00010000
00001000
00010000
00000100
00000001
00000100
,
00000010
00000001
00000100
00020000
00000000
00031000
00010000
00200000
,
00000000
00300000
00000000
00000000
00000000
00000000
10000000
00000000
,
00011000
00000000
00010000
00000001
00000000
00000200
00000000
00000300
,
00001001
00011000
10010000
00011000
,
00001001
00000000
00000001
00000100
00000000
00000010
00200000
00000000
,
00320000
00000000
00030000
00000000
,
02000000
00000000
03000100
00000010
00000100
00000010
00000001
00000200
,
00000300
00000010
00001000
00000010
00001000
00100000
10000000
01000000
,
00100000
00001000
00010000
00000100
00000000
00000100
00010000
02000000
,
00000000
00100000
00100000
03100000
,
00110000
00000000
00100000
00000010
00000000
00000010
00000100
00000000
,
00000110
00000000
00000010
00100000
00000000
00100000
01000000
00000000
,
10010000
00000000
10000000
01000000
00010000
01000000
00100000
00001000
,
00011000
00000000
00000000
00010100
00000000
00000000
00000110
00000000
,
00000011
00000000
00000001
00000100
00010000
00000100
00000010
00001000
,
00001010
00000000
00000000
00011000
00000000
00000000
01010000
00000000
,
10010000
00000000
10000000
00100000
00010000
00100000
01000000
00001000
,
00011000
00000000
00000000
00010100
00000000
00000000
00000110
00000000
,
00000011
00000000
00000000
00000101
00000000
00000000
00001100
00000000
,
00011000
00000000
00010000
00001000
00010000
00001000
00010000
00001000
,
00011000
01000000
00011000
00000100
,
00011000
00100000
00011000
00000010
,
00001001
00000100
00011000
01000000
,
10010000
00100000
00011000
00000010
,
00000101
00010000
00010100
01000000
,
01010000
00100000
10100000
01000000
,
00110000
00000001
00001100
10000000
,
10010000
00000000
10000000
01000000
00010000
00001000
00000010
00000001
,
00002000
00000000
00000000
00000000
,
00000000
00000000
00000000
00000000
,
00003000
00000000
00000000
00000000
;
