#TITLE:London EVOLVED Ver.B;
#SUBTITLE:;
#ARTIST:TAG underground;
#TITLETRANSLIT:;
#SUBTITLETRANSLIT:;
#ARTISTTRANSLIT:;
#CREDIT:;
#BANNER:London EVOLVED Ver.B.png;
#BACKGROUND:London EVOLVED Ver.B-bg.png;
#LYRICSPATH:;
#CDTITLE:;
#MUSIC:London EVOLVED Ver.B.mp3;
#OFFSET:-0.714;
#SAMPLESTART:23.301;
#SAMPLELENGTH:12.020;
#SELECTABLE:YES;
#BPMS:0.000=170.000,32.000=340.000,224.000=170.000,256.000=340.000,320.000=210.000,337.000=420.000;
#STOPS:320.000=2.551
,431.000=0.143
;
#BGCHANGES:;

//---------------dance-single - Copied from Copied from----------------
#NOTES:
     dance-single:
     Copied from Copied from:
     Challenge:
     12:
     1.000,1.000,0.836,0.609,0.223: // measure 1
0000
0000
0000
0000
,  // measure 2
0000
0000
0000
0000
,  // measure 3
0000
0000
0000
0000
,  // measure 4
0000
0000
0000
0000
0000
0000
0000
0000
0000
0000
0000
0000
0000
0000
1000
0100
,  // measure 5
1000
0100
0000
0000
0000
0000
0010
0001
0010
0001
0000
0000
0000
0000
0100
0010
,  // measure 6
0100
0010
0000
0000
0000
0000
1000
0001
1000
0001
0000
0000
0000
0000
1000
0010
,  // measure 7
1000
0010
0000
0000
0000
0000
0001
0010
0001
0010
0000
0000
0000
0000
0001
0100
,  // measure 8
0001
0100
0000
0000
0000
0000
1000
0100
1000
0100
0000
0010
0000
0000
0001
0000
,  // measure 9
0100
0001
0100
0010
0000
0000
1000
0010
,  // measure 10
1000
0100
0000
0010
0001
0000
0100
0001
,  // measure 11
0100
0010
0000
1000
0100
0000
1000
0010
,  // measure 12
1000
0100
0000
0010
0001
0000
0100
0010
,  // measure 13
1000
0100
0000
1000
0010
0000
0100
0001
,  // measure 14
0010
0001
0000
0100
0010
0000
1000
0010
,  // measure 15
0100
0001
0000
0010
0001
0000
0001
0100
,  // measure 16
0010
1000
0100
1000
0100
0000
0000
1100
,  // measure 17
0000
0000
1000
0010
0100
0001
0000
0101
,  // measure 18
0000
0000
0010
0001
0010
0100
0000
1100
,  // measure 19
0000
0000
0100
1000
0010
0100
0000
0101
,  // measure 20
0000
0000
0001
1000
0100
0010
0000
0010
,  // measure 21
0100
1000
0100
1000
0010
0100
0010
0100
,  // measure 22
0001
0010
0100
1000
0010
0100
0001
1000
,  // measure 23
0100
0010
0001
0100
0010
1000
0001
0010
,  // measure 24
0100
0000
0000
1100
0000
0000
1010
0000
,  // measure 25
0110
0000
0010
1000
0001
0000
0100
0000
,  // measure 26
0020
1000
0130
1000
,  // measure 27
1001
0000
0001
1000
0100
0000
1000
0000
,  // measure 28
0020
0100
0031
0100
,  // measure 29
0110
0000
0010
1000
0100
0000
0010
0000
,  // measure 30
0002
0100
1003
0001
,  // measure 31
1001
0000
1000
0000
1010
0000
0010
0100
,  // measure 32
0001
0000
0000
0011
0000
0000
0101
0000
,  // measure 33
0110
0000
0010
1000
0100
0000
1000
0000
,  // measure 34
0020
0001
0130
1000
,  // measure 35
1010
0000
0010
1000
0100
0000
1000
0000
,  // measure 36
0002
1000
0013
0100
,  // measure 37
0101
0000
0001
1000
0100
0000
1000
0000
,  // measure 38
0020
0100
0031
0100
,  // measure 39
0101
0000
0001
0010
0100
0000
1000
0000
,  // measure 40
0010
1000
0000
0010
0100
0000
0001
0000
,  // measure 41
0011
0000
0001
1000
0100
0000
0010
0000
,  // measure 42
0200
1000
0310
1000
,  // measure 43
0020
0001
0130
0010
,  // measure 44
1000
0000
0100
0010
0001
0010
0100
1000
,  // measure 45
0010
0000
0100
0010
1000
0000
0001
0000
,  // measure 46
0020
0100
0031
1000
,  // measure 47
0020
0001
0130
0010
,  // measure 48
1000
0000
0000
1100
0000
0000
0101
0000
,  // measure 49
1001
0000
0001
0010
0100
0000
1000
0000
,  // measure 50
0020
0001
0130
0010
,  // measure 51
2000
0010
3001
0010
,  // measure 52
0100
0000
0010
0001
0010
0100
1000
0010
,  // measure 53
0100
0000
0001
0100
0001
0000
0100
0000
,  // measure 54
0010
0000
1000
0010
1000
0000
0010
0000
,  // measure 55
0100
0000
0010
1000
0100
0000
0010
0000
,  // measure 56
0011
0000
0000
0101
0000
0000
1000
0000
,  // measure 57
1100
0000
0000
0100
1000
0010
0100
0001
0010
0000
0000
0010
0001
0000
0100
0000
,  // measure 58
0101
0000
0000
0001
0100
0010
1000
0100
1000
0000
0000
0010
0100
0000
0001
0000
,  // measure 59
1001
0000
0000
1000
0010
0100
0001
0010
0100
0000
0000
0010
0001
0000
0100
0000
,  // measure 60
0110
0000
0000
0010
1000
0100
0010
0001
0100
0000
0000
0010
1000
0000
0100
0000
,  // measure 61
0110
0000
0000
0010
0001
0100
1000
0100
0010
0000
0000
1000
0100
0000
1000
0000
,  // measure 62
1010
0000
0000
0010
1000
0100
0001
0100
0010
0000
0000
0010
0001
0000
0100
0000
,  // measure 63
0101
0000
0000
0001
0100
1000
0100
0010
1000
0000
0000
0010
0100
0000
0001
0000
,  // measure 64
0101
0000
0001
0000
1100
0000
1000
0000
0010
0100
0001
0010
0100
1000
0010
0100
,  // measure 65
0002
0100
1003
2000
,  // measure 66
0010
0000
3100
0000
0001
0010
0100
0000
,  // measure 67
0020
0001
0130
0200
,  // measure 68
1000
0000
0310
0000
0010
0100
1000
0000
,  // measure 69
0020
0100
0031
2000
,  // measure 70
0001
0000
3010
0000
0001
1000
0100
0000
,  // measure 71
2000
0010
3001
0020
,  // measure 72
0100
0000
1030
0000
0010
0001
0100
0000
,  // measure 73
0010
0000
1010
0000
0010
1000
0100
0000
,  // measure 74
0010
0000
0011
0000
0010
0001
0100
0000
,  // measure 75
0001
0000
1001
0000
1000
0001
0100
0000
,  // measure 76
0010
0000
0110
0000
0010
1000
0100
0000
,  // measure 77
1000
0000
1010
0000
0010
1000
0100
0000
,  // measure 78
0010
0000
0110
0000
0100
0001
0010
0000
,  // measure 79
0001
0010
0100
0000
1000
0010
0100
0000
,  // measure 80
0010
0100
0001
0010
1000
0010
0001
0100
,  // measure 81
0010
0000
1000
0100
1100
1000
0001
0011
,  // measure 82
0001
0100
0110
0010
1000
1010
1000
0100
,  // measure 83
1100
0000
0001
0010
0011
0001
0100
0110
,  // measure 84
0010
1000
1010
0010
1000
1100
1000
0001
,  // measure 85
0101
0001
1000
1100
,  // measure 86
1000
0010
0110
0100
,  // measure 87
0001
0011
0001
1000
,  // measure 88
1100
0001
0011
0110
,  // measure 89
0000
1000
0010
0110
,  // measure 90
0100
0001
0011
0001
,  // measure 91
1000
0000
0010
1000
0010
0100
0001
0010
,  // measure 92
0100
1000
0010
0100
0001
0010
0100
1000
,  // measure 93
0010
0100
0201
0000
0001
0000
0301
0000
,  // measure 94
1020
1000
1030
0201
,  // measure 95
0001
0301
1020
1000
,  // measure 96
1030
0120
0130
2001
,  // measure 97
3001
0102
0100
0103
,  // measure 98
2100
0100
3100
0102
,  // measure 99
0100
0103
2100
0100
,  // measure 100
3100
0102
0103
2100
,  // measure 101
3100
2010
0010
3010
,  // measure 102
0012
0010
0013
2010
,  // measure 103
0010
3010
0012
0010
,  // measure 104
0013
2010
3010
0012
,  // measure 105
0013
1020
1000
1030
,  // measure 106
1002
1000
1003
0201
,  // measure 107
0001
0301
2001
0001
,  // measure 108
3001
0201
0301
1001
,  // measure 109
0001
0000
1000
0100
1000
0000
0010
0000
,  // measure 110
0100
0001
0100
0000
0010
0000
1000
0100
,  // measure 111
1000
0000
0010
0000
0100
0001
0100
0000
,  // measure 112
0001
0010
0100
0000
1000
0010
0100
0000
,  // measure 113
0001
0010
0001
0000
1000
0000
0100
1000
,  // measure 114
0100
0000
0010
0000
0100
0001
0100
0000
,  // measure 115
0010
0000
1000
0010
1000
0000
0010
0000
,  // measure 116
0100
0001
0100
0000
0001
0010
0100
1000
,  // measure 117
0010
0000
0100
0001
0100
0000
0010
0000
,  // measure 118
1000
0100
1000
0000
0010
0000
0100
0001
,  // measure 119
0100
0000
0001
0000
1000
0010
1000
0000
,  // measure 120
0001
0010
0100
0000
1000
0010
0100
0001
,  // measure 121
1000
0000
0010
1000
0100
0000
1000
0001
,  // measure 122
0010
0001
1000
0000
0010
1000
0001
0010
,  // measure 123
0001
0000
1000
0010
1000
0001
0010
0001
,  // measure 124
1000
0100
1000
0010
0100
0001
0010
0100
,  // measure 125
2000
0010
3001
0002
,  // measure 126
1000
0103
2000
0010
,  // measure 127
3001
0200
0010
1300
,  // measure 128
1020
1030
0201
0301
,  // measure 129
2000
0001
3100
0020
,  // measure 130
1000
0130
0200
0001
,  // measure 131
0310
0020
1000
0130
,  // measure 132
0201
0301
1020
1030
,  // measure 133
0002
1000
0103
2000
,  // measure 134
0001
3010
0200
0001
,  // measure 135
0310
0200
1000
0310
,  // measure 136
0021
0130
0120
0031
,  // measure 137
2010
0001
3100
0102
,  // measure 138
1000
0013
0210
0001
,  // measure 139
1300
1020
0001
0130
,  // measure 140
1020
0031
0021
1030
;
