#TITLE:In the Fires of Ignition;
#SUBTITLE:Ys_Memories of Celceta;
#ARTIST:Falcom Sound Team jdk;
#TITLETRANSLIT:;
#SUBTITLETRANSLIT:;
#ARTISTTRANSLIT:;
#CREDIT:;
#BANNER:Ys_MoC_bn.png;
#BACKGROUND:Ys_MoC_bg.png;
#LYRICSPATH:;
#CDTITLE:CD_Title.png;
#MUSIC:In the Fires of Ignition [Boss Theme].mp3;
#OFFSET:0.000;
#SAMPLESTART:34.380;
#SAMPLELENGTH:15.000;
#SELECTABLE:YES;
#BPMS:0.000=230.001;
#STOPS:;
#BGCHANGES:;

//---------------dance-single - ----------------
#NOTES:
     dance-single:
     :
     Challenge:
     13:
     1.000,1.000,0.711,0.168,0.451:
0000
0000
0000
0000
,
2000
3100
1000
1MMM
1000
0001
0010
0100
,
M1MM
0100
0010
0001
1000
0001
0010
0001
,
2000
3010
0100
M1MM
0100
0001
0010
0100
,
M1MM
0000
0100
0000
1000
0000
0010
0000
0100
0000
0001
0000
1000
0000
0010
1000
,
0001
0000
0010
0000
0100
0000
M1MM
0000
0100
0000
0010
0000
0001
0000
1000
0001
,
0010
0000
0001
0000
0100
0000
M1MM
0000
0100
0000
0010
0000
1000
0000
0001
1000
,
0010
0000
1000
0000
0100
0000
M1MM
0000
0100
0000
1000
0000
0010
0000
0100
0001
,
1000
0000
0010
0000
0100
0000
M1MM
0000
0100
0000
0010
0100
0001
1000
0100
0010
,
0001
1000
0010
MM1M
0010
1000
0100
0010
,
0010
0001
0100
0010
1000
0100
0001
0100
,
2000
3010
0100
M1MM
0100
1000
0100
0010
,
0010
1000
0001
0010
1000
0010
0001
0100
,
0020
1030
0100
M1MM
0100
0001
0100
1000
,
1000
0010
1000
0100
0001
0100
1000
0010
,
0200
0301
0010
MM1M
0010
1000
0010
0001
,
0001
0000
1000
0000
0001
0000
0010
0000
0100
0010
0001
1000
0010
0000
0000
0000
,
1010
M000
M001
M010
M000
M010
M100
M010
,
M000
M010
M001
M100
M010
M001
M010
M100
,
M101
0000
0011
0000
1010
1000
0000
0101
,
0001
0000
1000
1010
0000
0011
0000
1001
,
MMMM
000M
000M
101M
000M
001M
010M
001M
,
000M
001M
100M
010M
001M
010M
100M
001M
,
101M
0000
0011
0000
1010
1000
0000
0011
,
0001
0000
0100
0101
0000
1100
0000
1010
,
1000
0001
0010
MM1M
0010
0100
1000
0010
,
MM1M
0010
0100
0001
0010
0010
10M0
1000
,
M010
0001
0100
M1MM
0100
1000
0010
0100
,
M1MM
0100
0001
0010
1000
1000
M010
0010
,
00M1
0100
1000
1MMM
1000
0100
0010
1000
,
1MMM
1000
0100
0010
0001
0001
001M
0010
,
10M0
0010
0001
MMM1
0001
0100
0010
1000
,
1MMM
0000
1000
0000
0010
0000
0100
0000
0001
0010
0001
0010
0001
0000
0000
0000
,
0101
000M
100M
010M
000M
010M
001M
010M
,
000M
010M
100M
001M
010M
100M
010M
001M
,
101M
0000
1100
0000
0101
0001
0000
1010
,
1000
0000
0001
0101
0000
1100
0000
1001
,
MMMM
M000
M000
M101
M000
M100
M010
M100
,
M000
M100
M001
M010
M100
M010
M001
M100
,
M101
0000
1100
0000
0101
0001
0000
1100
,
1000
0000
0010
1010
0000
0011
1000
2002
,
0000
0000
0000
3003
0000
0000
0001
0000
0100
0000
0001
0000
0100
0000
0010
0000
0100
0000
0010
0000
1000
0000
0010
0000
,
1000
0100
1000
0010
0100
0001
0010
0100
1000
0100
0010
0001
,
1000
0010
0100
0010
1000
0001
0010
0100
0010
0001
1000
0010
,
0200
0000
0000
0000
,
0000
0000
0000
0000
,
0301
0100
0001
1000
0100
1000
0010
0100
0001
0010
0100
1000
,
0100
0010
0001
1000
0010
0100
0010
1000
0001
0010
0100
1000
,
0001
0100
0010
1000
0100
0010
0100
1000
0001
0100
0010
0100
,
0001
1000
0010
MM1M
0010
1000
0001
0010
,
MM1M
0010
0001
1000
1000
M001
0001
100M
,
0010
1000
0100
M1MM
0100
0010
0001
0100
,
M1MM
0000
0100
0000
0010
0000
1000
0000
0001
0000
0001
0000
100M
0000
1000
0010
,
M100
0001
0010
MM1M
0010
0001
1000
0010
,
MM1M
0010
0100
0001
0001
100M
1000
M001
,
0100
0010
1000
1MMM
1000
0010
0100
0001
,
MMM1
0000
0001
0000
1000
0000
0010
0000
0100
0010
0100
0010
1000
0001
0010
0100
,
1000
0000
0000
0000
1M1M
0000
0000
0000
MM11
0000
0000
0000
1M1M
0000
1000
0001
,
M1M1
0000
0000
0000
11MM
0000
0000
0000
M1M1
0000
0000
0000
1MM1
0000
0001
1000
,
1MM1
0000
0000
0000
MM11
0000
0000
0000
1M1M
0000
0000
0000
MM11
0000
1000
0100
,
11MM
0000
0000
0000
M1M1
0000
0000
0000
11MM
0000
0000
0000
1MM1
0000
0001
0100
,
M1M1
0000
0000
0000
1M1M
0000
0000
0000
11MM
0000
0000
0000
MM11
0000
1000
0010
,
M11M
0000
0000
0000
11MM
0000
0000
0000
1M1M
0000
0000
0000
11MM
0000
0001
0100
,
M1M1
0000
0000
0000
MM11
0000
0000
0000
1M1M
0000
0000
0000
MM11
0000
1000
0100
,
11MM
0000
0000
0000
M1M1
0000
0000
0000
11MM
0000
0000
0000
1M1M
0000
0001
0100
,
0101
0M00
0M01
0M10
0M00
0M10
1M00
0M10
,
0M00
0M10
0M01
1M00
0M10
0M01
0M10
1M00
,
1M10
0000
1100
0000
0011
0010
0000
1010
,
0010
0000
0010
0011
0000
1010
0000
1100
,
MMMM
00M0
00M1
01M0
00M0
01M0
10M0
01M0
,
00M0
01M0
00M1
10M0
01M0
00M1
01M0
10M0
,
11M0
0000
0101
0000
0011
0001
0000
1001
,
0001
0000
1000
1100
0000
1010
0000
0011
,
0001
1000
0010
MM1M
0010
0100
0001
0010
,
MM1M
0010
0100
1000
0010
0010
10M0
1000
,
M001
0010
0001
MMM1
0001
1000
0010
0001
,
MMM1
0001
0010
1000
0100
0100
0M10
0010
,
00M1
0100
0010
MM1M
0010
1000
0100
0010
,
MM1M
0010
0001
0100
0010
0010
10M0
1000
,
M001
0010
1000
1MMM
1000
0010
0001
1000
,
1MMM
0000
1000
0000
0010
0000
0100
0000
0001
0010
0100
1000
0001
0000
0000
0000
,
0101
00M0
10M0
01M0
00M0
01M0
00M1
01M0
,
00M0
01M0
10M0
00M1
01M0
10M0
01M0
00M1
,
01M1
0000
0011
0000
1100
0100
0000
0101
,
0100
0000
0100
1100
0000
0101
0000
0011
,
MMMM
0M00
1M00
0M10
0M00
0M10
0M01
0M10
,
0M00
0M10
1M00
0M01
0M10
1M00
0M10
0M01
,
0M11
0000
1010
0000
1100
1000
0000
0101
,
0001
0000
1000
1010
0000
0011
0001
2002
,
0000
0000
3003
0000
1000
0010
1000
0010
0100
0001
0010
0100
1000
0100
0010
0001
,
1000
0010
0100
0001
0010
0100
0010
0001
1000
0010
0100
0010
1000
0001
0010
0100
,
1000
0100
0010
0001
1000
0010
0100
0001
1000
0100
0010
0001
0010
0100
1000
0001
,
2000
0000
0000
0000
,
0000
0000
3000
0000
,
0001
0100
0001
0100
0010
1000
0100
0010
0001
0010
0100
1000
0010
0100
0001
1000
,
0100
0010
0001
0010
0100
1000
0001
0100
0010
0100
0001
1000
0010
0100
0010
1000
,
0001
0100
0010
1000
0100
0010
0001
0010
0100
1000
0001
0100
0010
1000
0001
1000
,
0002
1000
0010
0010
1000
1000
0010
0010
,
0100
0100
0010
0010
1000
1000
0010
0013
,
2000
0001
0010
0010
0001
0001
0100
0100
,
0001
0001
0010
0010
0001
0001
0100
3100
,
0020
1000
0100
0100
1000
1000
0100
0100
,
0001
0001
0100
0100
1000
1000
0100
0130
,
2000
0010
0001
0001
0100
0100
0001
0001
,
3020
0100
1000
1000
0100
0100
1000
1030
,
M0M2
0010
1000
1000
M010
0010
10M0
1000
,
M100
0100
1M00
1000
M010
0010
10M0
1000
,
M2M3
1000
M010
0010
00M1
0001
001M
0010
,
10M0
1000
M010
0010
00M1
0001
001M
0310
,
2MM0
0100
0M01
0001
001M
0010
00M1
0001
,
010M
0100
0M01
0001
001M
0010
00M1
3001
,
M02M
0001
010M
0100
1M00
1000
M100
0130
,
2MM0
0001
010M
0100
0M10
0010
01M0
3100
,
MM01
1000
0010
MM1M
0010
0100
0001
0010
,
MM1M
0010
0100
1000
0010
0010
00M1
0001
,
001M
1000
0001
MMM1
0001
1000
0100
0001
,
MMM1
0001
0100
1000
0010
0010
00M1
0001
,
001M
1000
0100
M1MM
0100
0010
0001
1000
,
1MMM
1000
0010
0100
0001
0001
001M
0010
,
10M0
0010
0001
MMM1
0001
1000
0010
0001
,
MMM1
0001
0010
1000
0001
0001
001M
0010
,
20M0
0000
0000
0000
,
0000
0000
0000
0000
,
3000
MMMM
0000
0000
0000
0000
0000
0000
;

//---------------dance-single - Copied from----------------
#NOTES:
     dance-single:
     Copied from:
     Hard:
     9:
     0.748,0.847,0.298,0.130,0.000: // measure 1
0000
0000
0000
0000
,  // measure 2
1000
0001
1000
0000
0001
0000
0010
0001
,  // measure 3
0000
0001
0100
0000
0010
0000
1000
0000
,  // measure 4
0001
1000
0001
0000
1000
0000
0010
1000
,  // measure 5
0000
1000
0100
0000
0010
0000
0001
1000
,  // measure 6
0001
0000
0100
0000
0100
0000
1000
0001
,  // measure 7
1000
0000
0100
0000
0100
0000
0001
1000
,  // measure 8
0001
0000
0100
0000
0100
0000
1000
0001
,  // measure 9
1000
0000
0100
0000
0100
1000
0010
0100
,  // measure 10
0001
1000
0010
0000
1000
0000
0001
0010
,  // measure 11
0000
0010
0001
0000
1000
0010
0100
0000
,  // measure 12
0001
1000
0001
0000
1000
0000
0010
1000
,  // measure 13
0000
1000
0100
0000
0010
0001
1000
0000
,  // measure 14
0001
1000
0010
0000
1000
0000
0001
0010
,  // measure 15
0000
0010
0001
0000
1000
0001
0100
0000
,  // measure 16
0010
1000
0001
0000
1000
0000
0010
1000
,  // measure 17
0000
1000
0100
0000
0010
0001
0010
0000
,  // measure 18
0011
0000
0001
0100
0000
0100
0010
0100
,  // measure 19
0000
0010
1000
0000
1000
0100
0010
0100
,  // measure 20
1000
0000
0001
0000
1000
0010
0000
0010
,  // measure 21
0100
0000
0100
0001
0000
1000
0000
1010
,  // measure 22
0000
0000
1000
0010
0000
0010
0100
0010
,  // measure 23
0000
0100
0001
0000
0001
0010
0100
0010
,  // measure 24
0001
0000
1000
0000
0010
1000
0000
1000
,  // measure 25
0001
0000
0001
0100
0000
0010
0000
1000
,  // measure 26
0010
1000
0100
0000
0010
0000
0001
1000
,  // measure 27
0000
1000
0001
0000
0100
0000
0010
0000
,  // measure 28
1000
0001
1000
0000
0010
0000
0100
0001
,  // measure 29
0000
0001
1000
0000
0010
0000
1000
0000
,  // measure 30
0001
0010
0001
0000
1000
0000
0010
1000
,  // measure 31
0000
1000
0001
0000
0100
0000
0010
0000
,  // measure 32
1000
0001
1000
0000
0010
0000
1000
0001
,  // measure 33
0000
0001
1000
0000
0010
0100
0010
0000
,  // measure 34
1010
0000
1000
0010
0000
0100
0010
0100
,  // measure 35
0000
0001
0010
0000
0010
0100
1000
0010
,  // measure 36
0100
0000
0010
0000
1000
0010
0000
1000
,  // measure 37
0001
0000
0010
0001
0000
0010
0000
0011
,  // measure 38
0000
0000
0001
0100
0000
0010
0100
0010
,  // measure 39
0000
1000
0100
0000
0100
0010
0001
0100
,  // measure 40
0010
0000
1000
0000
0001
0100
0000
0001
,  // measure 41
1000
0000
0010
1000
0000
0001
0000
1001
,  // measure 42
0000
0000
1000
0010
0100
0001
0010
0100
,  // measure 43
0010
0100
1000
0010
0100
0001
1000
0010
,  // measure 44
1000
0010
0100
0001
0010
0100
1000
0001
,  // measure 45
0020
0000
0000
0000
,  // measure 46
0000
0000
0000
0000
,  // measure 47
0031
0100
0001
0100
0010
1000
0100
0010
,  // measure 48
0001
1000
0001
1000
0010
0100
0001
1000
,  // measure 49
0010
0100
0010
0100
0001
0010
0100
1000
,  // measure 50
0002
0000
1000
0000
0100
0000
1000
1000
,  // measure 51
0000
0010
0010
0000
1000
0000
0010
0003
,  // measure 52
2000
0000
0001
0000
0100
0000
0001
0001
,  // measure 53
0000
0100
0100
0000
0001
0000
0100
3000
,  // measure 54
0020
0000
1000
0000
0100
0000
1000
1000
,  // measure 55
0000
0100
0100
0000
1000
0000
0100
0030
,  // measure 56
0200
0000
0001
0000
0010
0000
0001
0001
,  // measure 57
0000
0010
0010
0000
0001
0000
0010
0300
,  // measure 58
0101
0000
1001
0000
0101
0000
0001
1000
,  // measure 59
1100
0000
1001
0000
1100
0000
1000
0001
,  // measure 60
0011
0000
1001
0000
0011
0000
0001
1000
,  // measure 61
1001
0000
0101
0000
1001
0000
1000
0010
,  // measure 62
1010
0000
0101
0000
1010
0000
0001
0010
,  // measure 63
0011
0000
1001
0000
0011
0000
1000
0010
,  // measure 64
1010
0000
0101
0000
1010
0000
0010
1000
,  // measure 65
0011
0000
1100
0000
0011
0000
1000
0010
,  // measure 66
1100
0000
1000
0010
0000
0010
0100
0010
,  // measure 67
0000
0100
0001
0000
0001
0010
0100
0010
,  // measure 68
0001
0000
1000
0000
0001
0100
0000
0100
,  // measure 69
0010
0000
0010
1000
0000
0001
0000
0101
,  // measure 70
0000
0000
0001
0100
0000
0100
0010
0100
,  // measure 71
0000
0010
1000
0000
1000
0100
0010
0100
,  // measure 72
1000
0000
0001
0000
0100
0001
0000
0001
,  // measure 73
1000
0000
1000
0010
0000
0100
0000
0001
,  // measure 74
0100
0001
0010
0000
0100
0000
1000
0001
,  // measure 75
0000
0001
1000
0000
0010
0000
0100
0000
,  // measure 76
0001
1000
0001
0000
0100
0000
0010
1000
,  // measure 77
0000
1000
0001
0000
0100
0000
0001
0000
,  // measure 78
1000
0100
1000
0000
0001
0000
0100
0001
,  // measure 79
0000
0001
1000
0000
0010
0000
0100
0000
,  // measure 80
0001
1000
0001
0000
0100
0000
0001
1000
,  // measure 81
0000
1000
0001
0000
0100
0010
0100
0000
,  // measure 82
0101
0000
0001
0010
0000
0100
0010
0100
,  // measure 83
0000
0010
0001
0000
1000
0010
1000
0100
,  // measure 84
0010
0000
0100
0000
1000
0010
0000
0100
,  // measure 85
0001
0000
0010
0001
0000
0010
0000
1010
,  // measure 86
0000
0000
1000
0010
0000
0100
0010
0100
,  // measure 87
0000
0001
0010
0000
0010
0100
1000
0010
,  // measure 88
0100
0000
0001
0000
1000
0010
0000
1000
,  // measure 89
0001
0000
0100
0001
0000
1000
0000
1001
,  // measure 90
0000
0000
0001
0100
0010
1000
0100
0010
,  // measure 91
0100
0010
0001
0100
0010
1000
0001
0100
,  // measure 92
0001
0100
0010
1000
0100
0010
0001
1000
,  // measure 93
0020
0000
0000
0000
,  // measure 94
0000
0000
0000
0000
,  // measure 95
1030
0010
1000
0010
0100
0001
0010
0100
,  // measure 96
1000
0001
1000
0001
0100
0010
1000
0001
,  // measure 97
0100
0010
0100
0010
1000
0100
0010
0001
,  // measure 98
0020
0001
0100
1000
,  // measure 99
0100
0000
0001
0000
0100
0000
0001
0031
,  // measure 100
0002
0100
1000
0100
,  // measure 101
0010
0000
0100
0000
1000
0000
0100
0103
,  // measure 102
0200
0010
0001
0010
,  // measure 103
1000
0000
0010
0000
0001
0000
0010
0310
,  // measure 104
0020
0000
1000
0000
0100
0000
0001
0030
,  // measure 105
0200
0000
0001
0000
0010
0000
1000
0300
,  // measure 106
0012
0000
0010
0000
1000
0000
0100
0100
,  // measure 107
0000
0010
0010
0000
1000
0000
1000
0003
,  // measure 108
2001
0000
0010
0000
0001
0000
0100
0100
,  // measure 109
0000
0001
0001
0000
0100
0000
0100
3000
,  // measure 110
1200
0000
0010
0000
0001
0000
1000
1000
,  // measure 111
0000
0001
0001
0000
1000
0000
0010
0300
,  // measure 112
0021
0000
0001
0000
0100
0000
0031
0010
,  // measure 113
0012
0000
1000
0000
0010
0000
1003
0001
,  // measure 114
1000
0001
0100
0000
0010
0000
1000
0001
,  // measure 115
0000
0001
1000
0000
0010
0100
0001
0000
,  // measure 116
1000
0010
0100
0000
0001
0000
1000
0010
,  // measure 117
0000
0010
1000
0000
0001
0010
0100
0000
,  // measure 118
0010
0001
1000
0000
0010
0000
1000
0001
,  // measure 119
0000
0001
0010
0000
0001
1000
0010
0000
,  // measure 120
1000
0001
0100
0000
0010
0000
1000
0001
,  // measure 121
0000
0001
0010
0000
0100
0010
0001
1000
,  // measure 122
0020
0000
0000
0000
,  // measure 123
0000
0000
0000
0000
,  // measure 124
0030
0000
0000
0000
;

//---------------dance-single - Copied from Copied f----------------
#NOTES:
     dance-single:
     Copied from Copied f:
     Medium:
     7:
     0.530,0.518,0.084,0.383,0.000:
0000
0000
0000
0000
,
0000
0000
1000
0000
0001
0000
0100
0010
,
0000
0010
0100
0000
0001
0000
1000
0000
,
0000
0000
0001
0000
1000
0000
0010
0100
,
0000
0100
0010
0000
1000
0000
0001
0000
,
1000
0000
0100
0000
0100
0000
1000
0001
,
0010
0000
0100
0000
0100
0000
0010
0001
,
1000
0000
0100
0000
0100
0000
1000
0001
,
0010
0100
0100
0010
,
1001
0000
0001
0000
1000
0000
0010
0100
,
0000
0100
0010
0000
1000
0000
0001
0000
,
0000
0000
1000
0000
0001
0000
0100
0010
,
0000
0010
0100
0000
0001
0000
1000
0000
,
0000
0000
0010
0000
0100
0000
0001
1000
,
0000
1000
0001
0000
0100
0000
0010
0000
,
0000
0000
0100
0000
0010
0000
1000
0001
,
0000
0001
1000
0000
0010
0000
0100
0000
,
0002
0000
0000
0203
0000
0000
0000
0320
,
0000
0000
1000
0000
1000
0000
0100
0030
,
1000
1000
0001
0000
,
0200
0000
0000
0010
0000
0010
0000
0320
,
0000
0000
0000
2030
0000
0000
0000
3002
,
0000
0000
1000
0000
1000
0000
0100
0003
,
1000
1000
0001
0000
,
0200
0000
0000
0010
0000
0010
0000
0310
,
1000
0000
0001
0000
1000
0000
0010
0100
,
0000
0100
0010
0000
1000
0000
0001
0000
,
0000
0000
1000
0000
0001
0000
0010
0100
,
0000
0100
0010
0000
0001
0000
1000
0000
,
0000
0000
0001
0000
1000
0000
0010
1000
,
0000
1000
0010
0000
0100
0000
0001
0000
,
0000
0000
1000
0000
0010
0000
0100
0001
,
0000
0001
0100
0000
0010
0000
1000
0000
,
0002
0000
0000
2003
0000
0000
0000
3200
,
0000
0000
0010
0000
0010
0000
1000
0300
,
0010
0010
1000
0000
,
0002
0000
0000
0010
0000
0010
0000
0023
,
0000
0000
0000
0032
0000
0000
0000
2003
,
0000
0000
0001
0000
0001
0000
0100
3000
,
1000
1000
0001
0000
,
0200
0000
0000
0010
0000
0010
0000
0320
,
0000
1030
0010
0100
,
0001
0010
0100
1000
,
0100
0010
0001
1000
,
0020
0000
0000
0000
,
0000
0000
0000
0000
0000
0000
0000
0030
,
1000
0001
0010
0100
,
0010
0001
1000
0010
,
0100
0001
1000
0100
,
0020
0001
0000
0001
,
0000
0000
0001
0000
0000
0030
0001
0000
,
1000
0020
0000
1000
,
0000
0000
1000
0000
0000
0030
1000
0000
,
0001
0020
0000
0001
,
0000
0000
0001
0000
0000
0030
0001
0000
,
1000
0020
0000
1000
,
0000
0030
1000
0000
0010
0000
1000
0000
,
0001
0000
1000
0000
0001
0000
0100
0010
,
0100
0000
0001
0000
1000
0000
0010
0100
,
0010
0000
1000
0000
0001
0000
0100
0010
,
0100
0000
0001
0000
1000
0000
0001
0010
,
0001
0000
1000
0000
0001
0000
1000
0010
,
1000
0000
0001
0000
1000
0000
0010
1000
,
0010
0000
1000
0000
0001
0000
0010
0001
,
0010
0000
0001
0000
1000
0000
0010
1000
,
0002
0000
0000
0203
0000
0000
0000
0320
,
0000
0000
1000
0000
1000
0000
0100
0030
,
1000
1000
0001
0000
,
0020
0000
0000
0100
0000
0100
0000
0230
,
0000
0000
0000
0320
0000
0000
0000
0032
,
0000
0000
1000
0000
1000
0000
0100
0003
,
1000
1000
0001
0000
,
0200
0000
0000
0010
0000
0010
0000
0310
,
1000
0000
0001
0000
1000
0000
0001
0010
,
0000
0010
0001
0000
1000
0000
0001
0000
,
0000
0000
1000
0000
0001
0000
1000
0010
,
0000
0010
1000
0000
0001
0000
1000
0000
,
0000
0000
0001
0000
1000
0000
0010
0100
,
0000
0100
0001
0000
1000
0000
0010
0000
,
0000
0000
1000
0000
0010
0000
0100
0001
,
0000
0001
1000
0000
0010
0000
1000
0000
,
0002
0000
0000
2003
0000
0000
0000
3200
,
0000
0000
0010
0000
0010
0000
0001
0300
,
0010
0010
0001
0000
,
2000
0000
0000
0100
0000
0100
0000
3200
,
0000
0000
0000
2300
0000
0000
0000
3002
,
0000
0000
1000
0000
1000
0000
0010
0003
,
0001
0001
1000
0000
,
0020
0000
0000
0100
0000
0100
0000
0230
,
0000
0301
1000
0100
,
0010
0100
1000
0010
,
0100
0001
1000
0010
,
0200
0000
0000
0000
,
0000
0000
0000
0000
0000
0000
0000
0300
,
0010
1000
0100
0001
,
0100
1000
0010
0100
,
0001
0010
1000
0010
,
0002
0000
0100
0000
,
1000
0000
0100
0000
,
2003
0000
0010
0000
,
0001
0000
0010
0000
,
3020
0000
0001
0000
,
0100
0000
0001
0000
,
0230
0000
0010
0000
,
2300
0000
0000
0000
0001
0000
0000
3000
,
1002
0000
0010
0000
0010
0000
0000
1000
,
0000
1000
0000
0000
0010
0000
0010
0003
,
2010
0000
0001
0000
0001
0000
0000
0010
,
0000
0010
0000
0000
0001
0000
0001
3000
,
1020
0000
0100
0000
0100
0000
0000
0001
,
0000
0001
0000
0000
0100
0000
0100
0030
,
1010
1000
0100
0000
,
0011
0001
0100
0010
,
1010
0000
1000
0000
0001
0000
0010
0001
,
0000
1000
0010
0000
0100
0000
0001
0000
,
1001
0000
0001
0000
0100
0000
0010
1000
,
0000
0001
0010
0000
0001
0000
1000
0000
,
1010
0000
1000
0000
0001
0000
0010
0100
,
0000
1000
0001
0000
0100
0000
0010
0000
,
1010
0000
1000
0000
0001
0000
0010
0001
,
0000
1000
0010
0000
0100
0000
0010
0000
,
2002
0000
0000
0000
,
0000
0000
0000
0000
,
3003
0000
0000
0000
;

//---------------dance-single - Copied from Copied f----------------
#NOTES:
     dance-single:
     Copied from Copied f:
     Easy:
     6:
     0.390,0.423,0.000,0.314,0.000:
0000
0000
0000
0000
,
0000
1000
0001
0000
,
0100
0100
0010
0100
,
0000
0001
1000
0000
,
0010
0010
0100
0010
,
1000
1000
1000
1000
,
0001
0001
0001
0001
,
0100
0100
0100
0100
,
0010
0010
0010
0010
,
1000
0001
0010
0000
,
0001
0001
1000
0001
,
0000
0100
0010
0000
,
0100
0100
0001
0100
,
0000
0010
1000
0000
,
0001
0001
1000
0001
,
0000
1000
0010
0000
,
1000
1000
0001
1000
,
0020
0000
0230
0000
,
0302
0000
1003
0001
,
1000
0000
0010
0000
,
0100
0000
0010
1000
,
0002
0000
0203
0000
,
0320
0000
1030
0001
,
1000
0000
0010
0000
,
0100
0000
0001
1000
,
0001
0100
0010
0000
,
1000
1000
0001
1000
,
0000
0010
0100
0000
,
0001
0001
1000
0001
,
0000
1000
0010
0000
,
0100
0100
0010
0100
,
0000
0001
0010
0000
,
0100
0100
0010
0100
,
2000
0000
3002
0000
,
0203
0000
0310
1000
,
0010
0000
1000
0000
,
0001
0000
0010
0001
,
0020
0000
0032
0000
,
0203
0000
0310
1000
,
0010
0000
1000
0000
,
0001
0000
0010
0001
,
1000
1000
1000
0001
,
0010
0001
0001
0100
,
0010
1000
1000
0001
,
0020
0000
0000
0000
,
0030
0000
0000
0000
,
0001
0100
0100
0010
,
1000
0001
0001
1000
,
0010
0100
0100
0010
,
2000
0000
0000
0000
,
0000
0000
0000
0000
,
3002
0000
0000
0000
,
0000
0000
0000
0000
,
0203
0000
0000
0000
,
0000
0000
0000
0000
,
0320
0000
0000
0000
,
0000
0000
0000
0000
,
1030
1000
1000
0001
,
0010
0001
0001
1000
,
0010
1000
1000
0001
,
0010
0001
0001
0100
,
0010
0100
0100
0001
,
1000
0100
0100
1000
,
0001
0010
0010
0001
,
1000
0010
0010
1000
,
0002
0000
0203
0000
,
0320
0000
1030
0001
,
1000
0000
0010
0000
,
0100
0000
0001
1000
,
0020
0000
0230
0000
,
0302
0000
1003
0001
,
1000
0000
0010
0000
,
0100
0000
0010
1000
,
0001
0100
0100
0000
,
0010
1000
0010
1000
,
0000
0001
0010
0000
,
0001
0010
0001
0010
,
0000
1000
0001
0000
,
0100
0001
0100
0001
,
0000
1000
0010
0000
,
0100
0010
0100
0001
,
2000
0000
3020
0000
,
0230
0000
0301
0010
,
0100
0000
0010
0000
,
0001
0000
1000
0010
,
0200
0000
0302
0003
,
2000
0000
3100
0010
,
0001
0000
1000
0000
,
0001
0000
0100
0010
,
1000
0001
0001
0100
,
0010
1000
1000
0010
,
0100
0001
0010
0100
,
2000
0000
0000
0000
,
3000
0000
0000
0000
,
0001
1000
0100
0100
,
1000
0001
0100
0100
,
0001
1000
0010
1000
,
0002
0000
0000
0000
,
0000
0000
0000
0000
,
0203
0000
0000
0000
,
0000
0000
0000
0000
,
0320
0000
0000
0000
,
0000
0000
0000
0000
,
2030
0000
0000
0000
,
3002
0000
0000
0000
,
0203
0000
0010
0000
,
0010
0000
0010
0000
,
0302
0000
1000
0000
,
1000
0000
1000
0000
,
2003
0000
0010
0000
,
0010
0000
0010
0000
,
3020
0000
0100
0000
,
2030
0000
0001
0000
,
3001
1000
0001
0000
,
0100
0100
0010
0100
,
0000
0001
1000
0000
,
0010
0010
1000
0010
,
0000
1000
0001
0000
,
0010
0010
0001
0010
,
0000
0001
1000
0000
,
0010
0010
0100
0010
,
2000
0000
0000
0000
,
0000
0000
0000
0000
,
3000
0000
0000
0000
;

//---------------dance-single - Copied from Copied f----------------
#NOTES:
     dance-single:
     Copied from Copied f:
     Beginner:
     2:
     0.111,0.278,0.061,0.046,0.000:
0000
0000
0000
0000
,
1000
0000
0000
0000
,
0000
0000
0000
0000
,
0001
0000
0000
0000
,
0000
0000
0000
0000
,
0100
0000
0000
0000
,
0100
0000
0000
0000
,
0100
0000
0000
0000
,
0100
0000
0000
0000
,
0010
0000
0000
0000
,
0000
0000
0000
0000
,
1000
0000
0000
0000
,
0000
0000
0000
0000
,
0001
0000
0000
0000
,
0000
0000
0000
0000
,
1000
0000
0000
0000
,
0000
0000
0000
0000
,
0010
0000
0000
0000
,
0000
0000
0000
0000
,
0010
0000
0000
0000
,
0000
0000
0000
0000
,
0100
0000
0000
0000
,
0000
0000
0000
0000
,
0100
0000
0000
0000
,
0000
0000
0000
0000
,
0010
0000
0000
0000
,
1000
0000
0000
0000
,
0001
0000
0000
0000
,
1000
0000
0000
0000
,
0010
0000
0000
0000
,
0100
0000
0000
0000
,
0001
0000
0000
0000
,
1000
0000
0000
0000
,
0010
0000
0000
0000
,
0000
0000
0000
0000
,
0010
0000
0000
0000
,
0000
0000
0000
0000
,
0100
0000
0000
0000
,
0000
0000
0000
0000
,
0100
0000
0000
0000
,
0000
0000
0000
0000
,
0001
0000
0001
0000
,
0001
0000
0001
0000
,
1000
0000
1000
0000
,
1000
0000
0000
0000
,
0000
0000
0000
0000
,
1000
0000
1000
0000
,
0010
0000
0010
0000
,
0010
0000
0010
0000
,
1000
0000
0000
0000
,
0000
0000
0000
0000
,
0001
0000
0000
0000
,
0000
0000
0000
0000
,
0100
0000
0000
0000
,
0000
0000
0000
0000
,
0010
0000
0000
0000
,
0000
0000
0000
0000
,
1001
0000
0000
0000
,
1001
0000
0000
0000
,
0101
0000
0000
0000
,
0101
0000
0000
0000
,
1010
0000
0000
0000
,
1010
0000
0000
0000
,
0110
0000
0000
0000
,
0110
0000
0000
0000
,
1000
0000
0000
0000
,
0000
0000
0000
0000
,
1000
0000
0000
0000
,
0000
0000
0000
0000
,
0001
0000
0000
0000
,
0000
0000
0000
0000
,
0001
0000
0000
0000
,
0000
0000
0000
0000
,
0100
0000
0000
0000
,
0000
0000
0000
0000
,
0010
0000
0000
0000
,
0000
0000
0000
0000
,
1000
0000
0000
0000
,
0000
0000
0000
0000
,
0001
0000
0000
0000
,
0000
0000
0000
0000
,
1000
0000
0000
0000
,
0000
0000
0000
0000
,
1000
0000
0000
0000
,
0000
0000
0000
0000
,
0001
0000
0000
0000
,
0000
0000
0000
0000
,
0001
0000
0000
0000
,
0000
0000
0000
0000
,
1000
0000
1000
0000
,
1000
0000
1000
0000
,
0010
0000
0010
0000
,
0010
0000
0000
0000
,
0000
0000
0000
0000
,
0100
0000
0100
0000
,
0001
0000
0001
0000
,
0001
0000
0001
0000
,
1000
0000
0000
0000
,
0000
0000
0000
0000
,
0001
0000
0000
0000
,
0000
0000
0000
0000
,
0100
0000
0000
0000
,
0000
0000
0000
0000
,
0010
0000
0000
0000
,
1000
0000
0000
0000
,
0002
0000
0000
0000
,
0003
0000
0000
0000
,
2000
0000
0000
0000
,
3000
0000
0000
0000
,
0020
0000
0000
0000
,
0030
0000
0000
0000
,
0200
0000
0000
0000
,
0320
0000
0000
0000
,
2030
0000
0000
0000
,
0000
0000
0000
0000
,
0000
0000
0000
0000
,
0000
0000
0000
0000
,
0000
0000
0000
0000
,
0000
0000
0000
0000
,
0000
0000
0000
0000
,
0000
0000
0000
0000
,
3001
0000
0000
0000
;
