#TITLE:In My Eyes;
#SUBTITLE:;
#ARTIST:riewo;
#TITLETRANSLIT:;
#SUBTITLETRANSLIT:;
#ARTISTTRANSLIT:;
#CREDIT:;
#BANNER:In My Eyes.png;
#BACKGROUND:In My Eyes-bg.png;
#LYRICSPATH:;
#CDTITLE:./CDTITLES/DANCE DANCE REVOLUTION ULTRAMIX.PNG;
#MUSIC:In My Eyes.ogg;
#OFFSET:-6.823;
#SAMPLESTART:53.440;
#SAMPLELENGTH:12.000;
#SELECTABLE:YES;
#DISPLAYBPM:142.000;
#BPMS:0.000=142.020;
#STOPS:;
#BGCHANGES:;

//---------------dance-single - Copied from----------------
#NOTES:
     dance-single:
     Copied from:
     Challenge:
     10:
     0.629,0.790,0.263,0.127,0.391:
0000
0000
0000
0000
,
0000
0000
0000
0000
,
0010
0100
0010
0100
0001
1000
0100
0010
,
0001
0000
0000
0100
0000
0000
0001
0000
0000
0100
0000
0000
0010
0000
0000
1000
0000
0000
0010
0000
0000
1000
0000
0000
0100
0000
0000
0010
0000
0000
0001
0000
0000
1000
0000
0000
0001
0000
1000
0000
0001
0000
1000
0000
0001
0000
1000
0000
,
0001
0000
1100
0000
0001
0100
1001
0000
,
0010
1000
0100
0010
0001
1000
0001
0100
,
0010
0000
0101
0000
0010
1000
1100
0000
,
0001
1000
0100
0010
0001
1000
0100
0010
,
1000
0001
0101
0000
0010
1000
1100
0000
,
0010
0100
0001
0000
1000
0100
0010
0001
,
0100
0010
1000
0001
0100
0010
0100
0000
,
0010
0000
0000
1000
0000
0000
0010
0000
0000
1000
0000
0000
0100
0000
0000
0010
0000
0000
0001
0000
0000
1000
0000
0000
0010
0000
1000
0000
0010
0000
1000
0000
0010
0000
1000
0000
0001
0000
0000
0000
0000
0000
0000
0000
0000
0000
0000
0000
,
2002
0000
0010
0000
0000
0000
0010
3003
,
1000
0010
0100
0000
0001
0010
0100
0000
,
1000
0000
0001
0010
0000
0001
1000
0000
0100
0000
1000
0010
0000
1000
0001
0000
,
0100
0000
0001
0010
0000
0001
1000
0000
0100
0000
1000
0010
0000
1000
0100
0000
,
2200
0000
0001
0000
0000
0000
0001
3300
,
0010
1000
0100
0000
0010
0001
0100
0000
,
0010
0000
1000
0100
0000
0010
0001
0000
0100
0000
0001
0010
0000
0100
1000
0000
,
0010
0000
1000
0010
0000
0100
0001
0000
0010
0000
0001
0100
0000
0010
1000
0000
,
2002
0000
0010
0000
0000
0000
0010
3003
,
0001
1000
0100
0000
0010
0001
1000
0000
,
0001
0000
0100
0010
0000
1000
0100
0000
0010
0000
0100
1000
0000
0010
0100
0000
,
0001
0000
1000
0010
0000
1000
0100
0000
1000
0000
0001
0010
0000
0001
0100
0000
,
0220
0000
0001
0000
0000
0000
1000
0330
,
0010
1000
0100
0000
0010
0001
0100
0000
,
0010
0000
1000
0100
0000
1000
0001
0000
0010
0000
0001
0100
0000
0010
1000
0000
,
1100
0000
0000
1100
0000
0000
1001
0000
0000
1001
0000
0000
1000
0001
1000
0001
1000
0001
1000
0000
0000
0000
0000
0000
,
1100
0000
0000
0000
0010
0100
0000
0000
0M00
0000
0001
0000
011M
0000
0M00
0000
,
0010
1000
0100
0010
0001
0100
0001
0000
,
001M
1000
0100
0010
0001
0100
0010
0000
,
0001
1000
0110
0000
0001
1000
1100
0000
,
0101
0000
0000
0000
0010
0100
0000
0000
0M00
0000
1000
0000
M101
0000
000M
0000
,
0100
0001
0010
0100
1000
0010
1000
0000
,
M010
0001
0010
0100
1000
0010
0100
0000
,
0010
0000
0000
1000
0000
0000
0010
0000
0000
1000
0000
0000
0001
0000
0000
1000
0000
0000
0001
0000
0000
0010
0000
0000
0001
0000
0000
0010
0000
0000
0001
0000
0000
0010
0000
0000
0001
0000
0010
0000
0001
0000
0010
0000
0001
0000
0010
0000
,
0001
0000
0000
0000
1000
0001
0000
0000
000M
0000
0010
0000
0101
0000
000M
0000
,
0010
0100
0001
1000
0100
0010
0100
0000
,
1M00
0001
0100
1000
0100
0001
0010
0000
,
0010
0100
1000
0010
0001
0010
1010
0000
,
1100
0000
0000
0000
0100
0010
0000
0000
00M0
0000
0010
0000
0011
0000
000M
0000
,
0010
0100
1000
0010
0100
0001
0010
00M0
,
1000
0010
0100
1000
0100
0001
0010
0100
,
1000
0000
0000
0010
0000
0000
1000
0000
0000
0010
0000
0000
0100
0000
0000
0001
0000
0000
0100
0000
0000
0001
0000
0000
0010
0000
0000
0100
0000
0000
1000
0000
0000
0001
0000
0000
0010
0000
0001
0000
0010
0000
0001
0000
0010
0000
0001
0000
,
0020
0000
0000
0000
0002
0000
0000
0030
,
2000
0000
0000
0000
0110
0000
0000
3003
,
2000
0000
0000
0000
0020
0000
0000
3000
,
0200
0000
0000
0000
1001
0000
0000
0330
,
1000
0001
1100
0000
0010
0100
0010
0100
,
0001
1000
0100
0010
0001
0100
0001
1000
,
0100
0010
0001
1000
0010
0100
0010
0100
,
0001
1000
0100
0010
0100
1000
0001
0000
,
1000
0001
1100
0000
0010
0100
0010
0100
,
0001
1000
0100
0010
0001
0100
0001
1000
,
0100
0010
0001
1000
0010
0100
0010
0100
,
0001
1000
0100
0010
0100
1000
0001
0000
,
0100
0001
1010
0000
0100
0010
0100
0010
,
0001
1000
0010
0100
0001
1000
0100
0010
,
1000
0001
1000
0001
0010
0100
0010
0100
,
1000
0000
0000
0001
0000
0000
1000
0000
0000
0001
0000
0000
0010
0000
0000
0100
0000
0000
0010
0000
0000
0100
0000
0000
1000
0000
0010
0000
1000
0000
0010
0000
1000
0000
0010
0000
0100
0000
0001
0000
0100
0000
0001
0000
0100
0000
0001
0000
,
1000
0000
0000
0000
;
