#TITLE:HELIX;
#SUBTITLE:;
#ARTIST:KEiNA;
#TITLETRANSLIT:;
#SUBTITLETRANSLIT:;
#ARTISTTRANSLIT:;
#CREDIT:;
#BANNER:Helix_bn.png;
#BACKGROUND:Helix_bg.png;
#LYRICSPATH:;
#CDTITLE:CD_Title.png;
#MUSIC:Helix.mp3;
#OFFSET:-0.150;
#SAMPLESTART:53.014;
#SAMPLELENGTH:16.980;
#SELECTABLE:YES;
#BPMS:0.000=152.000;
#STOPS:0.000=0.020
,36.250=0.010
,36.500=0.010
,36.750=0.010
,98.000=0.015
,98.063=0.010
,98.125=0.010
,201.875=0.005
,202.000=0.005
,271.750=0.005
,271.875=0.005
;
#BGCHANGES:;

//---------------dance-single - ----------------
#NOTES:
     dance-single:
     :
     Easy:
     4:
     0.353,0.430,0.230,0.239,0.000:
1001
0000
0100
0010
,
1000
0010
1000
0010
,
0100
0001
0100
0001
,
1000
0001
1000
0001
,
0100
0010
2000
3002
,
0103
0001
0100
0001
,
1000
0010
1000
0010
,
1000
0001
1000
0001
,
0100
0010
0100
0010
,
1000
0010
0010
1000
,
0000
0001
0010
0010
,
0000
1000
0010
0010
,
1000
0000
0000
0001
0000
0000
0010
0000
,
0001
1000
1000
0010
,
0000
1000
0010
0010
,
0000
0001
0010
0010
,
0001
0000
0000
1000
0000
0000
0010
0000
,
1000
0100
1000
0100
,
0010
0001
0010
0001
,
1000
0001
1000
0001
,
0100
0010
0100
0010
,
1000
1001
0010
0010
,
0100
1001
0010
0010
,
1000
1001
0010
0010
,
0100
1001
0010
1000
,
0002
0000
0000
0000
,
2003
0000
3010
0100
,
0002
0000
0000
0000
,
0203
0000
0300
0020
0000
0000
1030
0000
,
2002
0000
3003
1000
,
0020
0000
0000
0230
0000
0000
0301
0000
,
1000
0000
0100
0000
0010
0000
0001
2000
,
0000
0000
0000
0000
,
3002
0000
0103
0010
,
1000
1010
0001
0100
,
0110
0010
1000
1000
,
0001
0000
0001
0010
,
0002
0000
0000
1003
0000
0000
0000
0000
,
0100
0100
0010
0010
,
1000
0000
0010
0100
,
0220
0000
0000
0330
,
0010
1000
0001
0000
,
1000
1001
0010
1000
,
1010
1000
0001
0001
,
0010
0000
0001
1000
,
0020
0000
0000
0130
0000
0000
0000
0000
,
0010
1010
1000
0001
,
0011
0101
0100
0010
,
2002
0000
3003
0000
,
0010
0100
0001
1000
,
2002
3003
1000
0001
,
1000
0010
1000
0001
,
0010
0001
0010
0100
,
1000
0010
1000
0001
,
0100
0001
0020
0032
,
0103
0010
1000
0010
,
0100
0001
1000
0001
,
1000
0010
1000
0100
,
0020
0032
0203
0320
,
1030
1000
0001
0010
,
0011
0001
0100
0010
,
1010
1000
0001
0010
,
0011
0001
1000
0010
,
1010
1000
0001
0100
,
0101
0001
0100
0010
,
1010
1000
0100
0010
,
0011
0101
1100
1010
,
1001
0000
0001
1000
,
0020
0000
0000
0000
,
0000
0000
0000
0000
,
0000
0000
0000
0000
,
0000
0000
0000
0000
,
0030
0000
0000
0000
;

//---------------dance-single - Copied from----------------
#NOTES:
     dance-single:
     Copied from:
     Hard:
     9:
     0.700,0.736,0.153,0.392,0.741:
2002
3003
0001
1000
,
0010
1000
0000
0100
1000
0000
0010
1000
0000
0100
1000
0000
0001
0000
0010
0000
,
0001
0100
0000
0001
0010
0000
0001
0100
0000
0001
0010
0000
0001
0000
1000
0000
,
0010
1000
0000
0010
0100
0000
0010
1000
0000
0010
0100
0000
0001
0000
1000
0000
,
0010
0100
0000
0001
0100
0000
0010
0000
2000
0000
0000
0000
3002
0000
0000
0000
,
0013
0001
0000
0010
0100
0000
1000
0010
0000
0100
0010
0000
1000
0000
0001
0000
,
0100
0010
0000
0100
0001
0000
1000
0010
0000
0100
0010
0000
1000
0000
0100
0000
,
0010
0001
0000
0010
0100
0000
1000
0010
0000
0100
0010
0000
1000
0000
0001
0000
,
0010
0100
0000
0010
0001
0000
1000
0010
0000
0100
0010
0000
1000
0000
0001
0000
,
0010
0000
0001
0000
1000
0010
0000
0100
0000
0001
0010
0000
0001
0000
1000
0000
,
0000
0000
0010
0000
1000
0100
0000
1000
0000
0010
0100
0000
0001
0000
0010
0000
,
0000
0000
0001
0000
0100
0010
0000
1000
0000
0010
0100
0000
0001
0000
0010
0000
,
0200
0000
1300
0020
0000
1030
0001
0000
,
1001
0000
1000
0000
0010
0100
0000
0001
0000
1000
0010
0000
1000
0000
0001
0000
,
0100
0000
0010
0000
1000
0001
0000
0100
0000
0010
1000
0000
0001
0000
0010
0000
,
0001
0000
0100
0000
0010
1000
0000
0100
0000
1000
0001
0000
0100
0000
0010
0000
,
2000
0000
3001
0020
0000
0031
0100
0010
,
1000
0010
0000
1000
0100
0000
1000
0010
0000
1000
0100
1000
0001
0000
0010
0000
,
0001
0100
0000
0001
0010
0000
0001
0100
0000
0001
0010
0001
1000
0000
0010
0000
,
1000
0001
0000
1000
0010
0000
1000
0001
0000
1000
0010
1000
0001
0000
0010
0000
,
0001
1000
0000
0001
0100
0000
0001
1000
0000
0001
0100
0001
1000
0000
0001
0000
,
0010
0100
0000
0010
0001
0000
0010
0100
0000
0010
0001
0100
0010
0000
1000
0000
,
0010
0100
0000
0010
1000
0000
0010
0100
0000
0010
1000
0100
0010
0000
0001
0000
,
1000
0010
0000
1000
0100
0000
1000
0010
0000
1000
0100
1000
0001
0000
0010
0000
,
0001
0100
0000
0001
0020
0000
0000
0000
0031
0000
0010
0000
0100
0000
1000
0010
,
0000
0022
0000
0000
0000
0000
0033
0010
,
0001
0000
1000
0020
0000
0000
0000
0000
0130
0000
0001
0000
0010
0000
0001
0100
,
0000
2020
0000
0000
0000
3030
0000
1000
,
2010
0000
0000
0000
3001
0000
0012
0000
0000
0000
0103
0010
0100
0000
0000
0000
,
2002
0000
0000
0000
3003
0000
0010
1000
,
1002
0000
0000
0203
0000
0310
2000
0000
,
3200
0000
0302
0000
0023
0000
2030
0002
,
0000
0000
3003
0000
,
0001
0000
0000
1000
0001
1000
0001
0000
0000
0000
0000
0000
1000
0000
0000
0000
0000
0000
0001
0000
0000
0000
0000
0000
,
0010
0000
0001
0010
0000
0000
0001
0000
1000
0001
0000
0000
1000
0000
0010
1000
,
0000
0000
0010
0100
0010
0000
0100
0000
0001
0000
0010
0100
0000
1000
0000
0001
,
0000
0000
0001
1000
,
0200
0000
1000
0020
0000
0000
0330
0000
,
0010
0000
0001
0100
0000
0000
0010
0000
1000
0100
0000
0000
0010
0000
0001
0200
,
0000
0000
0000
0320
0000
1030
0100
0010
,
0002
0000
0000
0000
0000
0000
0000
0000
0000
0000
0000
0000
0003
0000
1000
0001
,
0020
0000
0000
0000
0032
0000
0000
0000
1003
0000
0000
1010
0000
0000
0000
0000
,
1000
0000
0010
1000
0000
0000
1000
0000
0001
1000
0000
0000
0001
0000
0010
0001
,
0000
0000
0100
0010
0100
0000
0010
0000
1000
0000
0010
0100
0000
0001
0000
1000
,
0000
0000
1000
0001
,
0020
0000
0001
0200
0000
0000
0330
0000
,
0100
0000
1000
0010
0000
0000
0100
0000
0001
0010
0000
0000
0100
0000
1000
0010
,
0000
0000
0010
0100
0010
0000
0000
0000
1000
0000
0010
0000
0100
0000
0001
0020
,
0000
0000
0000
0000
,
0130
0010
0000
0100
0001
0000
1000
0010
0000
0100
0010
0000
1000
0000
0001
0000
,
0100
0000
0000
0010
1000
0010
1000
0000
0000
0000
0000
0000
0100
0000
0000
0000
0000
0000
0010
0000
0000
0000
0000
0000
,
0001
0100
0000
0001
0010
0000
0001
0100
0000
0001
0010
0000
0001
0000
1000
0000
,
0010
1000
0000
0001
1000
0000
0010
1000
0000
0001
1000
0000
0010
0000
0100
0000
,
0001
0010
0000
0001
1000
0000
0001
0010
0000
0001
1000
0000
0010
0000
1000
0000
,
0010
0100
0000
0010
1000
0000
0001
0000
0020
0000
0000
0000
0230
0000
0000
0000
,
1300
0010
0000
1000
0001
0000
0010
0001
0000
1000
0010
0000
1000
0000
0001
0000
,
0010
0000
0000
0001
0000
0000
0000
0000
0000
1000
0000
0000
0001
0000
0000
0000
0000
0000
1000
0000
0000
0010
0000
0000
0000
0000
0000
1000
0000
0000
0001
0000
0000
0000
0000
0000
0010
0000
0001
0000
0010
0000
0001
0000
0000
0000
0000
0000
,
2000
0000
0000
0000
0010
0000
0000
0001
0000
0000
3200
0000
1000
0000
0001
0000
,
0310
0001
0000
0010
0001
0010
0000
0001
1000
0000
0010
0000
1000
0000
0100
0000
,
0011
0000
0001
0000
1000
0010
0000
0000
0001
0010
0000
0000
1000
0000
0001
0000
,
0021
0000
0000
0000
0032
0000
0000
2003
0000
0000
3010
0000
0000
0000
0000
0000
,
0000
0000
1010
0000
0000
1010
0000
0000
0000
0001
0000
0000
0100
0000
0010
0000
,
1000
0100
0000
1000
0001
0000
0010
0001
0000
0100
0001
0000
1000
0000
0010
0000
,
0100
0001
0100
0000
0010
2000
0000
0000
0000
0000
3100
0000
0010
0000
0001
0000
,
1010
0000
0000
0000
1100
0000
0000
0011
0000
0000
0011
0000
0000
0000
0000
0000
,
0000
0000
0001
0010
0000
0001
0100
0000
0000
1000
0010
0000
1000
0000
0001
0000
,
0010
0001
0010
0000
0001
0100
0000
0010
1000
0100
1000
0000
0001
0100
0010
0000
,
1000
0000
0000
0000
0000
0000
0010
0000
1000
0000
0010
0000
1000
0000
0000
0000
0000
0000
0000
0000
0000
0000
0000
0000
0010
0000
0000
1000
0000
0000
0000
0000
0000
0001
0000
0000
1000
0000
0000
0000
0000
0000
0001
0000
0000
0000
0000
0000
,
2002
0000
0000
0000
,
0000
0000
0000
0000
,
0000
0000
0000
0000
,
0000
0000
0000
0000
,
3003
0000
0000
0000
;

//---------------dance-single - Copied from Copied f----------------
#NOTES:
     dance-single:
     Copied from Copied f:
     Challenge:
     11:
     0.907,0.951,0.324,0.622,1.000:
1001
0000
0000
0001
0010
0100
1000
0000
0000
0000
0000
0000
0020
0000
0000
0100
0000
0000
2030
0000
0000
0001
0000
0000
,
3001
0100
0000
0100
1000
0000
1000
0010
0000
1000
0100
0001
0100
0000
0010
0000
,
0001
0010
0000
0010
1000
0000
1000
0100
0000
0001
0010
1000
0010
0000
0100
0000
,
1000
0010
0000
0010
0001
0000
0001
0100
0000
0100
1000
0100
0001
0000
0010
0000
,
0100
1000
0000
1000
0010
0000
0001
0000
0200
0000
1000
0000
0320
0000
0001
0000
,
1030
0000
0001
0000
1000
0000
0001
0000
0000
1000
0000
0000
0100
0000
0000
0000
0000
0000
0010
0000
0000
0001
0000
0000
0000
0000
0000
0100
0000
0000
0001
0000
0000
0010
0000
0000
0100
0000
0000
0010
0000
0000
0001
0000
0000
1000
0000
0000
,
0010
0100
0000
0010
1000
0000
0010
0001
0000
1000
0010
0100
0010
1000
0100
0010
,
0001
1000
0000
0010
1000
0000
0010
0001
0000
1000
0001
0010
0100
0010
0001
1000
,
0010
0100
0000
0001
0010
0000
1000
0100
0000
0010
0001
0010
0100
1000
0010
0100
,
0002
0000
0023
0000
1030
0010
0000
0100
0000
1000
0020
0000
0001
0000
1030
0000
,
0020
0000
2030
0000
3001
0010
0000
0100
0000
0010
0002
0000
1000
0000
0013
0000
,
0200
0000
0320
0000
1030
0100
0000
0010
0000
1000
0020
0000
0001
0000
1030
0000
,
0020
0000
0001
0230
0000
2300
0002
0000
,
3000
0000
0203
0000
0301
0100
0000
0010
0000
0001
0020
0000
1000
0000
0031
0000
,
2000
0000
3002
0000
0013
0100
0000
0010
0000
1000
0020
0000
0001
0000
1030
0000
,
0020
0000
0032
0000
0103
1000
0000
0100
0000
0001
0020
0000
1000
0000
0001
0000
,
0230
0000
1000
0320
0000
0001
0130
1000
,
0001
0000
0010
0000
0001
0000
0010
0000
0000
0001
0000
0000
0100
0000
0000
0000
0000
0000
0010
0000
0000
1000
0000
0000
0000
0000
0000
0010
0000
0000
0100
0000
0000
0001
0000
0000
0010
0000
0000
0100
0000
0000
0010
0000
0000
0001
0000
0000
,
1000
0010
0000
1000
0100
0000
0001
0010
0000
0001
0010
0100
0010
0001
1000
0010
,
1000
0100
0000
0100
0010
0000
0001
0100
0000
0010
1000
0010
0100
0001
0010
0100
,
0010
0001
0000
0001
1000
0000
0010
0001
0000
1000
0010
1000
0100
0010
0001
0010
,
0100
1000
0000
0100
0010
0000
1000
0001
0000
0100
1000
0100
0001
0010
0100
0010
,
0001
1000
0000
0010
1000
0000
0010
0001
0000
1000
0010
0100
0010
1000
0100
0010
,
0001
0010
0000
1000
0010
0000
0100
1000
0000
0010
0001
0010
0100
0001
0010
0100
,
0010
0001
0000
1000
0001
0000
0010
1000
0010
0000
0001
0000
0100
0000
1000
0010
,
0000
0022
0000
0000
0000
0000
0033
0001
,
0011
0000
0010
2000
0000
0000
0000
0000
3100
0000
0001
0000
0010
0000
1000
0010
,
0000
0202
0000
0000
0000
0303
0000
0010
,
2100
0000
0000
0000
3010
0000
0102
0000
0000
0000
0103
1000
0010
0000
0000
0000
,
2002
0000
0000
0000
3003
0000
0010
1000
,
0021
0000
0000
0000
0000
0000
0032
0000
0000
0000
0103
0000
2000
0000
0000
3000
,
0200
0000
0302
0000
0023
0000
0032
2000
,
0000
0000
0000
0000
0000
0000
0000
3003
,
1000
0010
0100
0001
0010
0100
1000
0000
0000
0000
0000
0000
0002
0000
0000
0000
0000
0000
0203
0000
0000
0000
0300
0000
,
0110
0000
0010
1000
0MMM
M000
0110
0000
0100
0001
MMM0
000M
0110
0000
0010
1000
,
0MMM
M000
0100
0010
0100
0000
0010
0000
0001
0000
1000
0010
0000
0011
0000
2020
,
0000
0000
0000
3030
1000
0000
0010
0000
,
0120
0000
0001
2000
0000
0000
3030
0000
,
0011
0000
1000
0100
M0MM
0M00
0011
0000
0001
0100
M0MM
0M00
1010
0000
1000
0200
,
0000
0000
0000
0320
0000
0031
0100
1000
,
0002
0000
0000
0000
0000
0000
0000
0000
0000
0000
0000
0000
0000
0000
0013
1000
,
0200
0000
0000
0000
0320
0000
0000
0000
1000
0000
0030
0011
0000
0000
0000
0000
,
1000
0000
0010
0000
1000
0000
0001
0000
0000
1000
0000
0000
0MMM
0000
0000
M000
0000
0000
0011
0000
0000
0000
0000
0000
0100
0000
0000
0001
0000
0000
MMM0
0000
0000
000M
0000
0000
1010
0000
0000
0000
0000
0000
0100
0000
0000
1000
0000
0000
,
0MMM
M000
0100
0001
0100
0000
0001
0000
0010
0000
0010
1000
0000
1010
0000
0022
,
0000
0000
0000
0033
0001
0000
0010
0000
,
0120
0000
0000
0000
0001
0000
2000
0000
0000
0000
0000
3000
0030
0000
0000
0000
,
0011
0000
1000
0100
M0MM
0M00
0011
0000
0001
0100
M0MM
0M00
1010
0000
1000
0100
,
M0MM
0M00
0010
1000
0020
0000
0000
0000
0130
0000
1000
0000
0001
0000
0100
2000
,
0000
0000
3100
0010
0000
0100
0001
0000
1000
0100
0010
0100
0002
0000
2003
0000
,
3010
0001
0000
1000
0001
0000
0100
1000
0100
0010
1000
0100
0001
0100
0010
0001
,
1000
0001
0010
0100
1000
0001
1000
0000
0000
0000
0000
0000
0200
0000
0000
1000
0000
0000
0320
0000
0000
0001
0000
0000
,
1030
0010
0000
1000
0100
0000
0001
0010
0000
0001
0100
0000
0010
0001
1000
0010
,
0100
0000
0000
1000
0000
0000
0000
0000
0000
0010
0000
0000
1000
0000
0000
0000
0000
0000
0010
0000
0000
0001
0000
0000
0000
0000
0000
0100
0000
0000
0001
0000
0000
0000
0000
0000
1000
0000
0010
0000
0100
0000
0001
0000
0010
0000
0100
0000
,
1000
0001
0000
0010
0001
0000
0100
1000
0000
0010
1000
0010
0001
0100
0010
1000
,
0001
0010
0000
0001
1000
0000
0100
1000
0020
0000
0001
0000
0230
0000
1000
0000
,
0301
1000
0000
0100
1000
0000
0010
0001
0000
0100
0001
0000
1000
0010
0100
0010
,
1000
0000
0000
0001
0000
0000
0000
0000
0000
0010
0000
0000
1000
0000
0000
0000
0000
0000
0010
0000
0000
0001
0000
0000
0000
0000
0000
0100
0000
0000
0010
0000
0000
0000
0000
0000
1000
0000
0100
0000
0010
0000
0001
0000
0100
0000
0010
0000
,
1000
0001
0000
0010
0001
0000
0001
1000
0000
0010
1000
0000
0010
0100
0001
0010
,
0100
0010
0000
0001
0100
0010
0000
0010
1000
0100
0010
0100
1000
0010
0100
0001
,
1000
0000
0100
0000
0010
0000
0002
0000
0000
0000
0000
0000
0000
0000
0000
0103
0000
0000
0020
0000
0000
0000
0000
0000
0000
0000
0000
0031
0000
0000
0010
0000
0000
0000
0000
0000
1000
0000
0000
0000
0000
0000
0100
0000
0000
0000
0000
0000
,
0010
0001
0000
1000
0010
0000
1000
0100
0000
0010
1000
0000
0010
0100
1000
0100
,
0010
1000
0100
0001
0000
0200
0000
0000
0000
0310
0001
0000
0010
0000
0100
0000
,
1000
0010
0000
1000
0100
0000
0010
0001
0000
0100
0001
0000
1000
0000
0010
0000
,
1010
1000
0001
0000
0000
0001
0011
0000
0000
0100
0101
0000
0100
0000
0010
0000
,
1010
0000
0000
0000
0000
0000
0000
0000
0000
0000
0000
0000
0011
0000
0000
0000
0000
0000
0000
0000
0000
0101
0000
0000
0000
0000
0000
1100
0000
0000
0000
0000
0000
0000
0000
0000
1000
0000
0100
0000
0010
0000
0001
0000
0100
0000
0010
0000
,
1000
0001
0010
0000
0010
2000
0000
0000
3000
0000
1010
0000
0011
0000
0101
0000
,
0100
1000
0100
0001
0010
0100
0010
0001
1000
0100
0001
0100
0010
0001
1000
0001
,
0100
0000
0010
0000
1000
0000
0001
0000
0010
0000
0100
0000
1000
0000
0000
0000
0000
0000
0000
0000
0000
0000
0000
0000
0101
0000
0000
0100
0000
0000
0000
0000
0000
1100
0000
0000
0100
0000
0000
0000
0000
0000
0010
0000
0000
0000
0000
0000
,
0001
1000
0001
2000
0002
0000
0000
0000
0000
0000
0000
0000
0000
0000
0000
0000
0000
0000
0000
0000
0000
0000
0000
0000
0000
0000
0000
0000
0000
0000
0000
0000
,
0000
0000
0000
0000
,
0000
0000
0000
0000
,
0000
0000
0000
0000
,
3003
0000
0000
0000
;

//---------------dance-single - Copied from Copied f----------------
#NOTES:
     dance-single:
     Copied from Copied f:
     Medium:
     7:
     0.542,0.614,0.503,0.341,0.175:
2002
3003
0001
1000
,
0010
0000
0000
0000
1000
0000
0000
0010
0000
0000
1000
0000
0010
0000
1000
0000
,
0001
0000
0000
0000
0010
0000
0000
0001
0000
0000
0010
0000
0001
0000
1000
0000
,
0010
0000
0000
0000
0100
0000
0000
0010
0000
0000
0100
0000
0010
0000
1000
0000
,
0010
1000
0020
0230
,
0301
0000
0000
0000
0100
0000
0000
0010
0000
0000
1000
0000
0010
0000
1000
0000
,
0100
0000
0000
0000
0010
0000
0000
0001
0000
0000
0010
0000
0001
0000
0100
0000
,
0010
0000
0000
0000
1000
0000
0000
0010
0000
0000
0100
0000
0001
0000
0010
0000
,
0100
0000
0000
0000
1000
0000
0000
0010
0000
0000
0100
0000
0010
0000
1000
0000
,
0002
0100
0000
0100
0000
0100
0000
0100
,
2003
0100
0000
0100
0000
0100
0000
0100
,
3002
0010
0000
0010
0000
0010
0000
0013
,
0001
0000
1000
0010
0000
0100
0010
0000
,
2000
0010
0000
0001
0000
0010
0000
3001
,
0200
0010
0000
0001
0000
0010
0000
0301
,
2000
0100
0000
0010
0000
0100
0000
3010
,
1000
0000
0001
1000
0000
0010
0100
0010
,
1000
0000
0000
0000
0100
0000
0000
1100
0000
0000
1000
0000
0001
0000
0010
0000
,
0001
0000
0000
0000
0100
0000
0000
0101
0000
0000
0001
0000
1000
0000
0010
0000
,
1000
0000
0000
0000
0010
0000
0000
1010
0000
0000
1000
0000
0010
0000
1000
0000
,
0100
0000
0000
0000
0010
0000
0000
0011
0000
0000
0001
0000
0100
0000
0001
0000
,
0010
0000
0000
0000
0110
0000
0000
1100
0000
0000
1000
0000
0010
0000
1000
0000
,
0100
0000
0000
0000
1100
0000
0000
1010
0000
0000
0010
0000
0100
0000
0001
0000
,
0010
0000
0000
0000
0011
0000
0000
0101
0000
0000
0001
0000
1000
0000
0010
0000
,
2000
0000
3002
0000
0103
0010
0100
0000
,
2010
0000
0010
0000
0001
0000
0100
3000
,
0012
0000
0100
0003
1000
0010
1000
0100
,
0020
0000
0031
0000
0001
0000
0100
0010
,
1000
0000
0100
0010
0000
0001
1000
0000
,
2002
0000
0000
0000
3003
0000
0001
1000
,
0020
0000
0000
0230
0000
0001
0301
0000
,
2000
0000
3020
0000
0230
0000
0301
2000
,
0000
0000
0000
0000
0000
0000
0000
3000
,
0002
0000
1003
0001
,
1000
0000
0000
1010
0000
0000
0001
0000
0000
0011
0000
0000
1000
0000
0000
1010
,
0000
0000
1000
0000
0010
0000
0010
0000
0200
0000
0000
0301
0000
0010
0000
0100
,
0000
0000
0010
0001
,
1010
0000
1000
0001
0000
0000
0000
0000
,
0001
0000
0000
0101
0000
0000
1000
0000
0000
1100
0000
0000
0001
0000
0000
1001
,
0000
0000
0000
0100
0000
0010
0100
0010
,
2000
0000
0000
0000
0000
0000
0000
0000
0000
0000
0000
3000
0000
0000
0001
0000
,
0020
0000
0000
0000
0230
0000
0000
0000
2300
0000
0000
3010
0000
0000
0000
0000
,
1100
0000
0000
0100
0000
0000
0011
0000
0000
0100
0000
0000
1001
0000
0000
0100
,
0000
0000
1000
0000
0010
0000
0010
0000
2000
0000
0000
3001
0000
0010
0000
0100
,
0000
0000
0010
0001
,
1001
0000
0010
1000
0000
0000
0000
0000
,
1000
0000
0000
0110
0000
0000
0001
0000
0000
0110
0000
0000
1000
0000
0000
1001
,
0000
0000
0001
0000
0010
0000
0010
0000
0002
0000
0000
0003
1000
0000
0000
2020
,
0000
0000
3030
0000
,
0110
0000
0000
0000
1010
0000
0000
1100
0000
0000
0100
0000
0010
0000
0001
0000
,
2000
0000
3010
1000
,
0011
0000
0000
0000
0001
0000
0000
0100
0000
0000
0010
0000
1000
0000
0001
0000
,
1001
0000
0000
0000
0001
0000
0000
1000
0000
0000
0010
0000
1000
0000
0100
0000
,
0110
0000
0000
0000
0010
0000
0000
0001
0000
0000
0100
0000
0010
0000
1000
0000
,
1010
0000
0000
0000
1000
0000
0000
0000
0200
0000
0000
0000
0320
0000
0000
0030
,
0011
0000
0000
0000
0001
0000
0000
0100
0000
0000
0010
0000
1000
0000
0100
0000
,
1100
0000
0000
0000
1000
0000
0000
0010
0000
0000
0100
0000
0001
0000
0010
0000
,
0011
0000
0000
0000
0001
0000
0000
1000
0000
0000
0010
0000
1000
0000
0100
0000
,
0110
0000
0001
0000
0100
0010
1000
0100
,
0010
0001
0010
0000
0001
0100
0010
0100
,
0101
0000
1100
0000
1010
0010
1000
0100
,
0011
0000
0101
0000
0011
0010
0001
1000
,
1010
0000
1100
0000
1010
0010
1000
0100
,
0011
0001
2000
0000
0000
3010
1000
0100
,
0110
0000
0011
0000
0101
0100
0001
1000
,
1010
0000
1001
0000
0011
0001
0100
0010
,
1010
0000
1001
0000
0101
0100
0001
0010
,
0200
0000
0000
0000
1300
0010
0100
0002
,
2000
0000
0000
0000
,
0000
0000
0000
0000
,
0000
0000
0000
0000
,
0000
0000
0000
0000
,
3003
0000
0000
0000
;

//---------------dance-double - Copied from Copied f----------------
#NOTES:
     dance-double:
     Copied from Copied f:
     Challenge:
     11:
     0.877,0.951,0.383,0.537,1.000: // measure 1
00001001
00000000
00000000
00000001
00000010
00000100
00001000
00000000
00000000
00000000
00000000
00000000
00000200
00000000
00000000
00010000
00000000
00000000
00200300
00000000
00000000
00001000
00000000
00000000
,  // measure 2
00310000
10000000
00000000
00100000
10000000
00000000
01000000
10000000
00000000
00100000
01000000
00001000
00010000
00000000
00001000
00000000
,  // measure 3
00010000
00000100
00000000
00000010
00000100
00000000
00000001
00000100
00000000
00000010
00000001
00001000
00000010
00000000
00000100
00000000
,  // measure 4
00000001
00000010
00000000
00000001
00000100
00000000
00000001
00001000
00000000
00000100
00010000
00001000
01000000
00000000
00100000
00000000
,  // measure 5
10000000
00100000
00000000
10000000
00010000
00000000
00100000
00001000
00020000
00000000
01000000
00000000
00032000
00000000
00000100
00000000
,  // measure 6
00013000
00000000
00001000
00000000
00010000
00000000
00001000
00000000
00000000
00010000
00000000
00000000
00000100
00000000
00000000
00000000
00000000
00000000
00001000
00000000
00000000
00000010
00000000
00000000
00000000
00000000
00000000
00000100
00000000
00000000
00000001
00000000
00000000
00000010
00000000
00000000
00000100
00000000
00000000
00000010
00000000
00000000
00000001
00000000
00000000
00001000
00000000
00000000
,  // measure 7
00000010
00001000
00000000
00000100
00010000
00000000
00001000
00010000
00000000
00001000
01000000
10000000
01000000
00100000
10000000
01000000
,  // measure 8
00100000
00001000
00000000
00010000
00001000
00000000
00010000
00000100
00000000
00001000
00000010
00000001
00000010
00000100
00000001
00000010
,  // measure 9
00000100
00010000
00000000
00001000
00010000
00000000
00001000
00100000
02000000
00000000
00010000
00000000
03200000
00000000
00001000
00000000
,  // measure 10
01300000
00000000
00100000
00000000
10000000
00010000
00000000
00100000
00000000
00000010
00002000
00000000
00000100
00000000
01000000
00000000
,  // measure 11
00013000
00000000
00000100
00000000
00001000
00000010
00000000
00000001
00000000
00000010
00020000
00000000
00000100
00000000
01000000
00000000
,  // measure 12
00031000
00000000
00100000
00000000
10000000
00100000
00000000
00001000
00000000
00010000
00002000
00000000
00100000
00000000
00000010
00000000
,  // measure 13
00023000
00000000
00000100
00030020
00000000
00001000
00000032
00000000
,  // measure 14
00000013
00000000
00001000
00000000
00000100
01000000
00000000
00100000
00000000
10000000
00020000
00000000
00100000
00000000
00000010
00000000
,  // measure 15
01030000
00000000
00010000
00000000
10000000
01000000
00000000
00010000
00000000
01000000
00200000
00000000
00001000
00000000
10000000
00000000
,  // measure 16
00310000
00000000
01000000
00000000
00001000
00010000
00000000
00000100
00000000
00001000
00000020
00000000
00000001
00000000
00010000
00000000
,  // measure 17
00000230
00000000
00000301
00000020
00000000
00010000
00000001
00000130
,  // measure 18
00010000
00000000
00001000
00000000
00010000
00000000
00001000
00000000
00000000
00010000
00000000
00000000
00001000
00000000
00000000
00000000
00000000
00000000
01000000
00000000
00000000
00100000
00000000
00000000
00000000
00000000
00000000
00100000
00000000
00000000
10000000
00000000
00000000
01000000
00000000
00000000
00010000
00000000
00000000
01000000
00000000
00000000
00100000
00000000
00000000
00001000
00000000
00000000
,  // measure 19
00010000
00000100
00000000
00000100
00001000
00000000
00001000
00000010
00000000
00000010
00000100
00001000
00000100
00000001
00000010
00000100
,  // measure 20
00010000
00001000
00000000
00010000
00001000
00000000
00001000
01000000
00000000
01000000
00100000
10000000
01000000
00100000
10000000
00100000
,  // measure 21
01000000
10000000
00000000
00010000
00100000
00000000
00100000
00001000
00000000
00001000
00010000
00000100
00000001
00000100
00000010
00000001
,  // measure 22
00001000
00000010
00000000
00000010
00000100
00000000
00000100
00000001
00000000
00001000
00000010
00000001
00000010
00000100
00000001
00000010
,  // measure 23
00000100
00010000
00000000
00010000
00001000
00000000
00001000
01000000
00000000
01000000
00100000
00010000
00100000
10000000
01000000
00100000
,  // measure 24
00001000
00010000
00000000
00010000
00000010
00000000
00000010
00000100
00000000
00000100
00000001
00000010
00000100
00000010
00000001
00000100
,  // measure 25
00000010
00000001
00000000
00000001
00000010
00000000
00000010
00010000
00002000
00000000
00203000
00000000
20300000
00000000
32000000
03100000
,  // measure 26
00000000
20020000
00000000
00000000
00000000
00000000
30030000
01000000
,  // measure 27
00000100
00000000
00001000
00000001
00000000
00000000
00000000
00000000
00000010
00000000
00000001
00000000
00000100
00000000
00010000
00000010
,  // measure 28
00000000
00000002
00000000
00000000
00000003
00000000
00000000
00000020
,  // measure 29
00020000
00000000
00000030
00000000
00032000
00000000
02000000
00000000
03003000
00000000
01000000
00000100
00010000
00000000
00000000
00000000
,  // measure 30
00022000
00000000
00000000
00000000
00000000
00033000
00001000
01000000
,  // measure 31
20000000
00000000
00000000
32000000
00000000
03010000
00100000
00000000
,  // measure 32
00002000
00000000
00023000
00000000
00030200
00000000
00000301
00000020
,  // measure 33
00000000
00000000
00000000
00000000
00000000
00000030
00000000
00000000
,  // measure 34
00000011
00000000
00000000
00000001
00000010
00000100
00001000
00000000
00000000
00000000
00000000
00000000
00000200
00000000
00000000
01000000
00000000
00000000
00010000
00000000
00000000
00000300
00000000
00000000
,  // measure 35
01100000
00000000
00001000
00010000
00000000
00000000
00000110
00000000
00010000
00001000
00000000
00000000
01100000
00000000
00001000
00010000
,  // measure 36
00000000
00000000
00001000
00010000
00001000
00000000
00010000
00000000
00000110
00000000
00000100
00000001
00000000
00000011
00000000
00010010
,  // measure 37
00000000
00000000
00000001
00000010
,  // measure 38
00000210
00000000
00000001
00020000
00000000
00000300
00000000
00030000
,  // measure 39
00011000
00000000
01000000
00100000
00000000
00000000
00011000
00000000
00000010
00000100
00000000
00000000
00011000
00000000
01000000
00200000
,  // measure 40
00000000
00000000
00000000
20300000
00000000
31000000
00100000
00001000
,  // measure 41
20200000
00000000
00000000
00000000
00001000
00000000
00000000
00000000
00001000
00000000
00000000
00000000
31300000
00000000
00100000
10000000
,  // measure 42
00010000
00000000
00000000
00000000
00100000
00000000
00000000
00000000
00000010
00000000
00000000
00011000
00000000
00000000
00000000
00000000
,  // measure 43
00010000
00000000
00001000
00000000
00010000
00000000
00001000
00000000
00000000
00100000
00000000
00000000
00000000
00000000
00000000
00000000
00000000
00000000
00011000
00000000
00000000
00000000
00000000
00000000
00000010
00000000
00000000
00001000
00000000
00000000
00000000
00000000
00000000
00000000
00000000
00000000
00011000
00000000
00000000
00000000
00000000
00000000
00100000
00000000
00000000
00010000
00000000
00000000
,  // measure 44
00000000
00000000
00010000
00001000
00010000
00000000
00001000
00000000
01100000
00000000
00100000
10000000
00000000
10100000
00000000
00101000
,  // measure 45
00000000
00000000
10000000
01000000
,  // measure 46
01200000
00000000
10000000
00002000
00000000
00300000
00000000
00003000
,  // measure 47
00100010
00000000
00010000
00001000
00000000
00000000
01000100
00000000
00001000
00010000
00000000
00000000
00100010
00000000
00010000
00001000
,  // measure 48
00000000
00000000
00001000
01000000
00200000
00000000
00000000
00000000
00020000
00300000
02000000
00030000
20000000
03000000
00200000
30002000
,  // measure 49
00000000
00000000
00010000
00000000
00010000
00000000
00000010
00303000
,  // measure 50
00002020
00000000
00010000
00000000
00010000
00000000
00000100
00003030
,  // measure 51
00011000
00000000
00000000
00010000
00001000
00010000
00001000
00000000
00000000
00000000
00000000
00000000
00002000
00000000
00000000
00100000
00000000
00000000
02003000
00000000
00000000
00010000
00000000
00000000
,  // measure 52
13000000
00100000
00000000
10000000
00010000
00000000
00100000
00010000
00000000
00100000
00001000
00010000
00000100
00000010
00000001
00000010
,  // measure 53
00000100
00000000
00000000
00010000
00000000
00000000
00000000
00000000
00000000
00001000
00000000
00000000
01000000
00000000
00000000
00000000
00000000
00000000
01000000
00000000
00000000
00100000
00000000
00000000
00000000
00000000
00000000
00100000
00000000
00000000
10000000
00000000
00000000
00000000
00000000
00000000
01000000
00000000
10000000
00000000
01000000
00000000
10000000
00000000
00010000
00000000
10000000
00000000
,  // measure 54
00010000
00100000
00000000
00001000
00010000
00000000
00010000
00000100
00000000
00000100
00001000
00000001
00000010
00000100
00000010
00000001
,  // measure 55
00001000
00000010
00000000
00000010
00000100
00000000
00000001
00000010
00000200
00000000
00010000
00000000
00000320
00000000
00000001
00000000
,  // measure 56
00001030
00000001
00000000
00000010
00000100
00000000
00010000
00001000
00000000
00001000
00100000
01000000
10000000
00100000
00010000
00100000
,  // measure 57
01000000
00000000
00000000
00010000
00000000
00000000
00000000
00000000
00000000
00100000
00000000
00000000
00001000
00000000
00000000
00000000
00000000
00000000
00010000
00000000
00000000
00000100
00000000
00000000
00000000
00000000
00000000
00001000
00000000
00000000
00000010
00000000
00000000
00000000
00000000
00000000
00000100
00000000
00000001
00000000
00000100
00000000
00000001
00000000
00001000
00000000
00000001
00000000
,  // measure 58
00001000
00000010
00000000
00000010
00000001
00000000
00000001
00001000
00000000
00000100
00000001
00000010
00000100
00000000
00010000
00000000
,  // measure 59
00001000
01000000
10000000
01000000
00100000
10000000
01000000
00010000
00100000
00001000
00010000
00000100
00000001
00000100
00000010
00000001
,  // measure 60
00001000
00000000
00000001
00000000
00001000
00000000
00000001
00000000
00000000
00000000
00000000
00000000
00000001
00000000
00000000
00000100
00000000
00000000
00000000
00000000
00000000
00000000
00000000
00000000
00000000
00000000
00000000
00000100
00000000
00000000
00020000
00000000
00000000
00000000
00000000
00000000
00000100
00000000
00000000
00000000
00000000
00000000
01030000
00000000
00000000
00000000
00000000
00000000
,  // measure 61
01000000
00010000
00000000
00100000
01000000
00000000
00100000
10000000
00000000
00100000
00002000
00000000
00010000
00000000
00000100
00000000
,  // measure 62
00103000
00001000
00011000
00000000
00000000
00010000
00010100
00000000
00000000
00000100
00001100
00000000
00001000
00000000
00000001
00000000
,  // measure 63
00000011
00000001
00000000
00000100
00000110
00000000
00000010
00001000
00000100
00010000
00000100
00010000
01000000
10000000
00100000
01000000
,  // measure 64
01010000
00010000
10010000
00000000
00000000
10100000
10000000
00000000
00000000
00100000
01100000
00000000
01000000
00000000
00001000
00000000
,  // measure 65
00011000
00000000
00000000
00000000
00020200
00000000
00000000
00000010
00000000
00000000
00100000
00000000
00000000
00000000
00030300
00000000
,  // measure 66
00000000
00000000
00010100
00000100
00000000
00011000
00000000
00000000
00000000
00010000
00000100
00000000
00001100
00000000
01001000
00000000
,  // measure 67
01100000
00100000
10000000
01000000
00010000
00001000
00000010
00000001
00000100
00001000
00000100
00000001
00000010
00000100
00010000
00001000
,  // measure 68
00100000
00000000
00000000
00000000
00000000
00000000
00100000
00000000
01000000
00000000
10000000
00000000
00010000
00000000
00000000
00000000
00000000
00000000
00000000
00000000
00000000
01010000
00000000
00000000
00000000
00000000
00000000
11000000
00000000
00000000
00000000
00000000
00000000
10000000
00000000
00000000
00100000
00000000
00000000
00000000
00000000
00000000
01000000
00000000
00000000
00000000
00000000
00000000
,  // measure 69
10000000
00010000
10000000
00020000
20000000
00000000
00000000
00000000
00000000
00000000
00000000
00000000
00000000
00000000
00000000
00000000
00000000
00000000
00000000
00000000
00000000
00000000
00000000
00000000
00000000
00000000
00000000
00000000
00000000
00000000
00000000
00000000
,  // measure 70
00000000
00000000
00000000
00000000
,  // measure 71
00000000
00000000
00000000
00000000
,  // measure 72
00000000
00000000
00000000
00000000
00000000
00000000
00000000
00000000
00000000
00000000
00000000
00000000
00000000
00000000
00000000
00000000
00000000
00000000
00000000
00000000
00000000
00000000
00000000
00000000
00000000
00000000
00000000
00000000
00000000
00000000
00000000
00030000
,  // measure 73
30000000
00000000
00000000
00000000
;

//---------------dance-single - Copied from----------------
#NOTES:
     dance-single:
     Copied from:
     Beginner:
     2:
     0.146,0.176,0.026,0.085,0.000:
0000
0000
0001
0001
,
0001
0000
0000
0000
,
1000
0000
0000
0000
,
0010
0000
0000
0000
,
0100
0000
0010
0010
,
1000
0000
0000
0000
,
0001
0000
0000
0000
,
0100
0000
0000
0000
,
0010
0000
0000
0000
,
2000
0000
3000
0000
,
0002
0000
0003
0000
,
0200
0000
0300
0000
,
0010
0000
1000
0000
,
0002
0000
0003
0000
,
2000
0000
3000
0000
,
0020
0000
0030
0000
,
0100
0000
0001
0000
,
2000
0000
0000
0000
,
0000
0000
0000
0000
,
3020
0000
0000
0000
,
0000
0000
0000
0000
,
1030
0000
0000
0000
,
0001
0000
0000
0000
,
0100
0000
0000
0000
,
0010
0000
1000
0000
,
0001
0000
0000
0000
,
0100
0000
0010
0000
,
1000
0000
0000
0000
,
0001
0000
1000
0000
,
1001
0000
0000
0000
,
0100
0000
0000
0000
,
0010
0000
1000
0000
,
0002
0000
0000
0000
,
1003
0000
0001
0000
,
1000
0000
0010
0000
,
0100
0000
0001
0001
,
0001
0000
1000
0000
,
0010
0010
0000
0000
,
0100
0000
0010
0000
,
1000
0000
0001
0001
,
0001
0000
0000
0000
,
1000
0000
0001
0000
,
0100
0000
0010
0000
,
1000
0000
0001
0001
,
0001
0000
0100
0000
,
0010
0000
1000
0000
,
0001
0000
0100
0000
,
0010
0000
1000
1000
,
1000
0000
0000
0000
,
0001
0000
0000
0000
,
1001
0000
0000
0000
,
1000
0000
0000
0000
,
0010
0000
0100
0010
,
0100
0000
0000
0000
,
0001
0000
1000
0001
,
1000
0000
0000
0000
,
0010
0000
0100
0010
,
0100
0000
0000
0000
,
0001
0000
1000
0000
,
1001
0000
0000
0000
,
0001
0000
1000
0000
,
0010
0000
0000
0000
,
0100
0000
0010
0000
,
1000
0000
0000
0000
,
0001
0000
0010
0000
,
0100
0000
0000
0000
,
0010
0000
0001
0000
,
1000
0000
0001
1000
,
0002
0000
0000
0000
,
0003
0000
0000
0000
;

//---------------dance-double - Copied from Copied f----------------
#NOTES:
     dance-double:
     Copied from Copied f:
     Hard:
     9:
     0.657,0.706,0.170,0.264,0.716:
00000110
00000000
00000001
00001000
,
00000001
00000100
00000000
00000010
00000100
00000000
00000010
00001000
00000000
00000100
00001000
00000000
00000100
00000000
00010000
00000000
,
00001000
01000000
00000000
00010000
01000000
00000000
00010000
10000000
00000000
01000000
10000000
00000000
00100000
00000000
01000000
00000000
,
00010000
00100000
00000000
00010000
01000000
00000000
00010000
00100000
00000000
00001000
00010000
00000000
00001000
00000000
00010000
00000000
,
00000100
00000010
00000000
00000001
00000010
00000000
00000001
00000000
00002000
00000000
00000000
00000000
00003020
00000000
00000000
00000000
,
00000130
00000001
00000000
00000010
00000100
00000000
00001000
00000100
00000000
00000100
00010000
00000000
00001000
00000000
01000000
00000000
,
00100000
10000000
00000000
00100000
01000000
00000000
00010000
00100000
00000000
00001000
00010000
00000000
00001000
00000000
00010000
00000000
,
00000100
00000010
00000000
00000001
00000100
00000000
00000010
00001000
00000000
00000100
00010000
00000000
00001000
00000000
00010000
00000000
,
00001000
00100000
00000000
01000000
10000000
00000000
00100000
01000000
00000000
00010000
00100000
00000000
00001000
00000000
00010000
00000000
,
00001000
00000000
01000000
00000000
00100000
10000000
00000000
01000000
00000000
00100000
00001000
00000000
00010000
00000000
00001000
00000000
,
00000000
00000000
00010000
00000000
00000100
00000010
00000000
00000001
00000000
00000100
00000010
00000000
00001000
00000000
00000100
00000000
,
00000000
00000000
00010000
00000000
00001000
01000000
00000000
00100000
00000000
10000000
01000000
00000000
00100000
00000000
00001000
00000000
,
00020000
00000000
00001000
02000000
00030000
10000000
03010000
00000000
,
10000000
00000000
00100000
00000000
01000000
00010000
00000000
00100000
00000000
00001000
00010000
00000000
00001000
00000000
00001000
00000000
,
00000000
00000000
00010000
00000000
00000010
00000100
00000000
00000001
00000000
00000010
00000100
00000000
00001000
00000000
00000100
00000000
,
00000000
00000000
00010000
00000000
00001000
01000000
00000000
00100000
00000000
10000000
01000000
00000000
00100000
00000000
00010000
00000000
,
00200000
00000000
00010000
02300000
00000000
10000000
03100000
00010000
,
00010000
10000000
00000000
00010000
01000000
00000000
00100000
01000000
00000000
00100000
10000000
00100000
10000000
00000000
01000000
00000000
,
00100000
00001000
00000000
00010000
00001000
00000000
00010000
00000100
00000000
00001000
00000010
00001000
00000010
00000000
00001000
00000000
,
00000001
00000010
00000000
00000001
00000100
00000000
00000010
00001000
00000000
00000100
00010000
00000100
00010000
00000000
00001000
00000000
,
00100000
00001000
00000000
00100000
00010000
00000000
00100000
01000000
00000000
00100000
00010000
00100000
00010000
00000000
10000000
00000000
,
00100000
10000000
00000000
00100000
01000000
00000000
00010000
00100000
00000000
00001000
00010000
00001000
01000000
00000000
00010000
00000000
,
00100000
00001000
00000000
00010000
00000100
00000000
00001000
00000001
00000000
00000010
00000001
00000010
00000100
00000000
00001000
00000000
,
00000001
00000100
00000000
00000010
00001000
00000000
00000100
00010000
00000000
00001000
00010000
00001000
01000000
00000000
00100000
00000000
,
10000000
01000000
00000000
00100000
01000000
00000000
10000000
00100000
01000000
00000000
00010000
00000000
00100000
00000000
01000000
20000000
,
00000000
30200000
00000000
00000000
00000000
00000000
00300000
01000000
,
01100000
00000000
00100000
20000000
00000000
00000000
00000000
00000000
31000000
00000000
00100000
00000000
00001000
00000000
00010000
00000100
,
00000000
00000220
00000000
00000000
00000330
00000000
00000000
00000001
,
00000101
00000000
00000000
00000000
00001000
00000000
00001100
00000000
00000000
00000000
00000100
00010000
00001000
00000000
00000000
00000000
,
00022000
00000000
00000000
00000000
00000000
00033000
00001000
01000000
,
00200000
00000000
00000000
20300000
00000000
30001000
00010000
00000000
,
00000100
00000000
01000000
00000000
00100000
00000000
20000000
00020000
,
00000000
00000000
30030000
00000000
,
10010000
00000000
10000000
00010000
,
00100000
00000000
00001000
00010000
00000000
00000000
00000010
00000000
00010000
00001000
00000000
00000000
00100000
00000000
00001000
00010000
,
00000000
00000000
00001000
00010000
00001000
00000000
00001000
00000000
00010000
00000000
00000010
00000100
00000000
00000001
00000000
00001000
,
00000000
00000000
00000001
00001000
,
00011000
00000000
00010000
10000000
00000000
00000000
00000000
00000000
,
01000000
00000000
00001000
00010000
00000000
00000000
00000100
00000000
00010000
00001000
00000000
00000000
01000000
00000000
00001000
00020000
,
00000000
00000000
00030000
00002000
00000000
00103000
10000000
00100000
,
00002000
00000000
00000000
00000000
00000000
00000000
00000000
00000000
00000000
00000000
00000000
00000000
00003000
00000000
00010000
00001000
,
00020000
00000000
00000000
00000000
02030000
00000000
00000000
00000000
23000000
00000000
30000000
00110000
00000000
00000000
00000000
00000000
,
10000000
00000000
00100000
01000000
00000000
00000000
00001000
00000000
00100000
01000000
00000000
00000000
10000000
00000000
00100000
01000000
,
00000000
00000000
00001000
00100000
00001000
00000000
00010000
00000000
00000100
00000000
00000010
00000001
00000000
00001000
00000000
00000010
,
00000000
00000000
00000100
00000010
,
00011000
00000000
00100000
01000000
00000000
00000000
00000000
00000000
,
10000000
00000000
00100000
01000000
00000000
00000000
00001000
00000000
00100000
01000000
00000000
00000000
10000000
00000000
00100000
01000000
,
00000000
00000000
00001000
00010000
00001000
00000000
00000000
00000000
00010000
00000000
00000010
00000000
00000001
00000000
00000010
00002000
,
00000000
00000000
00003000
00000000
,
00000001
00000100
00000000
00000010
00010000
00000000
00001000
00100000
00000000
00001000
00010000
00000000
00001000
00000000
01000000
00000000
,
00200000
00000000
10300000
00010000
,
10000000
00100000
00000000
10000000
01000000
00000000
00100000
00010000
00000000
00100000
00001000
00000000
00010000
00000000
00000100
00000000
,
00000010
00000001
00000000
00000010
00000100
00000000
00010000
00000010
00000000
00010000
00000100
00000000
00010000
00001000
00010000
00000000
,
00001000
01000000
00000000
00001000
00100000
00000000
00010000
01000000
00000000
00010000
10000000
00000000
00100000
00000000
01000000
00000000
,
00100000
10000000
00000000
00100000
01000000
00000000
00010000
00100000
02000000
00000000
00000000
00000000
23000000
00000000
00000000
00000000
,
30100000
01000000
00000000
00010000
01000000
00000000
00001000
00010000
00000000
00010000
00000100
00000000
00000010
00000000
00000001
00000000
,
00001000
00000010
00000000
00001000
00000100
00000000
00010000
00001000
00000000
00001000
01000000
00000000
00100000
01000000
00100000
00000000
,
20000000
00000000
00000000
00000000
32000000
00000000
00000000
03100000
00000000
00000000
00100000
00000000
00001000
00000000
00010000
00000000
,
00001000
00010000
00000000
00010000
00000100
00000010
00000000
00000010
00000001
00000100
00000000
00000100
00000010
00000000
00001000
00000000
,
00000001
00000010
00000001
00000000
00000000
00001000
00000000
00000000
00000000
00000100
00000000
00000000
00010000
00000000
00001000
00000000
,
00010000
00000000
00000000
00000000
00001000
00000000
00000000
01000000
00000000
00000000
01100000
00000000
00000000
00000000
00000000
00000000
,
00000000
00000000
00100000
00000000
00000000
00100000
00000000
00000000
00000000
00000000
10000000
00000000
00100000
00000000
01000000
00000000
,
00010000
00000000
00000000
00000000
00100000
00000000
00000000
00001000
00000000
00000000
00011000
00000000
00000000
00000000
00000000
00000000
,
00010000
00001000
00010000
00000000
00000000
00001000
00000000
00000000
00000000
00000000
00010000
00000000
00000100
00000000
00000010
00000000
,
00000011
00000000
00000000
00000000
00000101
00000000
00000000
00001100
00000000
00000000
00001100
00000000
00000000
00000000
00000000
00000000
,
00000000
00000000
00011000
00000000
00000000
00011000
00000000
00000000
00000000
00000000
00001000
00000000
00100000
00000000
01000000
00000000
,
10000000
00100000
00000000
00100000
01000000
00010000
00000000
00010000
00100000
00001000
00000000
00001000
00010000
00000000
00001000
00000000
,
00011000
00000000
00000000
00000000
00000000
00000000
00000000
00000000
00010000
00001000
00000000
00010000
00000100
00000000
00000010
00000000
,
00000022
00000000
00000000
00000000
,
00000000
00000000
00000000
00000000
,
00000000
00000000
00000000
00000000
,
00000000
00000000
00000000
00000000
,
00000033
00000000
00000000
00000000
;

//---------------dance-double - Copied from Copied f----------------
#NOTES:
     dance-double:
     Copied from Copied f:
     Medium:
     7:
     0.516,0.522,0.435,0.264,0.192:
00011000
00000000
00001000
00010000
,
00001000
00000000
00000000
00000000
01000000
00000000
00000000
00100000
00000000
00000000
10000000
00000000
01000000
00000000
00100000
00000000
,
00001000
00000000
00000000
00000000
00010000
00000000
00000000
00000100
00000000
00000000
00000010
00000000
00000001
00000000
00000100
00000000
,
00000010
00000000
00000000
00000000
00001000
00000000
00000000
00000100
00000000
00000000
00010000
00000000
00001000
00000000
00010000
00000000
,
01000000
10000000
00020000
00230000
,
00301000
00000000
00000000
00000000
00010000
00000000
00000000
00000100
00000000
00000000
00000100
00000000
00001000
00000000
00000001
00000000
,
00000010
00000000
00000000
00000000
00000001
00000000
00000000
00001000
00000000
00000000
00000100
00000000
00010000
00000000
00001000
00000000
,
01000000
00000000
00000000
00000000
00100000
00000000
00000000
10000000
00000000
00000000
01000000
00000000
00100000
00000000
00001000
00000000
,
00010000
00000000
00000000
00000000
00000100
00000000
00000000
00001000
00000000
00000000
00000001
00000000
00000010
00000000
00000100
00000000
,
00020000
00000100
00000000
00000100
00000000
00000100
00000000
00000100
,
00032000
01000000
00000000
01000000
00000000
01000000
00000000
01000000
,
00023000
00000010
00000000
00000010
00000000
00000010
00000000
00030010
,
00010000
00000000
00001000
00010000
00000000
00010000
00001000
00000000
,
00020000
00000100
00000000
00000100
00000000
00000100
00000000
00030100
,
00002000
00100000
00000000
00100000
00000000
00100000
00003000
00100000
,
00020000
00000010
00000000
00000010
00000000
00000010
00000000
00030010
,
00002000
00000000
00000001
00003020
00000000
00000031
00000010
00000100
,
00010000
00000000
00000000
00000000
00001000
00000000
00000000
00011000
00000000
00000000
00010000
00000000
00001000
00000000
01000000
00000000
,
01000000
00000000
00000000
00000000
00100000
00000000
00000000
10100000
00000000
00000000
10000000
00000000
01000000
00000000
00100000
00000000
,
00001000
00000000
00000000
00000000
00010000
00000000
00000000
00011000
00000000
00000000
00001000
00000000
00010000
00000000
00000100
00000000
,
00000010
00000000
00000000
00000000
00000001
00000000
00000000
00001001
00000000
00000000
00001000
00000000
00000001
00000000
00000010
00000000
,
00000100
00000000
00000000
00000000
00010100
00000000
00000000
00011000
00000000
00000000
00001000
00000000
00100000
00000000
01000000
00000000
,
10000000
00000000
00000000
00000000
10100000
00000000
00000000
10010000
00000000
00000000
00010000
00000000
00100000
00000000
00001000
00000000
,
00010000
00000000
00000000
00000000
00010100
00000000
00000000
00000101
00000000
00000000
00000001
00000000
00000010
00000000
00000100
00000000
,
00010000
00000000
00001000
00000000
00010000
00001000
00010000
00000000
,
00012000
01003000
00100000
10000000
,
00010000
00100000
00200000
00000000
00301000
00010000
00001000
00010000
,
00000100
00000000
00000010
00000000
00000001
00000000
00000100
00000010
,
00000100
00000000
00000010
00010000
00000000
00001000
00100000
00000000
,
02200000
00000000
00000000
00000000
03300000
00000000
01000000
10000000
,
00200000
00000000
00300000
02000000
00000000
00001000
03001000
00000000
,
01001000
00000000
00011000
00000000
00010010
00000000
00002000
00000002
,
00000000
00000000
00000000
00003003
,
00000110
00000000
00000001
00001000
,
00011000
00000000
00000000
01000000
00000000
00000000
00011000
00000000
00000000
00000010
00000000
00000000
00011000
00000000
00000000
01000000
,
00000000
00000000
00010000
00000000
10000000
00000000
10000000
00000000
00200000
00000000
00000000
10300000
00000000
01000000
00000000
00100000
,
00000000
00000000
00001000
00010000
,
00011000
00000000
00010000
00000020
00000000
00000000
00000030
00000000
,
00000110
00000000
00000000
00010000
00000000
00000000
00011000
00000000
00000000
00001000
00000000
00000000
01100000
00000000
00000000
01000000
,
00000000
00000000
00000000
00100000
00000000
10000000
01000000
00100000
,
00002000
00000000
00000000
00000000
00000000
00000000
00003000
00010000
,
00000100
00000000
00000000
00000000
00000010
00000000
00000000
00000000
00000001
00000000
00000000
00001001
00000000
00000000
00000000
00000000
,
00010100
00000000
00000000
00000100
00000000
00000000
00101000
00000000
00000000
00100000
00000000
00000000
00010100
00000000
00000000
00000100
,
00000000
00000000
00010000
00000000
00000100
00000000
00000100
00000000
00000020
00000000
00000000
00000031
00000000
00001000
00000000
00000010
,
00000000
00000000
00000001
00001000
,
00011000
00000000
00010000
10000000
00000000
00000000
00000000
00000000
,
11000000
00000000
00000000
01000000
00000000
00000000
00110000
00000000
00000000
00010000
00000000
00000000
00001010
00000000
00000000
00000010
,
00000000
00001000
00000002
00000000
00001003
00000001
00000010
00000100
,
00020000
00000000
00000100
00000000
01000000
00000000
00000100
00030000
,
00002000
00100000
00000010
00103000
,
00022000
00033000
00001000
10000000
,
10100000
00000000
00000000
00000000
00100000
00000000
00000000
10000000
00000000
00000000
01000000
00000000
00100000
00000000
00001000
00000000
,
00011000
00000000
00000000
00000000
00010000
00000000
00000000
00000100
00000000
00000000
00000010
00000000
00000001
00000000
00000100
00000000
,
00000110
00000000
00000000
00000000
00000010
00000000
00000000
00001000
00000000
00000000
00000100
00000000
00010000
00000000
00001000
00000000
,
01001000
01000000
00200000
20300000
,
30010000
00000000
00000000
00000000
00100000
00000000
00000000
00101000
00000000
00000000
00001000
00000000
00010000
00000000
00000100
00000000
,
00010100
00000000
00000000
00000000
00000100
00000000
00000000
00001100
00000000
00000000
00001000
00000000
00000001
00000000
00000010
00000000
,
00000011
00000000
00000000
00000000
00000001
00000000
00000000
00000101
00000000
00000000
00000100
00000000
00000010
00000000
00001000
00000000
,
00000100
00000100
00010000
00010000
00001000
00001000
01000000
01000000
,
00100000
10000000
01000000
00100000
,
00101000
00000000
00000000
00000000
00011000
00000000
00000000
00010010
00000000
00000000
00000010
00000000
00000000
00000000
00000000
00000000
,
00000000
00000000
00000010
00000000
00000000
00000010
00000000
00000000
00000000
00000000
00000100
00000000
00000001
00000000
00001000
00000000
,
00000100
00000000
00000000
00000000
00010000
00000000
00000000
00011000
00000000
00000000
00011000
00000000
00000000
00000000
00000000
00000000
,
00001000
00000000
00001000
00000000
00000000
00101000
00000000
00000000
00000000
00000000
00100000
00000000
00010000
00000000
10000000
00000000
,
00100000
00000000
00000000
00000000
10000000
00000000
00000000
10010000
00000000
00000000
10010000
00000000
00000000
00000000
00000000
00000000
,
00000000
00000000
10000000
00000000
00000000
10000000
00000000
00000000
00000000
00000000
00100000
00000000
01000000
00000000
00010000
00000000
,
00100000
00100000
00001000
00001000
00010000
00010000
00000100
00000100
,
00001100
00000000
00000000
00000000
00001000
00000001
00000010
00000200
,
00002000
00000000
00000000
00000000
,
00000000
00000000
00000000
00000000
,
00000000
00000000
00000000
00000000
,
00000000
00000000
00000000
00000000
,
00003300
00000000
00000000
00000000
;

//---------------dance-double - Copied from----------------
#NOTES:
     dance-double:
     Copied from:
     Easy:
     4:
     0.336,0.430,0.179,0.418,0.000:
00001001
00000000
00000010
00000100
,
00000001
00001000
00000001
00001000
,
00000100
00010000
00000100
00010000
,
00001000
00100000
00001000
00100000
,
00010000
10000000
00020000
20030000
,
30100000
01000000
00100000
01000000
,
00001000
00010000
00001000
00010000
,
00000100
00000010
00000100
00000010
,
00000001
00001000
00000002
00002003
,
00003020
00000000
00000000
00000000
,
00020030
00000000
00000000
00000000
,
00032000
00000000
00000000
00000000
,
02003000
00000000
00000000
03020000
00000000
00000000
10030000
00000000
,
00200000
00000000
00000000
00000000
,
02300000
00000000
00000000
00000000
,
03002000
00000000
00000000
00000000
,
00023000
00000000
00000000
00030020
00000000
00000000
00000130
00000000
,
00001001
00000001
00001000
00000100
,
00001000
00000010
00010000
00001000
,
00010000
00001000
01000000
00001000
,
00100000
00010000
10000000
00010000
,
00100000
01000000
10000000
00100000
,
10000000
01000000
00100000
00001000
,
00010000
00000100
00000010
00000001
,
00001000
00000001
00000020
00000032
,
00002003
00000000
00000000
00000000
,
00003200
00000000
00000300
00010000
,
00001000
00020000
00000000
00000000
,
00032000
00000000
00000000
02003000
00000000
00000000
03100000
00000000
,
20020000
00000000
00000000
00000000
00000000
30030000
10000000
00000000
,
00020000
00000000
00000000
00230000
00000000
00000000
00301000
00000000
,
00010000
00000010
00000100
00000001
,
00002000
00000000
00000000
00000000
,
00003100
00000000
00010000
00001000
,
00021000
00000000
00030200
00000000
,
02000300
03001000
00001000
00010000
,
00001000
00000000
00100000
01000000
,
20000000
00000000
00000000
30200000
00000000
00000000
00300000
00000000
,
01000000
00000000
00000000
00001000
00000000
00000000
00010000
00000000
,
00001000
00000000
00010000
00000100
,
00000020
00000000
00000000
00000000
,
00000031
00000100
00000010
00010000
,
00012000
00000000
00203000
00000000
,
00300020
00010030
00010000
00001000
,
00010000
00000000
00000100
00000010
,
00000002
00000000
00000000
00000203
00000000
00000000
00000300
00000000
,
00000020
00000000
00200030
00000000
,
00301000
00001000
00010000
00001000
,
02000000
00000000
00000000
00000000
,
03020000
00000000
00000000
00000000
,
10030000
00000000
10000000
00100000
,
10100000
10000000
01000000
00100000
,
00101000
00001000
00010000
00000100
,
00000110
00000010
00000001
00000100
,
00000110
00000010
00001010
00011000
,
00101000
00100000
00010000
10000000
,
10100000
00100000
10000000
01000000
,
01100000
00100000
00001000
00010000
,
00010100
00001100
00001001
00000011
,
00000001
00002000
00000000
00003100
,
00010000
00001000
00010000
00000000
,
00001000
00002000
00000000
01003000
,
00100000
10000000
01000000
00100000
,
00001000
00011000
00000000
00010000
,
00000010
00000100
00000101
00000000
,
00000001
00001010
00000000
00001000
,
00000200
02000300
03020000
20030000
,
30100000
00000000
01000000
00002000
,
00020000
00000000
00000000
00000000
,
00000000
00000000
00000000
00000000
,
00000000
00000000
00000000
00000000
,
00000000
00000000
00000000
00000000
,
00033000
00000000
00000000
00000000
;
