#TITLE:HOLD ON ME;
#SUBTITLE:;
#ARTIST:tiger yamato;
#TITLETRANSLIT:;
#SUBTITLETRANSLIT:;
#ARTISTTRANSLIT:;
#CREDIT:;
#BANNER:HOLD ON ME.png;
#BACKGROUND:HOLD ON ME-bg.png;
#LYRICSPATH:;
#CDTITLE:Extreme CD_Title.png;
#MUSIC:HOLD ON ME.ogg;
#OFFSET:-0.010;
#SAMPLESTART:60.120;
#SAMPLELENGTH:15.000;
#SELECTABLE:YES;
#BPMS:0.000=152.004;
#STOPS:;
#BGCHANGES:;

//---------------dance-single - Copied from----------------
#NOTES:
     dance-single:
     Copied from:
     Challenge:
     10:
     0.665,0.809,0.302,0.653,0.312:
0000
0000
0000
0000
,
0000
0000
0000
0000
,
0000
0000
0000
0000
,
0000
0000
0000
0000
,
0000
0000
0000
0000
,
0010
1000
0100
0100
0000
0000
0000
0000
0010
0001
0100
0100
0000
0000
0000
0000
,
0010
1000
0100
1000
0001
0000
0100
0001
0010
0001
1000
0000
0010
0100
0010
1000
,
0001
0000
0010
0000
1000
0200
0000
0001
,
0000
0000
0310
0000
2000
0000
0000
0000
3020
0000
0000
0000
0032
0000
0000
0003
,
1000
0000
0100
0000
0001
0020
0000
1030
,
0010
0000
0001
0000
0100
0000
1000
0000
0100
0001
0010
0100
0010
0001
1000
0010
,
0100
0000
0010
0000
1000
0000
1000
0000
0001
0100
0010
0100
0001
0000
1000
0000
,
0010
0100
0000
0010
1000
0000
0100
0000
0010
0001
0100
0001
0010
0000
0001
0000
,
1000
0100
0010
0100
1000
0000
0001
0010
0100
0010
0001
0000
1000
0001
1000
0000
,
1100
1010
0011
0202
0000
0303
0M0M
0000
,
0001
0100
0001
0000
0100
1000
0100
0000
,
1000
0010
2000
0000
3020
0000
0032
0000
,
1003
0010
1000
0000
0010
0001
0010
0000
,
0001
0100
0002
0000
0203
0000
2300
3000
,
0010
1000
0100
0000
0010
1000
0010
0000
,
0010
0001
0100
0000
0010
0001
0010
0000
,
0002
0203
2300
3020
,
0031
0000
0100
0000
0010
1000
0000
0010
,
0011
0001
0100
0000
0011
0001
0100
0000
,
2000
0000
3020
0000
0032
0100
2000
3003
,
1010
1000
0100
0000
1010
1000
0100
0000
,
0020
0000
0032
0000
0203
1000
0020
0330
,
1010
1000
0100
0000
0011
0001
0100
0000
,
0020
0000
0032
0000
0203
1000
0010
0301
,
2000
0000
0000
3000
M00M
0000
M00M
0000
,
0002
0000
0000
0000
0000
0000
0000
0000
0100
0000
0000
0000
1000
0000
0000
0003
,
0010
0001
0010
0001
0100
0010
0100
0010
1000
0100
0010
0001
0010
0100
1000
0010
,
2000
0000
0010
0000
0001
0000
0100
3000
,
0200
0000
1000
0000
0010
0000
0001
0300
,
0020
0000
0000
0000
0000
0000
0000
0000
0001
0000
0000
0000
0100
0000
0000
0030
,
0010
0001
0010
0001
0100
0010
0100
0010
1000
0100
0010
0001
0010
0100
1000
0001
,
0101
0M0M
0000
0000
0000
0000
0000
1000
,
1001
M00M
0000
0000
0000
0000
0000
0010
,
0110
0MM0
0000
0000
0000
0000
0000
0000
,
0010
1000
0100
1000
0010
0000
0100
0001
0000
0010
0001
0000
1000
0010
0100
0010
,
2000
0000
3010
1000
0100
0001
0010
0002
,
0000
0000
1003
0000
0020
0000
0000
0000
0031
0010
1000
0010
1000
0000
0001
1000
,
0200
0000
0310
0001
0100
1000
0100
0002
,
0000
0013
2000
0000
0010
0000
0001
3000
,
0021
0001
0100
1030
0010
0020
0000
0130
,
1200
1000
0010
0301
0100
0200
0000
0310
,
0021
0001
0100
1000
0130
0200
0000
0310
,
0000
0011
0000
1010
0000
1001
0000
0000
,
0002
0000
0103
0001
0010
1000
0100
2000
,
0000
0000
3001
0000
0200
0000
0000
0000
1300
0100
0001
0100
0001
0000
1000
0001
,
0020
0000
0130
1000
0010
0001
0010
2000
,
0000
3100
0002
0000
0100
0000
1000
0003
,
1200
1000
0010
0301
0100
0200
0000
0310
,
0021
0001
0100
1030
0010
0020
0000
0130
,
1200
1000
0010
0001
0310
0020
0000
0130
,
0000
1100
0000
0101
0000
1001
0000
0000
,
0001
0100
0010
0100
0001
0000
1000
0010
0000
0100
0010
0000
0100
0001
0010
0001
,
1000
0000
0000
0000
,
0001
0000
0010
0000
1000
0200
0000
0001
,
0000
0000
0010
0300
2000
0000
0000
0000
3020
0000
0000
0000
0032
0000
0000
0000
,
1013
0000
1000
0000
0200
0302
0000
1003
,
1010
0000
0011
0000
0101
0000
2200
0000
3300
0000
1000
0001
0100
1000
1000
0100
;
