#TITLE:Gerudo Valley;
#SUBTITLE:(Megaman X Remix);
#ARTIST:Koji Kondo feat. MyNewSoundtrack;
#TITLETRANSLIT:;
#SUBTITLETRANSLIT:;
#ARTISTTRANSLIT:;
#CREDIT:;
#BANNER:Gerudo Valley (Megaman X Remix)_bn.png;
#BACKGROUND:Gerudo Valley (Megaman X Remix)_bg.png;
#LYRICSPATH:;
#CDTITLE:;
#MUSIC:Gerudo Valley (Megaman X Remix).mp3;
#OFFSET:-0.095;
#SAMPLESTART:28.680;
#SAMPLELENGTH:14.000;
#SELECTABLE:YES;
#DISPLAYBPM:140.000:290.000;
#BPMS:0.000=140.000,36.000=290.001,164.000=145.000,180.000=290.001,371.500=310.001,372.000=290.001,500.000=145.000,516.000=290.001;
#STOPS:;
#BGCHANGES:;

//---------------dance-single - ----------------
#NOTES:
     dance-single:
     :
     Challenge:
     15:
     1.000,1.000,0.542,0.397,0.771: // measure 1
2000
0000
0000
0000
,  // measure 2
3002
0000
0000
0000
,  // measure 3
0203
0000
0000
0000
,  // measure 4
0320
0000
0000
0000
,  // measure 5
1030
0010
0100
0001
0010
0100
0010
0001
1000
0010
0100
0001
0010
0100
1000
1000
,  // measure 6
1000
0100
0010
0001
1000
0010
0100
0001
0010
0100
0010
0001
1000
0010
0100
0100
,  // measure 7
0100
0010
1000
0001
0010
0100
0010
0001
1000
0010
0100
0010
1000
0001
0010
0010
,  // measure 8
0010
0001
0100
0010
1000
0100
0010
0100
1000
0010
0100
0001
0010
0100
0010
0010
,  // measure 9
0010
0000
0000
0000
0000
0000
00M0
0000
0000
0000
0000
0000
0000
0000
0000
0000
0000
0000
0000
0000
0000
0000
0000
0000
0001
0000
0100
0000
0001
0000
1000
0000
0000
1000
0000
0000
0010
0000
0000
0010
0000
0000
0100
0000
0000
0000
0000
0000
,  // measure 10
0001
0100
0001
1000
0001
0100
0001
1000
,  // measure 11
0001
0100
0001
1000
0001
0100
0001
1000
,  // measure 12
0010
0100
0010
1000
0010
0100
0010
1000
,  // measure 13
0010
0100
0010
1000
0010
0100
0010
1000
,  // measure 14
0001
0010
0001
1000
0001
0010
0001
1000
,  // measure 15
0001
0010
0001
1000
0001
0010
0001
1000
,  // measure 16
0100
0010
0100
0001
0100
0010
0100
1000
,  // measure 17
0001
0000
1000
0000
0001
0000
1000
0000
0000
0010
0000
0000
0100
0000
0000
0100
0000
0000
0001
0000
0000
0000
0000
0000
,  // measure 18
0002
1000
0010
0010
1000
1000
0010
0010
,  // measure 19
1000
1000
0010
0010
1000
1000
0010
0013
,  // measure 20
2000
0001
0100
0100
0001
0001
0100
0100
,  // measure 21
0001
0001
0100
0100
0001
0001
0100
3100
,  // measure 22
0020
1000
0100
0100
1000
1000
0100
0100
,  // measure 23
1000
1000
0100
0100
1000
1000
0100
0130
,  // measure 24
0001
0010
0100
1000
0001
0010
0100
1000
,  // measure 25
0001
0010
0001
0000
1000
0000
0010
0000
0100
0000
0100
0000
0010
0000
0010
0000
,  // measure 26
1010
1000
0100
0010
0002
MMM0
0003
0011
,  // measure 27
0010
0100
2000
0000
0MMM
0000
3000
M000
,  // measure 28
0011
0001
0010
0100
2000
0MMM
3000
1100
,  // measure 29
0100
0010
0002
0000
MMM0
0000
0003
000M
,  // measure 30
1010
1000
0100
0010
0002
MMM0
0003
0011
,  // measure 31
0010
0100
2000
0000
0MMM
0000
3000
M000
,  // measure 32
1010
1000
0001
0010
0200
0000
M0MM
0000
,  // measure 33
1300
0010
1000
0001
0010
0001
1000
0010
1000
0001
0000
0000
,  // measure 34
0110
0010
1000
0100
0020
MM0M
0030
0011
,  // measure 35
0001
0100
0020
0000
MM0M
0000
0030
00M0
,  // measure 36
0110
0100
0001
0010
0200
M0MM
0300
1100
,  // measure 37
1000
0010
0200
0000
M0MM
0000
0300
0M00
,  // measure 38
0110
0010
1000
0100
0020
MM0M
0030
0011
,  // measure 39
0001
0100
0020
0000
MM0M
0000
0030
00M0
,  // measure 40
1010
0000
0000
1000
0000
0000
0100
0000
0000
0010
0000
0000
0001
0000
0010
0000
0001
0000
1000
0000
0010
0000
1000
0000
,  // measure 41
0010
0100
0010
0100
0001
0010
0100
1000
0100
0010
0001
1000
,  // measure 42
0001
0010
0100
1000
1000
0100
0010
0001
0001
0010
0100
1000
1000
0100
0010
0010
,  // measure 43
0010
0000
0000
0001
0000
0000
0100
0000
0000
0010
0000
0000
1000
0000
0000
0100
0000
0000
0010
0000
0000
0001
0000
0000
0010
0000
0001
0000
0100
0000
0001
0000
1000
0000
0010
0000
1000
0000
0100
0000
0010
0000
0001
0000
0000
0001
0000
0000
,  // measure 44
0001
0100
0010
0001
0010
0100
0001
1000
0100
0001
0100
1000
0010
0100
0001
0001
,  // measure 45
0001
0000
0000
0000
0000
0000
0000
0000
0010
0000
0000
0000
0000
0000
0000
0000
0001
0000
0000
0000
0000
0000
0000
0000
0010
0000
0000
0000
0000
0000
0000
0000
0000
0000
0000
0000
0001
0000
0000
0000
0000
0000
0000
0000
0000
0000
0000
0000
1000
0000
0000
0000
0000
0000
0000
0000
0000
0000
0000
0000
0010
0000
0000
0000
0000
0000
0000
0000
0000
0000
0000
0000
1000
0000
0000
0000
0000
0000
0000
0000
0000
0000
0000
0000
0100
0000
0000
0000
0000
0000
0000
0000
0000
0000
0000
0000
0010
0000
0000
0000
0000
0000
0001
0000
0000
0000
0000
0000
0010
0000
0000
0000
0000
0000
0000
0000
0000
0000
0000
0000
0001
0000
0000
0000
0000
0000
0000
0000
1000
0000
0000
0000
0000
0000
0000
0000
0010
0000
0000
0000
0000
0000
0000
0000
1000
0000
0000
0000
0000
0000
0000
0000
0000
0000
0000
0000
0010
0000
0000
0000
0000
0000
0000
0000
0000
0000
0000
0000
0010
0000
0000
0000
0000
0000
0000
0000
0000
0000
0000
0000
0100
0000
0000
0000
0000
0000
0000
0000
0000
0000
0000
0000
,  // measure 46
0100
0010
1000
0001
0010
0100
0010
0001
,  // measure 47
1000
0010
0100
0010
1000
0100
0010
0010
,  // measure 48
0010
0001
0100
0010
1000
0001
1000
0100
,  // measure 49
0010
0001
1000
0010
0100
0001
0021
MM31
,  // measure 50
0021
MM01
0001
0001
0031
0010
1002
1MM3
,  // measure 51
1002
1MM0
1000
1000
1003
0001
2010
3M1M
,  // measure 52
2010
0M1M
0010
0010
3010
1000
0010
0100
,  // measure 53
0001
0010
0001
0000
1000
0000
0010
0000
0100
0000
0100
0000
0010
0000
0010
0000
,  // measure 54
00M0
0000
1010
M0M0
0000
0101
0M0M
0000
,  // measure 55
1010
M0M0
0000
0101
0M0M
0000
1010
M0M0
,  // measure 56
1001
M00M
0000
0000
0001
001M
01M0
1M00
,  // measure 57
M000
0000
MMMM
MMMM
,  // measure 58
0000
0000
0101
0M0M
0000
1100
MM00
0000
,  // measure 59
0101
0000
0M0M
0000
0000
0000
0000
1000
0100
1000
0000
0000
0011
0000
00MM
0000
,  // measure 60
1001
M00M
0000
0000
1000
M100
0M10
00M1
,  // measure 61
100M
0010
1000
0000
0001
0000
0010
0000
0100
0000
0100
0000
0010
0000
0010
0000
,  // measure 62
0011
0000
1010
1000
0100
0010
0000
0011
,  // measure 63
0001
0100
0010
0020
0000
MM0M
0030
00M0
,  // measure 64
0101
0000
0011
0010
0100
2000
0MMM
3000
,  // measure 65
1010
0000
1000
0000
0100
0000
0010
0001
0010
0001
MMM0
0000
0001
0000
00M0
0000
,  // measure 66
2000
0000
0010
0000
0001
0000
0100
3000
,  // measure 67
0002
0000
0010
0000
1000
0000
0100
0003
,  // measure 68
0001
0010
0100
1000
0001
0010
0100
1000
,  // measure 69
0001
0100
0001
0000
1000
0000
0010
0000
0100
0000
0100
0000
0010
0000
0010
0000
,  // measure 70
1010
1000
0200
0000
0010
0000
0001
0000
,  // measure 71
0310
0000
0001
1000
0010
1000
0001
0010
,  // measure 72
0100
0010
0002
0000
1000
0000
0010
0000
,  // measure 73
0100
0000
0010
0000
1000
0000
0100
0003
,  // measure 74
0011
0001
0200
0000
0010
0000
1000
0000
,  // measure 75
0310
0000
0001
0010
0100
0010
0001
1000
,  // measure 76
0010
0100
0020
0000
0001
0000
0100
0000
,  // measure 77
1030
0010
1000
0000
0001
0000
0010
0000
0100
0000
0100
0000
0010
0000
0010
0000
,  // measure 78
0011
0001
2010
0000
0010
0000
0001
0000
,  // measure 79
3010
0000
0011
0001
0100
0010
1000
0100
,  // measure 80
0011
1000
1020
0000
0100
0000
1000
0000
,  // measure 81
0100
0001
0100
1030
,  // measure 82
1010
1000
0021
0000
0001
0000
0100
0000
,  // measure 83
0031
0000
0011
0001
1000
0100
0010
0001
,  // measure 84
1010
1000
1200
0000
0010
0000
1000
0000
,  // measure 85
0310
0001
0010
0000
0001
0000
1000
0000
0010
0000
0010
0000
0100
0000
0100
0000
,  // measure 86
0110
0000
0010
01M1
0M0M
0000
0011
0000
,  // measure 87
1010
0000
0100
1M10
M0M0
0000
1100
0000
,  // measure 88
0101
0000
0010
01M1
0M0M
0000
0011
0000
,  // measure 89
0101
0000
0100
1M10
M0M0
0000
1100
0000
,  // measure 90
1010
0000
0001
101M
M0M0
0000
1010
0000
,  // measure 91
1100
0000
1000
M011
00MM
0000
0101
0000
,  // measure 92
0001
0010
0100
1000
0001
0010
0100
1000
,  // measure 93
0001
0010
0001
0000
1000
0000
0010
0000
0100
0000
0100
0000
0010
0000
0010
0000
,  // measure 94
2000
0000
0000
0000
,  // measure 95
0000
0000
0000
0000
,  // measure 96
3001
0010
0100
0100
1000
0010
0100
0100
,  // measure 97
0001
0100
0001
0001
1000
0010
1000
1000
,  // measure 98
0002
0000
0000
0010
,  // measure 99
0013
0001
0100
0010
,  // measure 100
1000
0100
0010
0002
0000
0000
0000
0003
,  // measure 101
1000
0010
1000
0000
0001
0000
0010
0000
0100
0000
0100
0000
0010
0000
0010
0000
,  // measure 102
0001
0010
0001
0000
0010
0001
0010
0000
0001
1000
0001
0000
1000
0001
1000
0000
,  // measure 103
0010
1000
0010
0000
1000
0010
1000
0000
0001
1000
0001
0000
1000
0001
1000
0000
,  // measure 104
0001
0010
0001
0000
1000
0010
1000
0000
0001
0100
0001
0000
1000
0100
1000
0000
,  // measure 105
0010
0100
0010
0000
0100
0001
0100
0000
0001
0010
0001
0000
1000
0001
1000
0000
,  // measure 106
0001
0010
0001
0010
0001
0010
0001
0010
0001
0000
0000
0000
1000
0000
0000
0000
,  // measure 107
0010
0100
0001
0010
,  // measure 108
0200
0000
0000
0000
,  // measure 109
1300
0001
1000
0000
0001
0000
0010
0000
0100
0000
0100
0000
1000
0000
1000
0000
,  // measure 110
0020
0000
0000
0000
,  // measure 111
0000
0000
0000
0000
,  // measure 112
1030
0001
0100
0100
0100
1000
0100
0001
,  // measure 113
0010
0100
0001
0001
0001
0100
1000
0001
,  // measure 114
2000
0000
0000
0000
0000
0000
0001
3000
,  // measure 115
1000
0010
0100
0001
,  // measure 116
1000
0010
1000
0010
1000
0000
0000
0000
0001
0000
0010
0000
0001
0000
0100
0000
,  // measure 117
0001
0000
1000
0000
0001
0000
1000
0000
0000
0100
0000
0000
1000
0000
0000
0010
0000
0000
1000
0000
0000
0001
0000
0000
,  // measure 118
1000
0010
1000
0000
0010
1000
0010
0000
1000
0001
1000
0000
0001
1000
0001
0000
,  // measure 119
0010
0001
0010
0000
0001
0010
0001
0000
1000
0010
1000
0000
0010
1000
0010
0000
,  // measure 120
1000
0001
1000
0000
0001
0010
0001
0000
1000
0001
1000
0000
0010
1000
0010
0000
,  // measure 121
0001
0100
0001
0000
1000
0001
1000
0000
0100
1000
0100
0000
1000
0001
1000
0000
,  // measure 122
0001
0010
0001
0000
0100
0010
0100
0000
0010
1000
0010
0000
1000
0100
1000
0000
,  // measure 123
0001
0010
0001
0000
1000
0010
1000
0000
0001
0100
0001
0000
1000
0100
1000
0000
,  // measure 124
0002
0000
0000
0000
,  // measure 125
1003
0001
1000
0100
0010
0001
1000
0001
0010
0100
1000
0001
,  // measure 126
1000
0100
0010
0001
0001
0010
0100
1000
1000
0100
0010
0001
0001
0010
0100
0100
,  // measure 127
0100
0000
0000
1000
0000
0000
0010
0000
0000
0100
0000
0000
0001
0000
0000
0010
0000
0000
0100
0000
0000
1000
0000
0000
0100
0000
1000
0000
0010
0000
1000
0000
0001
0000
0100
0000
0001
0000
0010
0000
0100
0000
1000
0000
0000
1000
0000
0000
,  // measure 128
1000
0010
0100
1000
0100
0010
1000
0001
0010
1000
0010
0001
0100
0010
1000
1000
,  // measure 129
1000
0000
0000
0000
0000
0000
0000
0000
0100
0000
0000
0000
0000
0000
0000
0000
1000
0000
0000
0000
0000
0000
0000
0000
0100
0000
0000
0000
0000
0000
0000
0000
0000
0000
0000
0000
1000
0000
0000
0000
0000
0000
0000
0000
0000
0000
0000
0000
0001
0000
0000
0000
0000
0000
0000
0000
0000
0000
0000
0000
0100
0000
0000
0000
0000
0000
0000
0000
0000
0000
0000
0000
0001
0000
0000
0000
0000
0000
0000
0000
0000
0000
0000
0000
0010
0000
0000
0000
0000
0000
0000
0000
0000
0000
0000
0000
0100
0000
0000
0000
0000
0000
1000
0000
0000
0000
0000
0000
0100
0000
0000
0000
0000
0000
0000
0000
0000
0000
0000
0000
1000
0000
0000
0000
0000
0000
0000
0000
0001
0000
0000
0000
0000
0000
0000
0000
0100
0000
0000
0000
0000
0000
0000
0000
0001
0000
0000
0000
0000
0000
0000
0000
0000
0000
0000
0000
0100
0000
0000
0000
0000
0000
0000
0000
0000
0000
0000
0000
0100
0000
0000
0000
0000
0000
0000
0000
0000
0000
0000
0000
0010
0000
0000
0000
0000
0000
0000
0000
0000
0000
0000
0000
,  // measure 130
0010
1000
0000
1010
0000
0011
0000
1010
,  // measure 131
0000
1000
0100
0001
0010
0001
0100
1000
,  // measure 132
0020
0100
0001
0001
,  // measure 133
0100
0100
1000
1000
,  // measure 134
0230
0000
1000
0000
0010
0000
0001
0300
,  // measure 135
0002
1000
0203
0010
,  // measure 136
2300
0000
0001
0000
0001
0000
0100
3000
,  // measure 137
0001
1000
0001
0000
1000
0000
0010
0000
0100
0000
0100
0000
0010
0000
0010
0000
,  // measure 138
2002
0000
0000
0000
,  // measure 139
0000
0000
0000
0000
,  // measure 140
0000
0000
0000
0000
,  // measure 141
3003
0000
0000
0000
;
