#TITLE:Gensokyo Millenium;
#SUBTITLE:;
#ARTIST:SYNC.ART'S;
#TITLETRANSLIT:;
#SUBTITLETRANSLIT:;
#ARTISTTRANSLIT:;
#CREDIT:;
#BANNER:Gensokyo Millenium-bn.png;
#BACKGROUND:Gensokyo Millenium.png;
#LYRICSPATH:;
#CDTITLE:CD_Title.png;
#MUSIC:Gensokyo Millenium.mp3;
#OFFSET:-0.400;
#SAMPLESTART:53.300;
#SAMPLELENGTH:13.260;
#SELECTABLE:YES;
#BPMS:0.000=145.000;
#STOPS:;
#BGCHANGES:;

//---------------dance-single - ----------------
#NOTES:
     dance-single:
     :
     Hard:
     8:
     0.550,0.597,0.196,0.294,0.230:
0000
0000
0000
0000
,
0000
0000
0000
0000
,
0000
0000
0000
0000
,
0000
0000
0000
0000
,
1000
0100
0010
0001
0100
0000
0101
0000
,
0001
0010
0100
1000
0000
0010
1010
0000
,
1000
0100
0010
0001
0100
0000
0101
0000
,
0001
0010
0100
1000
0010
0100
0001
1000
,
0200
0000
0000
0000
0310
0000
0001
0000
0100
0000
0010
0100
0010
0000
0001
0000
,
0020
0000
0100
0000
1000
0000
0130
0010
,
0002
0000
0000
0000
0103
0000
0010
0000
1000
0000
0000
0100
0000
0000
0010
0000
,
0220
0000
0000
0000
0000
0300
0130
0001
,
0010
0000
0100
1000
0010
0000
0100
0001
,
0010
0000
0000
0100
1000
0000
0000
1000
0010
0000
0000
0010
0100
0000
0001
0000
,
1001
0000
0000
0000
0001
0000
0100
0000
0010
0000
0000
1000
0000
0000
0100
0000
,
2200
0000
0000
0000
0000
3000
1300
0010
,
0200
0000
0000
0000
0301
0000
0010
0000
0100
0000
1000
0010
0100
0000
0001
0000
,
0020
0000
0100
0000
0001
0000
0130
1000
,
0010
0000
0000
0000
0100
0000
0001
0000
0010
0000
0000
0100
0000
0000
1000
0000
,
0020
0000
0100
0000
0001
0000
0130
0001
,
0010
0000
0100
1000
0010
0000
0100
0001
,
0010
0000
0000
0010
0100
0000
0000
0100
1000
0000
0000
1000
0010
0000
0100
0000
,
0101
0000
0000
0000
0001
0000
1000
0000
0010
0000
0000
0100
0000
0000
0001
0000
,
0022
0000
0000
0000
0000
0000
0000
0033
,
1000
0100
0001
0100
1000
0100
0001
0100
,
1000
0010
0001
0010
1000
0100
1001
0000
,
0001
0100
1000
0100
0001
0100
1000
0100
,
0001
0010
1000
0010
0001
0100
1001
0000
,
1000
0100
0001
0100
1000
0010
0001
0010
,
1000
0100
0001
0100
0010
0001
0100
0001
,
0011
0000
0000
0001
0000
0000
0100
0000
0110
0000
0000
0010
0000
0000
1000
0000
,
2200
0000
0000
0000
0000
0000
3300
0000
1000
0000
0000
0001
0010
0000
0100
0000
,
1000
0000
0000
0001
0100
0000
0000
0100
1000
0000
0100
0000
0001
0000
0010
0000
,
0100
0000
0010
0001
0000
0000
0100
0000
0110
0000
0000
0000
0000
0000
0000
0000
,
0002
0000
0013
0100
0000
0100
1000
0010
,
0000
0000
0010
0000
0100
0000
0001
0000
0010
0000
0000
0100
1000
0000
0010
0000
,
0100
0000
0000
0001
0010
0000
0000
0010
1000
0000
0010
0000
0100
0000
1000
0000
,
0010
0000
0100
0001
0000
0000
0010
0000
0110
0000
0000
0000
0010
0000
0001
0000
,
0200
0000
0000
0000
,
0320
0000
0000
0000
0000
0000
0000
0000
1030
0000
0000
0001
0010
0000
0100
0000
,
0010
0000
0000
0001
0100
0000
0000
0100
1000
0000
0100
0000
0001
0000
0010
0000
,
0100
0000
1000
0010
0000
0000
0100
0000
0002
0000
0000
0000
1003
0000
0000
0000
,
0200
0000
0310
0001
0000
0001
0100
0010
,
0000
0000
0010
0000
1000
0000
0100
0000
0010
0000
0000
0010
0001
0000
0100
0000
,
0001
0000
0000
1000
0010
0000
0000
0010
0001
0000
0010
0000
1000
0000
0100
0000
,
0010
0000
0001
0100
0000
0000
0010
0000
2000
0000
0000
0000
3001
0000
0010
0000
,
0011
0000
0000
0001
1000
0000
0100
0000
1100
0000
0000
1000
0001
0000
0010
0000
,
0011
0000
0000
0100
0010
0000
0000
0010
1000
0000
0100
0000
0110
0000
0000
0000
,
0001
0010
0001
0000
0100
0000
0010
0000
1000
0000
1000
0000
0200
0000
0000
0000
,
1300
0100
1000
0000
0010
0000
0200
0000
0000
0000
0301
0000
0020
0000
0000
0000
,
0031
0100
0001
0000
0010
0000
0100
0000
1000
0000
0010
0000
0200
0000
0000
0000
,
0310
1000
0100
0000
0010
0000
0002
0000
0000
0000
1003
0000
0200
0000
0000
0000
,
1300
0010
0100
0000
0001
0000
0010
0000
0100
0000
1000
0000
0020
0000
0000
0000
,
0130
0001
0010
0000
0100
0000
1000
0000
0010
0000
0100
0000
0002
0000
0000
0000
,
1003
0010
0100
0000
0001
0000
0010
0000
0100
0000
1000
0000
0010
0000
0100
0000
,
0001
0010
0000
0100
0000
1000
0010
0000
0100
0001
0000
0010
0000
0100
0010
0000
,
0022
0000
0000
0000
,
0000
0000
0000
0000
,
0033
0000
0000
0000
;

//---------------dance-single - Copied from----------------
#NOTES:
     dance-single:
     Copied from:
     Medium:
     6:
     0.395,0.426,0.137,0.235,0.000:
0000
0000
0000
0000
,
0000
0000
0000
0000
,
0000
0000
0000
0000
,
0000
0000
0000
0000
,
0001
0000
0100
0000
0010
1000
0100
0000
,
1000
0020
0000
0130
0000
0001
0010
0000
,
0100
0000
1000
0000
0010
0100
0001
0000
,
0100
0020
0000
1030
0000
0001
0010
0001
,
0200
0000
0310
0000
1000
0001
1000
0000
,
0020
0000
0100
0000
0100
0000
0130
0001
,
0020
0000
0130
0000
1000
0001
1000
0000
,
0200
0000
0010
0000
0010
0000
0310
0001
,
2000
3100
0002
0103
,
0101
0000
1001
0000
1010
0000
1000
0010
,
0100
0000
0001
0010
0100
0000
1000
0000
,
0020
0000
0000
0130
,
0002
0000
1003
0000
0100
0010
0100
0000
,
2000
0000
0001
0000
0001
0000
3001
0010
,
0200
0000
0310
0000
0001
1000
0001
0000
,
0200
0000
0010
0000
0010
0000
0310
1000
,
0002
0103
2000
3100
,
1100
0000
1001
0000
0101
0000
0001
1000
,
0100
0000
1000
0100
0010
0000
0001
0000
,
0200
0000
0000
0000
,
0310
0100
0010
0000
0010
0100
0010
0000
,
1000
0000
0001
0000
0100
0010
0010
0000
,
1000
0001
1000
0000
1000
0001
1000
0000
,
0010
0000
0100
0000
0001
0010
0010
0000
,
0001
1000
0001
0000
0001
1000
0001
0000
,
0100
0000
0010
0000
1000
0000
0001
0010
,
0001
1000
0200
0320
,
0032
0000
0000
0000
0000
0000
0000
0003
,
1000
0000
0010
0000
0100
0001
0010
0100
,
1000
0010
0110
0000
,
1000
0000
0001
0010
0000
0100
1000
0100
,
0000
0100
0010
0001
0100
0000
0000
0000
,
0001
0000
0100
0000
0010
1000
0100
0010
,
0001
0000
0100
0000
0110
0000
0010
1000
,
0002
0000
0000
0000
,
2003
0000
3001
1001
,
0100
0000
0010
0000
1000
0001
0010
0100
,
1000
0010
0110
0000
,
0001
0000
1000
0010
0000
0100
0001
0100
,
0000
0100
0001
0010
0100
0000
0000
0000
,
1000
0000
0010
0000
0100
0001
0010
0100
,
1000
0000
0010
0000
0110
0000
1000
0001
,
0200
0310
2000
3001
,
0101
1010
1001
0000
,
1000
0010
0100
0000
0100
0000
0001
0000
,
0010
0100
0000
1000
0000
0010
0100
0000
,
0001
0010
0100
0000
0100
0000
1000
0000
,
0010
0100
0000
0001
0000
0010
0100
0000
,
0010
0001
0100
0000
0100
0000
0010
0000
,
1000
0010
0000
0100
0000
0001
0010
0000
,
0100
1000
0010
0000
0010
0000
0100
0000
,
0001
0010
0100
0000
1000
0010
0100
0001
,
0020
0000
0000
0000
,
0000
0000
0000
0000
,
0030
0000
0000
0000
;

//---------------dance-single - Copied from Copied f----------------
#NOTES:
     dance-single:
     Copied from Copied f:
     Easy:
     3:
     0.266,0.312,0.049,0.402,0.000: // measure 1
0000
0000
0000
0000
,  // measure 2
0000
0000
0000
0000
,  // measure 3
0000
0000
0000
0000
,  // measure 4
0000
0000
0000
0000
,  // measure 5
1000
0020
0000
0130
,  // measure 6
0001
2000
0000
3100
,  // measure 7
1000
0020
0000
0130
,  // measure 8
0001
1000
1001
0000
,  // measure 9
2000
0000
3010
0100
,  // measure 10
0002
0000
0000
1003
,  // measure 11
0010
0000
0100
0000
,  // measure 12
0002
0000
0000
1003
,  // measure 13
0200
0000
2300
0000
,  // measure 14
3010
0010
0100
0001
,  // measure 15
2000
0000
3200
0000
,  // measure 16
0320
0000
0030
0100
,  // measure 17
0020
0000
1000
1030
,  // measure 18
0200
0000
0000
0310
,  // measure 19
0002
0000
0010
0013
,  // measure 20
0200
0000
0000
0310
,  // measure 21
1000
0000
0001
0000
,  // measure 22
1000
1000
0001
0100
,  // measure 23
0020
0000
0230
0000
,  // measure 24
0302
0000
0000
0003
,  // measure 25
1000
0100
0010
0001
,  // measure 26
1000
0000
0010
0000
0200
0000
0000
0300
,  // measure 27
0001
0100
0010
1000
,  // measure 28
0200
0000
0000
0300
2000
0000
0000
3000
,  // measure 29
0001
0010
0100
1000
,  // measure 30
0001
0100
0020
1030
,  // measure 31
1001
0000
0110
0000
,  // measure 32
1001
0000
0000
0000
,  // measure 33
1000
0100
0010
0001
,  // measure 34
0200
0000
0310
0000
,  // measure 35
0100
0010
1000
0002
,  // measure 36
0000
0010
0013
0000
,  // measure 37
0001
0010
0100
1000
,  // measure 38
0020
0100
0130
0010
,  // measure 39
0200
0000
0000
0000
,  // measure 40
0000
0300
0000
0000
,  // measure 41
1000
0100
0010
0001
,  // measure 42
2000
0001
3001
0000
,  // measure 43
0010
0100
0001
1000
,  // measure 44
0020
0100
0130
0000
,  // measure 45
0010
0001
0100
0010
,  // measure 46
2000
0100
3100
1000
,  // measure 47
0001
0000
1000
0000
,  // measure 48
0010
0100
0110
0000
,  // measure 49
2000
0000
3002
0000
,  // measure 50
0203
0010
0000
0310
,  // measure 51
2000
0000
3020
0000
,  // measure 52
0230
0001
0000
0301
,  // measure 53
0020
0000
0230
0000
,  // measure 54
2300
0010
0000
3010
,  // measure 55
2000
0000
3002
0000
,  // measure 56
0103
0010
1000
0001
,  // measure 57
0020
0000
0000
0000
,  // measure 58
0000
0000
0000
0000
,  // measure 59
0030
0000
0000
0000
;

//---------------dance-single - Copied from Copied f----------------
#NOTES:
     dance-single:
     Copied from Copied f:
     Beginner:
     2:
     0.203,0.284,0.010,0.411,0.000:
0000
0000
0000
0000
,
0000
0000
0000
0000
,
0000
0000
0000
0000
,
0000
0000
0000
0000
,
1000
0000
0000
0000
,
0001
0000
0000
0000
,
0100
0000
0000
0000
,
0010
0000
0000
0000
,
2000
0000
0001
0000
,
3001
0000
0000
0000
,
0002
0000
1000
0000
,
1003
0000
0000
0000
,
0200
0000
0010
0000
,
0010
0010
0310
0000
,
2000
0000
3002
0000
,
1003
0000
0000
0000
,
0002
0000
1000
0000
,
0013
0000
0000
0000
,
2000
0000
0001
0000
,
3100
0000
0000
0000
,
0020
0000
0100
0000
,
0100
0100
0130
0000
,
2000
0000
3002
0000
,
1003
0000
0000
0000
,
1000
0000
1000
0000
,
0001
0001
0001
0000
,
0100
0000
0100
0000
,
0010
0000
0010
0000
,
1000
0000
1000
0000
,
0010
0010
0010
0010
,
0010
0000
0100
0000
,
0110
0000
0000
0000
,
2000
0000
3200
0000
,
0320
0001
0031
0000
,
0002
0000
0203
0000
,
0320
1000
1030
0000
,
2000
0000
3002
0000
,
0023
0100
0130
0000
,
0020
0000
0000
0000
,
0030
0000
0000
0000
,
0200
0000
0320
0000
,
2030
0001
3001
0000
,
0002
0000
0023
0000
,
0230
1000
1300
0000
,
2000
0000
3020
0000
,
0230
0001
0001
0301
,
0002
0000
2003
0000
,
3001
1000
0001
0000
,
0200
0000
0000
0000
,
0320
0000
0000
0000
,
2030
0000
0000
0000
,
3002
0000
0000
0000
,
2003
0000
0000
0000
0200
0000
0000
3000
,
0020
0000
0000
0300
0002
0000
0000
0030
,
0200
0000
0000
0003
0020
0000
0000
0300
,
1030
1000
0001
0001
,
0020
0000
0000
0000
,
0000
0000
0000
0000
,
0030
0000
0000
0000
;
