#TITLE:Find You Again;
#SUBTITLE:;
#ARTIST:The W feat. Rita Boudreau;
#TITLETRANSLIT:;
#SUBTITLETRANSLIT:;
#ARTISTTRANSLIT:;
#CREDIT:;
#BANNER:Find You Again.png;
#BACKGROUND:Find You Again-bg.png;
#LYRICSPATH:;
#CDTITLE:./CDTITLES/DanceDanceRevolution 2010.png;
#MUSIC:Find You Again.mp3;
#OFFSET:-1.672;
#SAMPLESTART:75.020;
#SAMPLELENGTH:15.000;
#SELECTABLE:YES;
#BPMS:0.000=150.000;
#STOPS:;
#BGCHANGES:0.000=Find You Again.avi=1.000=1=1=0,
225.500=Find You Again-bg.png=1.000=0=0=1,
99999=-nosongbg-=1.000=0=0=0 // don't automatically add -songbackground-
;

//---------------dance-single - ----------------
#NOTES:
     dance-single:
     :
     Hard:
     8:
     0.464,0.627,0.148,0.095,0.270:
0000
0000
0000
0000
,
0000
0000
0000
0000
,
0000
0000
0000
0000
,
0000
0000
0000
0000
,
1000
0001
0000
0000
,
1000
0100
0000
0000
,
0001
0100
0000
0000
,
1001
0000
1001
0000
0100
0010
0000
0010
,
0000
0000
0000
0000
,
1000
0000
0000
0000
0010
0000
0000
0000
0100
0000
0000
0000
0000
0000
0010
0001
,
0020
0000
0000
0000
0100
0000
0000
0000
0130
0000
0000
0000
0000
0000
0010
0100
,
0020
0000
1000
0000
0031
0000
0100
0010
,
1000
0001
0010
0000
,
1000
0000
0000
0000
0010
0000
0000
0000
0100
0000
0001
0000
0000
0000
0010
0001
,
0020
0000
0000
0000
0100
0000
0000
0000
0130
0000
1000
0000
0000
0000
0010
0100
,
0001
1000
0100
0010
0100
1000
0010
0100
,
0101
1010
1100
0000
,
0010
0000
0000
0001
0100
0000
0000
0010
1000
0000
0000
0100
0010
0000
0100
0000
,
1000
0010
0100
0001
0010
0000
0000
0000
,
0100
0000
0000
1000
0010
0000
0000
0100
0001
0000
0000
0010
1000
0000
0010
0000
,
0001
0100
0010
1000
0001
0000
0000
0000
,
0100
0000
0000
0001
0010
0000
0000
0100
1000
0000
0000
0010
1000
0000
0010
0000
,
0100
0000
0001
0000
0010
0000
1000
0000
0001
0000
0000
0100
1000
0000
0010
0000
,
0110
0001
1100
0010
,
1100
0000
0000
0100
0010
0000
0000
0010
0001
0000
0000
0001
1000
0000
0010
0000
,
0100
0000
0000
0100
0000
0000
0010
0000
0010
0000
0000
0000
0000
0000
0000
0000
,
0002
0000
0000
0000
0000
0000
0000
1003
,
0020
0000
0000
0000
0000
0000
0000
0130
,
0002
0000
0000
0000
0000
0000
0000
0013
,
0001
1001
0100
0000
,
0010
0000
0000
1000
0100
0000
0000
1000
0010
0000
0000
1000
0001
0000
0100
0000
,
0010
0000
0000
1000
0010
0000
0100
0000
0010
0000
0000
0001
0010
0000
0100
0000
,
0001
0010
0000
0010
0001
0000
0001
0000
0100
0010
0000
0010
1000
0000
1000
0000
,
0001
0000
0100
0000
0001
0000
1000
0000
0010
0100
0000
0100
0001
0000
1000
0000
,
0010
0000
0000
0010
0000
0000
0010
0000
,
0100
0000
0000
0100
0000
0000
0100
0000
,
0010
0000
0000
0010
0000
0000
0010
0000
,
0001
1000
0001
0000
,
0010
0000
0000
0010
0000
0000
0010
1000
,
0100
0000
0000
0100
0000
0000
0100
0001
,
0010
0000
0000
0010
0110
0000
0010
0000
,
0001
1010
0001
0000
,
1000
0000
0100
0000
0000
0000
0100
0000
0010
0100
0010
0000
0100
0000
1000
0000
,
0010
0000
0100
0000
0000
0000
0100
0000
0001
0100
0001
0000
0100
0000
0010
0000
,
1000
0000
0010
0000
0000
0000
0010
0000
0100
0010
0100
0000
0010
0000
1000
0000
,
0100
0000
0000
0001
0000
0000
1000
0000
0100
0000
0000
0000
0000
0000
0000
0000
,
0010
0000
0000
0001
0100
0000
0000
0001
0010
0000
0000
0001
1000
0000
0100
0000
,
0010
0000
0000
0001
0010
0000
0100
0000
0010
0000
0000
1000
0010
0000
0100
0000
,
1000
0010
0000
0010
1000
0000
1000
0000
0100
0010
0000
0010
0001
0000
0001
0000
,
1000
0000
0100
0000
1000
0000
0001
0000
0010
0100
0000
0100
1000
0000
0001
0000
,
0202
0000
0000
0003
,
2000
0000
0000
3300
,
0001
0000
0010
0000
0001
0000
0100
0000
0010
0100
0000
0100
0010
0000
1000
0000
,
0010
0000
0100
0000
0001
0000
0100
0000
0010
1000
0000
1000
0100
0000
0010
0000
,
0001
0000
0010
0000
0001
0000
0100
0000
0010
0100
0000
0100
0010
0000
1000
0000
,
0010
0100
0001
0100
1100
0001
0011
1000
,
0100
0000
0000
0010
0000
0000
0001
0000
0000
0000
0000
0000
0000
0000
0000
0000
;

//---------------dance-single - ----------------
#NOTES:
     dance-single:
     :
     Beginner:
     2:
     0.115,0.237,0.074,0.074,0.000:
0000
0000
0000
0000
,
0000
0000
0000
0000
,
0000
0000
0000
0000
,
0000
0000
0000
0000
,
1000
0000
0000
0000
,
0001
0000
0000
0000
,
0010
0000
0000
0000
,
1001
0000
0000
0000
,
0000
0000
0000
0000
,
0001
0000
0000
0000
,
0001
0000
0000
0000
,
0010
0000
0000
0000
,
1000
0000
0000
0000
,
0001
0000
0000
0000
,
0001
0000
0000
0000
,
0010
0000
0010
0000
,
1000
0000
1000
0000
,
0002
0000
0003
0000
,
0020
0000
0030
0000
,
2000
0000
3000
0000
,
0020
0000
0030
0000
,
1000
0000
1000
0000
,
0001
0000
0000
0000
,
0010
0000
0010
0000
,
0100
0000
0000
0000
,
0100
0000
0000
0000
,
0020
0000
0000
0000
,
0000
0000
0000
0000
,
0000
0000
0000
0030
,
0000
0000
0000
0000
,
1000
0000
1000
0000
,
0001
0000
0001
0000
,
0010
0000
0001
0000
,
0100
0000
0000
0000
,
0000
0000
0000
0000
,
1001
0000
0000
0000
,
0000
0000
0000
0000
,
0110
0000
0000
0000
,
0000
0000
0000
0000
,
1001
0000
0000
0000
,
0000
0000
0000
0000
,
0110
0000
0000
0000
,
1000
0000
0001
0000
,
1000
0000
0001
0000
,
1000
0000
0010
0000
,
0100
0000
0000
0000
,
0001
0000
1000
0000
,
0001
0000
1000
0000
,
0001
0000
0100
0000
,
0010
0000
0000
0000
,
2002
0000
0000
3003
,
0000
0000
0000
0000
,
0010
0000
0000
0000
,
0100
0000
0010
0000
,
1000
0000
0001
0000
,
1000
1000
0001
0001
,
1001
0000
0000
0000
;

//---------------dance-single - ----------------
#NOTES:
     dance-single:
     :
     Easy:
     4:
     0.204,0.297,0.042,0.138,0.000:
0000
0000
0000
0000
,
0000
0000
0000
0000
,
0000
0000
0000
0000
,
0000
0000
0000
0000
,
1000
1000
0000
0000
,
0001
0001
0000
0000
,
0010
0010
0000
0000
,
0100
0100
0100
0000
,
0000
0000
0000
0000
,
0010
0000
0010
0000
,
1000
0001
1000
0000
,
0001
1000
0001
0000
,
0100
0010
0010
0000
,
0010
0000
0010
0000
,
1000
0001
1000
0000
,
0001
1000
0100
0000
,
0010
0000
0000
0000
,
1000
0100
0100
0000
,
0001
0000
0001
0000
,
1000
0100
0100
0000
,
1000
0010
1000
0000
,
0001
0000
0100
0000
,
0010
0000
1000
0000
,
0100
0100
0100
0100
,
0010
0010
0010
0010
,
0010
0000
0000
0000
,
0002
0000
0000
0003
,
2000
0000
0000
3000
,
0002
0000
0000
0003
,
1001
1001
1001
0000
,
0002
0000
0103
0000
,
0020
0000
0130
0000
,
0020
0030
2000
3000
,
0100
0010
0001
1000
,
0001
0000
0000
0000
,
0100
0000
0000
0000
,
0010
0000
0000
0000
,
0001
0000
0000
0000
,
1000
0000
0000
0000
,
0100
0000
0000
0000
,
0010
0000
0000
0000
,
1000
0000
0000
0000
,
0001
0001
0010
0010
,
0001
0001
0100
0000
,
1000
1000
0010
0010
,
0100
0000
0000
0000
,
0002
0000
0103
0100
,
0020
0000
0130
0100
,
0020
0030
2000
3000
,
0100
0010
0001
1000
,
2002
0000
0000
0000
,
0000
0000
3003
0000
,
0001
1000
0001
1000
,
0001
0100
0001
0000
,
1000
0001
1000
0001
,
1000
0100
0010
0001
,
1000
0000
0000
0000
;

//---------------dance-single - ----------------
#NOTES:
     dance-single:
     :
     Medium:
     6:
     0.336,0.418,0.233,0.053,0.005:
0000
0000
0000
0000
,
0000
0000
0000
0000
,
0000
0000
0000
0000
,
0000
0000
0000
0000
,
0100
0100
0000
0000
,
0001
1000
0000
0000
,
0010
0100
0000
0000
,
0010
0000
0010
0000
1000
0001
0000
0001
,
0000
0000
0000
0000
,
1000
0100
0000
0010
0000
0010
0000
0000
,
0100
0010
0000
0010
0000
1000
0000
0000
,
0010
0001
0100
0001
,
1000
0100
0010
0000
,
0001
0100
0000
0010
0100
0010
0000
0000
,
0100
0010
0000
0010
1000
0001
0000
0000
,
0010
0010
1000
0001
,
0011
1010
0100
0000
,
1100
0010
0011
0001
,
0100
0010
0100
0010
0100
0000
0000
0000
,
1010
0100
0101
0010
,
1000
0100
0010
0001
0010
0000
0000
0000
,
0011
0001
1100
1000
,
0010
0110
0100
0010
,
1000
0100
0001
0100
,
1000
1100
0110
0011
,
1001
0000
0000
0000
,
0020
0000
0000
0000
0000
0000
0000
0130
,
0002
0000
0000
0000
0000
0000
0000
1003
,
0020
0000
0000
0000
0000
0000
0000
0130
,
0010
1001
0100
0000
,
0001
0000
0100
0000
0010
0000
1000
0100
,
1000
0000
0010
0000
0100
0000
0001
0010
,
0001
0000
1100
0000
0010
1000
0010
0000
,
0100
0000
0100
0000
0010
1000
0001
0100
,
0010
0000
0000
0010
0000
0000
0010
0000
,
1000
0000
0000
1000
0000
0000
1000
0000
,
0001
0000
0000
0010
0000
0000
0001
0000
,
0100
0100
0100
0000
,
0010
0000
0000
1000
0000
0000
0010
0000
,
0001
0000
0000
0100
0000
0000
0001
0000
,
1000
0000
0000
0010
0000
0000
0001
0000
,
0110
0100
0100
0000
,
0001
0100
0000
0100
0010
0100
0010
0000
,
0100
0001
0000
0001
0100
0010
0100
0000
,
1000
0100
0000
0100
0010
0100
0010
0000
,
0110
0000
0000
0000
,
0001
0000
0100
0000
0010
0000
1000
0100
,
1000
0000
0010
0000
0100
0000
0001
0010
,
0001
0000
1100
0000
0010
1000
0010
0000
,
0100
0000
0100
0000
0010
1000
0001
0100
,
0220
0000
0000
0000
,
0000
0000
0000
0330
,
0001
0000
1000
0000
0100
0001
0100
0000
,
0010
0000
1000
0000
0100
0010
0100
0000
,
1000
0000
0001
0000
0100
1000
0100
0000
,
0010
1010
0110
0011
,
1000
0000
0000
1000
0000
0000
1000
0000
0000
0000
0000
0000
0000
0000
0000
0000
;

//---------------dance-single - Copied from----------------
#NOTES:
     dance-single:
     Copied from:
     Challenge:
     9:
     0.644,0.866,0.148,0.201,0.567: // measure 1
0000
0000
0000
0000
,  // measure 2
0000
0000
0000
0000
,  // measure 3
0000
0000
0000
0000
,  // measure 4
0000
0000
0000
0000
,  // measure 5
1000
0100
2000
0000
0001
3001
0000
0010
,  // measure 6
0001
0100
0002
0000
1000
1003
0000
0010
,  // measure 7
1000
0100
2000
0000
0001
3001
0000
0100
,  // measure 8
0100
0000
0010
0000
1000
0100
0000
0110
,  // measure 9
0000
0000
1000
0001
,  // measure 10
0010
0000
0000
0001
0000
0000
0100
0000
0020
0000
0000
0000
0000
0000
0130
0010
,  // measure 11
1000
0000
0000
0010
0000
0000
0100
0000
0002
0000
0000
0000
0000
0000
0013
0001
,  // measure 12
0100
0000
0000
0010
0000
0000
1000
0000
0100
0000
0000
0010
0000
0000
0001
0000
,  // measure 13
0100
0000
0000
0010
0000
0000
1000
0000
0002
0000
0000
0000
0000
0000
1003
0010
,  // measure 14
0100
0000
0000
0001
0000
0000
0010
0000
0200
0000
0000
0000
0000
0000
0310
0001
,  // measure 15
0100
0000
0000
0010
0000
0000
1000
0000
0200
0000
0000
0000
0000
0000
0310
0001
,  // measure 16
0100
0000
0000
0010
0000
0000
1000
0000
0100
0000
0000
0010
0000
0000
0001
0000
,  // measure 17
0200
0000
0000
0000
0020
0000
0000
0330
,  // measure 18
0010
1000
0000
0100
0010
0000
0001
0000
0100
0000
0010
0000
1000
0000
0100
0000
,  // measure 19
0010
0001
0000
0100
0010
0000
0100
0000
0001
0000
0010
0000
0110
0000
0000
0000
,  // measure 20
0100
1000
0000
0010
0100
0000
0001
0000
0010
0000
0100
0000
1000
0000
0010
0000
,  // measure 21
0100
0001
0000
0010
0100
0000
1000
0000
0010
0000
0100
0000
0101
0000
0000
0000
,  // measure 22
1000
0010
0000
0100
0010
0000
1000
0000
0100
0000
0010
0000
0001
0000
0100
0000
,  // measure 23
0001
0010
0000
0001
0100
0000
0010
0000
1000
0000
0100
0000
0010
0000
0001
0000
,  // measure 24
0100
0010
0000
1000
0100
0000
0010
0000
0001
0100
0000
0010
1000
0000
0100
0000
,  // measure 25
0010
0001
0100
1000
,  // measure 26
0010
0000
0000
1000
0000
0000
0100
0000
0002
0000
0000
0000
0000
0000
0003
0000
,  // measure 27
1000
0100
0000
1000
0010
0000
0100
0000
0001
0010
0000
0001
0100
0000
0001
0000
,  // measure 28
0010
0001
0000
0100
0000
0000
0010
0000
2000
0000
0100
0000
3100
0000
0000
0000
,  // measure 29
0001
0010
0000
0001
0100
0000
0010
0000
1000
0100
0000
1000
0010
0000
0100
0000
,  // measure 30
0001
0010
0000
0100
0000
0000
0010
0000
0002
0000
0100
0000
0103
0000
0001
0000
,  // measure 31
1000
0010
0000
1000
0010
0000
0100
0000
0001
0010
0000
0001
0010
0000
0100
0000
,  // measure 32
1000
0010
0000
1000
0000
0010
1000
0000
0100
0000
0001
0000
0001
0000
0100
0000
,  // measure 33
0010
0001
0000
0010
0001
0000
0100
0000
0010
1000
0000
0010
1000
0000
0100
0000
,  // measure 34
0010
0001
0000
0100
0000
0000
0001
0000
0010
0000
1000
0000
1000
0000
0000
0000
,  // measure 35
0010
0000
0001
0000
0100
0000
0010
0000
1000
0100
0000
0010
0000
0001
0100
0000
,  // measure 36
0001
0000
0100
0000
0010
0000
1000
0000
0001
0010
0000
0100
0000
1000
0010
0000
,  // measure 37
0100
0000
0010
0000
1000
0000
0001
0000
0100
0001
0000
0010
0000
0100
1000
0000
,  // measure 38
0010
0000
0100
0000
0001
0000
0010
0000
0100
1000
0000
0010
0000
0100
0001
0000
,  // measure 39
2001
0000
0000
0001
0001
0001
0000
3001
,  // measure 40
0120
0000
0000
0100
0100
0100
0000
0130
,  // measure 41
0120
0031
0210
1300
,  // measure 42
0101
1001
1010
0000
,  // measure 43
1000
0100
0010
0100
1000
0010
0001
0010
,  // measure 44
0100
1000
0100
0001
0010
0100
1000
0000
,  // measure 45
0001
0010
0100
0010
0001
0100
1000
0100
,  // measure 46
0010
0001
0010
1000
0100
0010
0001
0000
,  // measure 47
1000
0010
0000
1000
0010
0000
0100
0000
0001
0010
0000
0001
0010
0000
0100
0000
,  // measure 48
1000
0010
0000
0100
0000
0001
0010
0000
0100
0000
1000
0000
0010
0000
0000
0000
,  // measure 49
0100
0001
0000
0100
0001
0000
0010
0000
0100
1000
0000
0100
1000
0000
0010
0000
,  // measure 50
0100
0001
0000
0010
0000
0100
1000
0000
0010
0000
0100
0000
0001
0000
0000
0000
,  // measure 51
2000
0000
0000
0000
0002
0000
0000
3000
,  // measure 52
1013
1001
0101
0000
,  // measure 53
0001
0010
0001
0010
0001
0000
0100
0010
0100
0010
0100
0000
0010
1000
0010
1000
,  // measure 54
0010
0000
1000
0100
1000
0100
1000
0000
0001
0010
0001
0010
0100
1000
0100
1000
,  // measure 55
0010
0100
0010
0100
0001
0000
0010
0001
0010
0001
0010
0000
0001
0100
0001
0100
,  // measure 56
0001
0000
0100
0010
0100
0010
0100
0000
0010
1000
0010
1000
0100
0010
0001
0010
,  // measure 57
0001
0000
0000
0100
0000
0000
0110
0000
0000
0000
0000
0000
0000
0000
0000
0000
;
