#TITLE:Es Stage 2;
#SUBTITLE:;
#ARTIST:9thNight;
#TITLETRANSLIT:;
#SUBTITLETRANSLIT:;
#ARTISTTRANSLIT:;
#CREDIT:;
#BANNER:Es_Trial_Beta_bn.png;
#BACKGROUND:Es_Trial_Beta_bg.png;
#LYRICSPATH:;
#CDTITLE:CD_Title.png;
#MUSIC:Es-STAGE2.mp3;
#OFFSET:1.440;
#SAMPLESTART:0.000;
#SAMPLELENGTH:12.260;
#SELECTABLE:YES;
#BPMS:0.000=157.000;
#STOPS:;
#BGCHANGES:;

//---------------dance-single - ----------------
#NOTES:
     dance-single:
     :
     Challenge:
     12:
     1.000,1.000,0.026,0.000,1.000:
0000
0000
0000
0000
,
1000
0010
010M
0000
0010
0000
010M
0010
1000
0000
001M
1000
0000
1000
010M
0000
,
1000
0001
0M10
0000
0001
0000
0M10
0001
1000
0000
0M10
1000
0000
1000
0M10
0000
,
0100
0001
M010
0000
0001
0000
M010
0001
0100
0000
M001
0010
0000
0010
M001
0000
,
0100
0010
100M
0000
0010
0000
100M
0010
0100
0000
001M
1000
0000
1000
001M
0000
,
0100
0001
10M0
0000
0001
0000
10M0
0001
0100
0000
00M1
1000
0000
1000
00M1
0000
,
0010
0001
1M00
0000
0001
0000
1M00
0001
0010
0000
0M01
1000
0000
1000
0M10
0000
,
0100
0001
M010
0000
0001
0000
M010
0001
0100
0000
M001
0010
0000
0010
M001
0000
,
000M
0M00
00M0
0000
M000
0000
000M
0M00
00M0
0000
M000
000M
0000
0M00
00M0
0000
,
0001
0100
M010
0000
0100
0000
M010
0100
0001
0000
M100
0001
0000
0001
M010
0000
,
0001
1000
01M0
0000
1000
0000
01M0
1000
0001
0000
01M0
0001
0000
0001
01M0
0000
,
0010
1000
010M
0000
1000
0000
010M
1000
0010
0000
100M
0100
0000
0100
100M
0000
,
0010
0100
M001
0000
0100
0000
M001
0100
0010
0000
M100
0001
0000
0001
M100
0000
,
0010
1000
0M01
0000
1000
0000
0M01
1000
0010
0000
1M00
0001
0000
0001
1M00
0000
,
0100
1000
00M1
0000
1000
0000
00M1
1000
0100
0000
10M0
0001
0000
0001
01M0
0000
,
0010
1000
010M
0000
1000
0000
010M
1000
0010
0000
100M
0100
0000
0100
100M
0000
,
0001
0100
0010
0000
1010
0000
1000
0010
0100
0001
0010
0100
0010
0001
1000
0010
,
1000
0000
0100
0000
1000
0010
0000
0001
0010
0000
1000
0010
0000
0001
0010
0000
,
1000
0000
0001
0000
0010
1000
0000
0010
0001
0000
0010
1000
0000
0010
0001
0100
,
0001
0000
1000
0000
0010
0100
0000
0010
0001
0000
0010
0100
0000
0010
0001
0000
,
0100
0000
0001
0000
0010
1000
0000
0010
0100
0000
0010
1000
0000
0010
0001
0100
,
0010
0000
1000
0000
0100
0001
0000
0100
1000
0000
0100
0001
0000
0100
1000
0000
,
0010
0000
0001
0000
0010
1000
0000
0100
1000
0000
0010
1000
0000
0100
1000
0001
,
0010
0000
0001
0000
1000
0010
0000
1000
0100
0000
1000
0010
0000
1000
0100
0000
,
1000
0000
0001
0000
0010
1000
0000
0010
0100
0000
0010
0001
0000
1000
0010
0000
,
0100
0010
0100
0000
0101
0000
0001
1000
0100
0000
1000
0010
0000
0100
0010
0000
,
1000
0000
0000
0001
0000
0000
0010
0000
0000
0000
0000
0000
0011
0000
0000
0000
0000
0000
0001
0000
0000
1000
0000
0000
0010
0000
0000
0000
0000
0000
1000
0000
0000
0000
0000
0000
0001
0000
1000
0000
0001
0000
1000
0000
0001
0000
1000
0000
,
0001
0000
1M00
0000
0001
0000
01M0
0001
1000
0000
0M10
0000
1000
0000
00M1
0100
,
0010
0000
0000
0000
M100
0000
0000
0000
0010
0000
0000
0000
100M
0000
0010
0000
0100
0000
0000
0000
M001
0000
0000
0000
0100
0000
0000
0000
100M
0010
1000
0010
,
1000
0000
0M01
0000
0100
0000
00M1
1000
0010
0000
1M00
0000
0001
0000
01M0
0010
,
0100
0000
0000
0000
M001
0000
0000
0000
1000
0000
0000
0000
001M
0000
0100
0000
0001
0000
0000
0000
M010
0000
0000
0000
0001
0000
0000
0000
100M
0010
1000
0010
,
1000
0000
M010
0000
0100
0000
00M1
1000
0100
0000
M010
0000
0001
0000
01M0
0001
,
1000
0000
0000
0000
0M10
0000
0000
0000
1000
0000
0000
0000
001M
0000
0100
0000
0001
0000
0000
0000
1M00
0000
0000
0000
0010
0000
0000
0000
100M
0010
1000
0010
,
1000
0000
00M1
0000
0100
0000
0M10
1000
0100
0000
10M0
0000
0001
0000
0M10
0001
,
0100
0000
0000
0000
M001
0000
0000
0000
1000
0000
0000
0000
01M0
0000
1000
0000
0010
0000
0000
0000
M100
0000
0000
0000
0001
0000
0000
0000
10M0
0001
1000
0001
,
1000
0000
0M10
0000
0100
0000
001M
1000
0100
0000
M010
0000
0001
0000
01M0
0010
,
1000
0000
0000
0000
0M01
0000
0000
0000
1000
0000
0000
0000
001M
0000
0100
0000
0001
0000
0000
0000
M010
0000
0000
0000
0001
0000
0000
0000
01M0
0001
0100
0001
,
0100
0000
M001
0000
0100
0000
001M
1000
0010
0000
1M00
0000
0001
0000
01M0
0001
,
0010
0000
0000
0000
M100
0000
0000
0000
0010
0000
0000
0000
010M
0000
1000
0000
0010
0000
0000
0000
1M00
0000
0000
0000
0001
0000
0000
0000
01M0
0001
0100
0001
,
0100
0000
M010
0000
0100
0000
0M01
0010
0100
0000
10M0
0000
0010
0000
010M
0010
,
1000
0000
0000
0000
M100
0000
0000
0000
0010
0000
0000
0000
0M01
0000
0100
0000
0010
0000
0000
0000
10M0
0000
0000
0000
0001
0000
0000
0000
010M
0010
0100
0010
,
0100
0000
001M
0000
1000
0000
01M0
0010
0001
0000
1M00
0000
0010
0000
M100
0001
,
0010
0000
0000
0000
010M
0000
0000
0000
1000
0000
0000
0000
00M1
0000
0100
0000
0010
0000
0000
0000
1M00
0000
0000
0000
0001
0000
0000
0000
M100
0010
0100
0001
,
1000
0010
010M
0000
0010
0000
010M
0010
1000
0000
001M
1000
0000
1000
010M
0000
,
1000
0001
0M10
0000
0001
0000
0M10
0001
1000
0000
0M10
1000
0000
1000
0M10
0000
,
0100
0001
M010
0000
0001
0000
M010
0001
0100
0000
M001
0010
0000
0010
M001
0000
,
0100
0010
100M
0000
0010
0000
100M
0010
0100
0000
001M
1000
0000
1000
001M
0000
,
0100
0001
10M0
0000
0001
0000
10M0
0001
0100
0000
00M1
1000
0000
1000
00M1
0000
,
0010
0001
1M00
0000
0001
0000
1M00
0001
0010
0000
0M01
1000
0000
1000
0M10
0000
,
0100
0001
M010
0000
0001
0000
M010
0001
0100
0000
M001
0010
0000
0010
M001
0000
,
000M
0M00
00M0
0000
M000
0000
000M
0M00
00M0
0000
M000
000M
0000
0M00
00M0
0000
,
0001
0100
M010
0000
0100
0000
M010
0100
0001
0000
M100
0001
0000
0001
M010
0000
,
0001
1000
01M0
0000
1000
0000
01M0
1000
0001
0000
01M0
0001
0000
0001
01M0
0000
,
0010
1000
010M
0000
1000
0000
010M
1000
0010
0000
100M
0100
0000
0100
100M
0000
,
0010
0100
M001
0000
0100
0000
M001
0100
0010
0000
M100
0001
0000
0001
M100
0000
,
0010
1000
0M01
0000
1000
0000
0M01
1000
0010
0000
1M00
0001
0000
0001
1M00
0000
,
0100
1000
00M1
0000
1000
0000
00M1
1000
0100
0000
10M0
0001
0000
0001
01M0
0000
,
0010
1000
010M
0000
1000
0000
010M
1000
0010
0000
100M
0100
0000
0100
100M
0000
,
0001
0100
0010
0000
1010
0000
1000
0010
0100
0001
0010
0100
0010
0001
1000
0010
,
1000
0001
0010
0100
0100
0000
0010
0001
,
0100
0000
0000
0000
0100
0000
0000
0000
0000
0000
0000
0000
0010
0000
0000
0000
1000
0000
0000
0000
0100
0000
0000
0000
0100
0000
0000
0000
0100
1000
0100
1000
,
0100
1000
0001
0010
0010
0000
0001
1000
,
0010
0000
0000
0000
0010
0000
0000
0000
0000
0000
0000
0000
1000
0000
0000
0000
0001
0000
0000
0000
0010
0000
0000
0000
0010
0000
0000
0000
0001
1000
0001
1000
,
0001
0010
0100
1000
1000
0000
0010
0100
,
0001
0000
0000
0000
0001
0000
0000
0000
0000
0000
0000
0000
0100
0000
0000
0000
0010
0000
0000
0000
1000
0000
0000
0000
1000
0000
0000
0000
0001
1000
0001
1000
,
0001
1000
0100
0010
0010
0000
0100
1000
,
0010
0000
0000
0000
0010
0000
0000
0000
0000
0000
0000
0000
0100
0000
0000
0000
0001
0000
0000
0000
0010
0000
0000
0000
0010
0000
0000
0000
0001
1000
0001
1000
,
0001
0100
0010
1000
0010
0100
0001
0010
0100
1000
0100
0010
0001
0100
0001
0100
,
0010
1000
0100
0010
0100
1000
0001
0100
0010
1000
0010
0100
0001
1000
0100
0010
,
0001
0010
0100
1000
0001
0100
0010
1000
0010
0100
0001
0010
0100
1000
0100
0010
,
0001
1000
0100
1000
0010
0100
0001
0010
0100
0010
0001
1000
0010
0100
0010
1000
,
0001
0100
0010
1000
0100
0010
0001
0010
0100
1000
0001
0100
0010
1000
0100
0010
,
0001
0010
0100
1000
0001
0100
0010
0100
0001
1000
0100
0010
0100
1000
0001
0100
,
0001
0010
0100
1000
0100
0010
0001
0100
0010
1000
0001
0010
0100
1000
0100
0010
,
0001
0100
0010
1000
0001
0010
0001
0100
0010
1000
0100
1000
0010
0100
0001
1000
,
0010
0100
0001
1000
0100
1000
0010
0100
0001
0010
0100
1000
0100
0010
0001
1000
,
0010
0100
0001
0010
0100
1000
0100
0010
0001
1000
0010
0100
0001
1000
0010
1000
,
0001
0100
0010
1000
0100
0010
0100
1000
0001
0100
0010
1000
0010
0100
0001
0010
,
0100
1000
0100
0010
0001
0100
0010
1000
0010
0100
0001
1000
0100
1000
0001
0100
,
0010
0000
0000
0000
0000
0000
1000
0000
0000
0000
0000
0000
0100
0000
0000
0000
0000
0000
0010
0000
0000
0000
0000
0001
1000
0000
0000
0000
0000
0000
0010
0000
0000
0000
0000
0000
0100
0000
0000
0000
0000
0000
0001
0000
0000
0000
0000
1000
,
0001
0000
0000
0000
0000
0000
0100
0000
0000
0000
0000
0000
0010
0000
0000
0000
0000
0000
1000
0000
0000
0000
0000
0001
1000
0000
0000
0000
0000
0000
0010
0000
0000
0000
0000
0000
1000
0000
0000
0000
0000
0000
0100
0000
0000
0000
0000
1000
,
0001
0000
0000
0000
0000
0000
1000
0000
0000
0000
0000
0000
0010
0000
0000
0000
0000
0000
1000
0000
0000
0000
0000
0100
0010
0000
0000
0000
0000
0000
0100
0000
0000
0000
0000
0000
1000
0000
0000
0000
0000
0000
0001
0000
0000
0000
0000
0100
,
0010
0000
0000
0000
0000
0000
0100
0000
0000
0000
0000
0000
0001
0000
0000
0000
0000
0000
1000
0000
0000
0000
0000
0010
0100
0000
0000
0000
0000
0000
0001
0000
0000
0000
0000
0000
0100
0000
0000
0000
0000
0000
0010
0000
0000
0000
0000
0100
,
0010
0000
0000
0000
0000
0000
1000
0000
0000
0000
0000
0000
0100
0000
0000
0000
0000
0000
0010
0000
0000
0000
0000
0001
0100
0000
0000
0000
0000
0000
0010
0000
0000
0000
0000
0000
1000
0000
0000
0000
0000
0000
0100
0000
0000
0000
0000
1000
,
0010
0000
0000
0000
0000
0000
0100
0000
0000
0000
0000
0000
0001
0000
0000
0000
0000
0000
0010
0000
0000
0000
0000
0100
1000
0000
0000
0000
0000
0000
0001
0000
0000
0000
0000
0000
0100
0000
0000
0000
0000
0000
0010
0000
0000
0000
0000
1000
,
0001
0000
0000
0000
0000
0000
0010
0000
0000
0000
0000
0000
0001
0000
0000
0000
0000
0000
0100
0000
0000
0000
0000
0010
1000
0000
0000
0000
0000
0000
0100
0000
0000
0000
0000
0000
1000
0000
0000
0000
0000
0000
0010
0000
0000
0000
0000
0100
,
0001
0000
0000
0000
0000
0000
0010
0000
0000
0000
0000
0000
0100
0000
0000
0000
0000
0000
1000
0000
0000
0000
0000
0001
0100
0000
0000
0000
0000
0000
0010
0000
0000
0000
0000
0000
0100
0000
0000
0000
0000
0000
1000
0000
0000
0000
0000
0001
,
1000
0000
0001
0100
0010
0000
1000
0100
0010
0000
0100
1000
0001
0000
0100
0001
,
0010
0000
0100
1000
0010
0000
0100
0001
0010
0000
0010
0001
0100
0000
0010
1000
,
0100
0000
1000
0001
0010
0000
0010
0001
1000
0000
0100
1000
0010
0000
0100
0001
,
0010
0000
0001
1000
0100
0000
1000
0001
0010
0000
0001
0100
0010
0000
1000
0100
,
0010
0000
0100
1000
0001
0000
0001
0100
0010
0000
1000
0100
0010
0000
0100
1000
,
0001
0000
1000
0010
0100
0000
0001
0010
0100
0000
1000
0010
0100
0000
0001
0010
,
0100
0000
1000
0010
0001
0000
0001
0010
1000
0000
0001
0010
1000
0000
1000
0010
,
0001
0000
M00M
0000
,
1000
0100
M010
0000
0001
0000
010M
0010
1000
0000
0M01
0010
0000
0010
M100
0000
,
0010
0001
1M00
0000
0010
0000
100M
0010
0100
0000
M001
0010
0000
0010
0M01
0000
,
1000
0001
0M10
0000
0001
0000
M100
0010
1000
0000
001M
0100
0000
0100
00M1
0000
,
1000
0001
0M10
0000
0001
0000
M010
0100
1000
0000
001M
0100
0000
0100
M001
0000
,
0100
0010
1M00
0000
0001
0000
001M
0100
1000
0000
M100
0010
0000
0001
0M10
0000
,
0001
0100
10M0
0000
0100
0000
001M
1000
0100
0000
M010
0001
0000
0010
010M
0000
,
0010
0001
M100
0000
0010
0000
100M
0100
0010
0000
010M
1000
0000
0010
0M01
0000
,
M000
00M0
0M00
0000
000M
0000
M000
00M0
0M00
0000
000M
M000
0000
00M0
0M00
0000
;

//---------------dance-single - Copied from----------------
#NOTES:
     dance-single:
     Copied from:
     Hard:
     10:
     0.864,0.947,0.103,0.000,0.692:
0000
0000
0000
0000
,
1000
0100
1000
0000
0001
0000
1000
0001
1000
0000
0001
0010
0000
0010
0001
0000
,
0100
0010
0100
0000
0010
0000
1000
0010
1000
0000
0010
0100
0000
0100
0010
0000
,
1000
0001
1000
0000
0001
0000
0010
0001
0010
0000
0001
0100
0000
0100
0001
0000
,
0100
0010
0100
0000
0010
0000
1000
0001
1000
0000
0001
0100
0000
0100
0010
0000
,
1000
0100
1000
0000
0001
0000
0010
0001
0010
0000
0001
1000
0000
1000
0001
0000
,
0100
0010
0100
0000
0001
0000
0010
0001
0010
0000
0001
0100
0000
0100
0010
0000
,
1000
0010
1000
0000
0001
0000
0100
0001
0100
0000
0010
1000
0000
1000
0001
0000
,
0000
0000
0000
0000
,
0001
0010
0001
0000
1000
0000
0001
1000
0001
0000
1000
0100
0000
0100
1000
0000
,
0010
0100
0010
0000
0100
0000
0001
0100
0001
0000
0100
0010
0000
0010
0100
0000
,
0001
1000
0001
0000
1000
0000
0100
1000
0100
0000
1000
0010
0000
0010
1000
0000
,
0010
0100
0010
0000
0100
0000
0001
1000
0001
0000
1000
0010
0000
0010
0100
0000
,
0001
0010
0001
0000
1000
0000
0100
1000
0100
0000
1000
0001
0000
0001
1000
0000
,
0010
0100
0010
0000
1000
0000
0100
1000
0100
0000
1000
0010
0000
0010
0100
0000
,
0001
0100
0001
0000
1000
0000
0010
1000
0010
0000
0100
0001
0000
0001
1000
0000
,
0001
0010
0100
0000
0000
0000
0000
0000
,
0010
0000
0001
0000
1000
0010
0000
0010
0100
0000
0100
0001
0000
0001
1000
0000
,
0001
0000
0100
0000
0010
1000
0000
1000
0100
0000
0100
0010
0000
0010
0001
0000
,
1000
0000
0001
0000
0010
0001
0000
0001
0100
0000
0100
0010
0000
0010
1000
0000
,
0001
0000
0100
0000
0010
1000
0000
1000
0001
0000
0001
0010
0000
0010
0001
0000
,
1000
0000
0010
0000
0100
0001
0000
0010
0001
0000
1000
0010
0000
0100
0010
0000
,
1000
0000
0001
0000
0010
0001
0000
0100
0001
0000
1000
0100
0000
1000
0010
0000
,
1000
0000
0001
0000
0100
0010
0000
1000
0100
0000
0010
0001
0000
0100
0001
0000
,
1000
0000
0010
0000
0100
0010
0000
1000
0001
0000
0010
0100
0000
0010
0001
0000
,
1000
0001
1000
0000
0001
0000
0100
0010
0100
0000
0010
0000
1000
0000
0100
0000
,
0010
0001
0001
0100
0010
1000
1000
0100
,
0010
0001
0100
0001
0010
0001
0100
0001
,
1000
0010
0100
0010
1000
0010
0100
0010
,
1000
0001
0010
0001
1000
0001
0010
0001
,
0100
0010
1000
0010
0100
0010
1000
0010
,
0100
0001
0100
0010
0100
0001
0100
0010
,
1000
0100
0010
0100
1000
0100
0010
0100
,
1000
0010
0001
0010
1000
0010
0001
0010
,
1000
0100
0001
0100
1000
0100
0001
0100
,
0010
0001
0100
1000
0100
0001
0010
0100
,
0010
0001
1000
0010
0001
0010
1000
0100
,
0010
0100
1000
0001
0100
1000
0100
0001
,
0010
0001
0100
1000
0100
0010
1000
0100
,
0001
0100
1000
0010
0100
0001
1000
0100
,
0001
0100
1000
0010
0100
1000
0100
0010
,
1000
0100
0001
0100
0010
0001
0100
1000
,
0010
0001
0010
1000
0100
0001
0100
0010
,
0001
0100
0001
0000
0100
0000
0010
1000
0001
0000
0010
0001
0000
0001
1000
0000
,
0010
1000
0010
0000
1000
0000
0001
0010
0100
0000
0010
0001
0000
1000
0010
0000
,
0100
0010
0100
0000
0010
0000
1000
0100
0010
0000
0001
0010
0000
0010
0001
0000
,
1000
0010
1000
0000
0001
0000
0010
0001
0100
0000
0010
1000
0000
1000
0001
0000
,
0100
0001
0100
0000
0010
0000
0100
0001
0010
0000
0100
1000
0000
1000
0100
0000
,
0010
0001
0010
0000
0001
0000
0100
0010
1000
0000
0100
0010
0000
0010
0001
0000
,
1000
0001
1000
0000
0001
0000
0100
0010
1000
0000
0001
0010
0000
0010
0100
0000
,
0000
0000
0000
0000
,
1000
0010
1000
0000
0010
0000
0100
0001
1000
0000
0100
1000
0000
1000
0001
0000
,
0100
0001
0100
0000
0001
0000
1000
0100
0010
0000
0100
1000
0000
0001
0100
0000
,
0010
0100
0010
0000
0100
0000
0001
0010
0100
0000
1000
0100
0000
0100
1000
0000
,
0001
0100
0001
0000
1000
0000
0100
1000
0010
0000
0100
0001
0000
0001
1000
0000
,
0010
1000
0010
0000
0100
0000
0010
1000
0100
0000
0010
0001
0000
0001
0010
0000
,
0100
1000
0100
0000
1000
0000
0010
0100
0001
0000
0010
0100
0000
0100
1000
0000
,
0001
1000
0001
0000
1000
0000
0010
0100
0001
0000
1000
0100
0000
0100
0010
0000
,
0001
1000
0010
0000
0000
0000
0000
0000
,
1000
0100
0010
0001
0001
0000
0001
0010
,
0100
0100
0000
0100
1000
0010
0010
0000
,
0100
0001
0010
0100
0100
0000
1000
0010
,
0100
0100
0000
0010
0100
0001
0010
0000
,
0001
0100
0010
1000
1000
0000
0010
0100
,
0001
0001
0000
1000
0100
0010
0010
0000
,
0001
0100
1000
0100
0100
0000
0001
0010
,
1000
1000
0000
0010
0001
0100
0100
0000
,
0010
1000
0100
0010
0010
0001
0100
0010
,
0010
1000
0100
0010
0010
0001
0010
0001
,
1000
0010
0100
0001
0001
1000
0010
0100
,
0001
0001
0100
0010
0010
1000
0010
0100
,
0001
0010
0100
1000
1000
0100
0010
0001
,
1000
1000
0010
0100
0100
0001
0100
0010
,
1000
0100
0010
0001
0001
1000
0010
0100
,
0100
0010
1000
0100
0100
0010
0001
1000
,
0010
1000
0010
1000
0010
1000
0100
0000
0010
0001
0010
0001
0010
0001
0100
0000
,
0010
1000
0001
1000
0001
1000
0010
0000
0100
0001
1000
0001
1000
0001
0100
0000
,
0001
0010
0100
1000
0100
0010
0001
0000
1000
0010
0100
0001
0100
0010
1000
0000
,
0001
0010
0100
1000
0100
0010
0001
1000
0010
0100
0001
1000
0001
0100
0010
1000
,
0001
0100
0010
1000
1010
0010
0100
0001
,
0101
0001
1000
0010
1010
1000
0010
0100
,
0101
0001
0010
0100
1100
1000
0010
0100
,
0101
0001
0010
0100
1100
1000
0010
0100
,
0101
0001
0100
0010
1010
1000
0001
0010
,
0011
0001
0100
0010
0110
0100
0010
1000
,
1001
1000
0100
0010
0011
0001
0100
0010
,
1010
1000
0100
0010
0011
0001
0100
0010
,
1010
0000
1000
0010
1000
0000
0010
1000
0010
0000
1000
0000
0001
0000
0010
0000
,
0100
0000
0010
0001
0010
0000
0001
0010
0001
0000
0010
0000
0100
0000
1000
0000
,
0001
0000
1000
0010
1000
0000
1000
0001
1000
0000
0001
0000
0010
0000
0100
0000
,
1000
0000
0001
0100
0001
0000
0001
1000
0001
0000
0100
0000
0010
0000
1000
0000
,
0001
0000
0100
0001
0100
0000
0100
0010
0100
0000
0010
0000
1000
0000
0100
0000
,
0010
0000
0100
1000
0100
0000
0100
0010
0100
0000
0010
0000
0001
0000
1000
0000
,
0010
0000
0100
0001
0100
0000
0001
1000
0001
0000
1000
0010
1000
0000
0001
1000
,
0001
0000
0000
0000
,
1000
0010
0100
0000
0001
0000
0010
0100
1000
0000
0010
0100
0000
0100
0001
0000
,
1000
0001
0010
0000
0001
0000
1000
0010
0100
0000
0001
0010
0000
0001
1000
0000
,
0010
1000
0100
0000
0010
0000
0001
0100
0010
0000
1000
0010
0000
0100
0010
0000
,
1000
0001
0100
0000
0001
0000
0010
0100
1000
0000
0010
0100
0000
0001
0010
0000
,
0001
0100
0010
0000
1000
0000
0100
0010
0001
0000
0010
0100
0000
1000
0100
0000
,
0010
0001
0100
0000
0010
0000
1000
0100
0010
0000
0001
0010
0000
0100
0010
0000
,
0001
1000
0010
0000
1000
0000
0100
0010
0001
0000
1000
0010
0000
0100
0001
0000
;

//---------------dance-single - Copied from Copied f----------------
#NOTES:
     dance-single:
     Copied from Copied f:
     Medium:
     8:
     0.641,0.654,0.301,0.077,0.125:
0000
0000
0000
0000
,
1000
0000
0100
0000
1000
0000
0001
0000
1000
0000
0000
0010
0000
0000
0100
0000
,
0001
0000
0010
0000
0001
0000
1000
0000
0001
0000
0000
0100
0000
0000
0010
0000
,
1000
0000
0100
0000
1000
0000
0010
0000
1000
0000
0000
0010
0000
0000
0100
0000
,
0001
0000
0010
0000
0001
0000
1000
0000
0001
0000
0000
1000
0000
0000
0010
0000
,
0100
0000
0001
0000
0100
0000
0010
0000
0100
0000
0000
0001
0000
0000
1000
0000
,
0100
0000
0010
0000
0100
0000
1000
0000
0100
0000
0000
0010
0000
0000
0001
0000
,
1000
0000
0010
0000
1000
0000
0100
0000
1000
0000
0000
0001
0000
0000
1000
0000
,
1001
0000
0000
0000
,
0001
0000
0100
0000
0001
0000
1000
0000
0010
0000
0000
0100
0000
0000
0010
0000
,
1000
0000
0100
0000
1000
0000
0001
0000
0100
0000
0000
0010
0000
0000
1000
0000
,
0001
0000
0010
0000
0001
0000
0100
0000
0010
0000
0000
1000
0000
0000
0001
0000
,
1000
0000
0100
0000
1000
0000
0001
0000
0010
0000
0000
0001
0000
0000
0100
0000
,
0010
0000
1000
0000
0010
0000
0100
0000
0001
0000
0000
1000
0000
0000
0001
0000
,
0010
0000
0100
0000
0010
0000
0001
0000
1000
0000
0000
0010
0000
0000
0100
0000
,
0010
0000
1000
0000
0010
0000
0100
0000
0001
0000
0000
0010
0000
0000
0100
0000
,
1000
0010
0110
0000
0000
0000
0000
0000
,
1000
0000
0010
0000
0100
0000
0000
0000
0101
0000
0000
1100
0000
0000
0101
0000
,
0001
0000
0010
0000
0100
0000
0000
0000
1100
0000
0000
0101
0000
0000
1100
0000
,
1000
0000
0001
0000
0010
0000
0000
0000
0011
0000
0000
1010
0000
0000
0011
0000
,
0001
0000
1000
0000
0010
0000
0000
0000
1010
0000
0000
0011
0000
0000
1010
0000
,
1000
0100
0010
0000
0001
0010
0100
0010
,
0001
1000
0010
0000
0100
0001
0100
0010
,
1000
0100
0010
0000
0001
0010
0100
1000
,
0100
0010
0001
0000
1000
0010
0100
0001
,
1000
0100
0100
0000
0010
0001
0001
0000
,
1000
0010
1010
0000
0000
0000
0000
0000
,
1020
0100
0001
0100
,
1000
0100
0001
0130
,
0021
0100
1000
0100
,
0001
0100
1000
0130
,
1020
0001
0100
1000
,
0100
0001
0100
1030
,
0021
0100
1000
0100
,
0001
0100
1000
0130
,
1200
1000
0010
0001
,
1000
0010
0001
1300
,
0201
0001
0010
1000
,
0001
0010
1000
0301
,
1200
0010
0001
1000
,
0010
0001
1000
0310
,
0201
0010
1000
0001
,
0010
1000
0001
0310
,
1000
0000
0001
0000
0010
0000
0100
0000
1000
0000
0000
0010
0000
0000
0100
0000
,
0001
0000
0010
0000
0100
0000
1000
0000
0001
0000
0000
0100
0000
0000
0010
0000
,
1000
0000
0100
0000
0010
0000
0001
0000
1000
0000
0000
0010
0000
0000
0100
0000
,
0001
0000
0010
0000
0100
0000
1000
0000
0010
0000
0000
0100
0000
0000
0001
0000
,
0010
0000
0100
0000
1000
0000
0010
0000
0100
0000
0000
0001
0000
0000
0010
0000
,
0100
0000
0010
0000
0001
0000
1000
0000
0010
0000
0000
0100
0000
0000
0001
0000
,
1000
0000
0100
0000
0010
0000
0001
0000
1000
0000
0000
0010
0000
0000
0100
0000
,
0110
0000
0000
0000
,
1000
0000
0010
0000
1000
0000
0001
0000
0100
0000
0000
0110
0000
0000
0100
0000
,
0001
0000
0010
0000
0001
0000
1000
0000
0010
0000
0000
0110
0000
0000
0001
0000
,
1000
0000
0100
0000
1000
0000
0010
0000
0100
0000
0000
0101
0000
0000
1000
0000
,
0001
0000
0010
0000
0001
0000
1000
0000
0100
0000
0000
1100
0000
0000
0010
0000
,
0001
0000
1000
0000
0010
0000
0100
0000
0001
0000
0000
1001
0000
0000
1000
0000
,
0010
0000
0100
0000
0010
0000
1000
0000
0001
0000
0000
0101
0000
0000
0100
0000
,
0010
0000
1000
0000
0100
0000
0010
0000
0001
0000
0000
0011
0000
0000
1000
0000
,
0010
0100
0110
0000
0000
0000
0000
0000
,
0001
0010
0100
0010
0001
0000
1000
0100
,
0010
0200
0000
1300
0010
0100
0100
0000
,
0010
1000
0001
1000
0010
0000
0100
0001
,
0010
0200
0300
0100
1000
0010
0010
0000
,
0100
0001
0100
0010
0100
0000
0001
0010
,
0100
0200
0300
0010
0001
1000
1000
0000
,
0010
1000
0010
0100
0010
0000
1000
0100
,
0010
0020
0030
0001
0100
0010
0010
0000
,
1000
0010
0100
0001
1000
0000
0001
0010
,
0100
0100
0000
0010
0001
1000
0010
0000
,
1000
0100
0010
0001
1000
0000
0010
0100
,
0001
0001
0000
1000
0010
0100
0100
0000
,
0001
1000
0010
0100
0001
0000
1000
0010
,
0100
0100
0000
0001
0010
0100
0100
0000
,
0010
0001
1000
0010
0100
0000
0001
0010
,
0100
0100
0000
1000
0010
0100
0100
0000
,
0001
0010
0100
1000
0100
0010
0001
1000
,
0010
0100
0001
1000
0100
0010
0001
0000
,
1000
0010
0100
0001
0010
0100
1000
0100
,
0010
0001
1000
0010
0100
0001
1000
0000
,
0001
0100
0001
0100
0010
0100
0010
0100
,
1000
0100
1000
0100
0010
0100
0010
0100
,
0001
0010
0001
0010
0100
0010
0100
0010
,
1000
0010
1000
0010
0100
0010
0100
0010
,
0001
1000
0001
1000
0010
1000
0010
1000
,
0100
1000
0100
1000
0010
1000
0010
1000
,
0001
0010
0001
0010
1000
0010
1000
0010
,
0001
0100
0001
0100
1000
0100
1000
0100
,
0010
1000
0100
0010
0001
0010
0100
1000
,
0010
0100
0001
1000
0100
0010
0001
0010
,
0100
1000
0010
0100
0001
1000
0100
0010
,
0001
0010
0100
1000
0001
0100
0010
1000
,
0010
0100
0001
0010
0100
1000
0100
0010
,
0001
1000
0010
0100
0001
0100
0010
1000
,
0100
0010
0001
0010
0100
1000
0001
0100
,
0010
1000
0001
0100
0010
1000
0001
1000
,
0001
0000
0100
0000
0010
0000
1000
0000
0001
0000
0000
0101
0000
0000
0110
0000
,
0010
0000
1000
0000
0001
0000
1000
0000
0010
0000
0000
1010
0000
0000
1100
0000
,
1000
0000
0001
0000
0010
0000
0001
0000
0100
0000
0000
0101
0000
0000
1001
0000
,
1000
0000
0001
0000
0010
0000
0001
0000
0100
0000
0000
0110
0000
0000
1010
0000
,
1000
0000
0010
0000
0100
0000
0010
0000
1000
0000
0000
1010
0000
0000
1001
0000
,
0001
0000
0010
0000
0100
0000
0010
0000
0001
0000
0000
1001
0000
0000
1010
0000
,
0010
0000
1000
0000
0100
0000
0010
0000
0001
0000
0000
0101
0000
0000
1010
0000
,
1001
0000
0000
0000
;

//---------------dance-single - Copied from Copied f----------------
#NOTES:
     dance-single:
     Copied from Copied f:
     Easy:
     6:
     0.443,0.490,0.218,0.186,0.000: // measure 1
0000
0000
0000
0000
,  // measure 2
1000
0100
1000
0000
0001
0000
0100
0000
,  // measure 3
0001
0100
0001
0000
1000
0000
0100
0000
,  // measure 4
1000
0010
1000
0000
0001
0000
0010
0000
,  // measure 5
0001
0010
0001
0000
1000
0000
0010
0000
,  // measure 6
1000
0001
1000
0000
0001
0000
0100
0000
,  // measure 7
0001
1000
0001
0000
1000
0000
0100
0000
,  // measure 8
1000
0001
1000
0000
0001
0000
0100
0000
,  // measure 9
0010
0000
0000
0000
,  // measure 10
0001
0100
0010
0000
1000
0000
0100
0000
,  // measure 11
1000
0010
0100
0000
0001
0000
1000
0000
,  // measure 12
0010
0100
0001
0000
1000
0000
0010
0000
,  // measure 13
0100
0001
0010
0000
0001
0000
1000
0000
,  // measure 14
0010
1000
0100
0000
1000
0000
0001
0000
,  // measure 15
0010
0001
0100
0000
0001
0000
1000
0000
,  // measure 16
0001
0100
0001
0000
1000
0010
1000
0000
,  // measure 17
0001
0100
0010
0000
0000
0000
0000
0000
,  // measure 18
1000
0001
1000
0000
0100
0000
0100
0000
,  // measure 19
0001
1000
0001
0000
0100
0000
0100
0000
,  // measure 20
1000
0001
1000
0000
0010
0000
0010
0000
,  // measure 21
0001
1000
0001
0000
0010
0000
0010
0000
,  // measure 22
0001
1000
0100
0000
1000
0000
1000
0000
,  // measure 23
1000
0001
0010
0000
0001
0000
0001
0000
,  // measure 24
0010
0001
0100
0000
0010
0000
0010
0000
,  // measure 25
0010
1000
0100
0000
0010
0000
0010
0000
,  // measure 26
0001
0100
0010
0000
1000
0100
0010
0000
,  // measure 27
0001
0100
0010
0000
0000
0000
0000
0000
,  // measure 28
2000
0000
0100
0000
,  // measure 29
0100
0000
0100
0000
,  // measure 30
3002
0000
0100
0000
,  // measure 31
0100
0000
0100
0000
,  // measure 32
2003
0000
0010
0000
,  // measure 33
0010
0000
0010
0000
,  // measure 34
3002
0000
0010
0000
,  // measure 35
0010
0000
0010
0000
,  // measure 36
2003
0010
0010
0010
,  // measure 37
0010
0010
0010
0010
,  // measure 38
3002
0010
0010
0010
,  // measure 39
0010
0010
0010
0010
,  // measure 40
2003
0100
0100
0100
,  // measure 41
0100
0100
0100
0100
,  // measure 42
3002
0100
0100
0100
,  // measure 43
0100
0100
0100
0100
,  // measure 44
0103
0001
0100
0000
0001
0000
1000
0000
,  // measure 45
0100
1000
0100
0000
1000
0000
0010
0000
,  // measure 46
0100
0001
0100
0000
0010
0000
1000
0000
,  // measure 47
0100
0010
0100
0000
0010
0000
0001
0000
,  // measure 48
1000
0010
1000
0000
0001
0000
0010
0000
,  // measure 49
0001
0100
0001
0000
0100
0000
0010
0000
,  // measure 50
1000
0010
1000
0000
0001
0000
0010
0000
,  // measure 51
0001
0000
0000
0000
,  // measure 52
1000
0010
0100
0000
0001
0000
0010
0000
,  // measure 53
0001
0100
0010
0000
1000
0000
0001
0000
,  // measure 54
0100
0010
1000
0000
0001
0000
1000
0000
,  // measure 55
0010
1000
0100
0000
1000
0000
0001
0000
,  // measure 56
0010
0001
0100
0000
0010
0000
1000
0000
,  // measure 57
0100
0010
0001
0000
1000
0000
0001
0000
,  // measure 58
0010
0100
1000
0000
0010
0100
0001
0000
,  // measure 59
1000
0010
0100
0000
0000
0000
0000
0000
,  // measure 60
0002
0203
2300
3200
,  // measure 61
0302
0000
1000
1003
,  // measure 62
2000
3200
0302
0203
,  // measure 63
2300
0000
0001
3001
,  // measure 64
0020
2030
3200
0302
,  // measure 65
0203
0000
0010
0310
,  // measure 66
0002
0203
2300
3200
,  // measure 67
0320
0000
1000
1030
,  // measure 68
1000
0001
1000
0001
,  // measure 69
0100
0001
0100
0001
,  // measure 70
0100
0010
0100
0010
,  // measure 71
1000
0010
1000
0010
,  // measure 72
1000
0001
1000
0001
,  // measure 73
0100
0001
0100
0001
,  // measure 74
1000
0010
1000
0010
,  // measure 75
0100
0001
0100
0001
,  // measure 76
1000
0010
0100
0001
,  // measure 77
0010
0100
1000
0010
,  // measure 78
0100
0001
1000
0100
,  // measure 79
0010
0001
1000
0001
,  // measure 80
1000
0001
1001
1000
,  // measure 81
1001
0001
1001
1000
,  // measure 82
0001
0100
0110
0010
,  // measure 83
0110
0100
0110
0010
,  // measure 84
1000
0001
1001
0100
,  // measure 85
1001
0100
1001
0100
,  // measure 86
0010
1000
0110
0001
,  // measure 87
0110
1000
0110
0001
,  // measure 88
0100
0110
1010
0101
,  // measure 89
0001
1001
1010
0101
,  // measure 90
1000
1010
0101
0011
,  // measure 91
0001
0101
1010
1100
,  // measure 92
1000
1001
0101
0011
,  // measure 93
0001
1001
1010
1100
,  // measure 94
0010
0101
1100
1010
,  // measure 95
0020
0000
0130
0000
,  // measure 96
0001
1000
0001
0000
0100
0000
0010
0000
,  // measure 97
1000
0001
1000
0000
0010
0000
0100
0000
,  // measure 98
0001
0010
0001
0000
1000
0000
0010
0000
,  // measure 99
1000
0100
1000
0000
0010
0000
0100
0000
,  // measure 100
0001
0010
0100
0000
1000
0000
0010
0000
,  // measure 101
0100
0010
1000
0000
0001
0000
1000
0000
,  // measure 102
0100
0010
0001
0000
1000
0000
0001
0000
,  // measure 103
1001
0000
0000
0000
;

//---------------dance-single - Copied from Copied f----------------
#NOTES:
     dance-single:
     Copied from Copied f:
     Beginner:
     3:
     0.234,0.327,0.167,0.083,0.000:
0000
0000
0000
0000
,
1000
0000
1000
0000
,
0001
0000
0001
0000
,
0100
0000
0100
0000
,
0010
0000
0010
0000
,
1000
0000
1000
0000
,
0010
0000
0010
0000
,
0100
0000
0100
0000
,
0001
0000
0000
0000
,
1000
0000
0001
0000
,
1000
0000
0001
0000
,
0100
0000
0010
0000
,
0100
0000
0010
0000
,
1000
0000
0100
0000
,
1000
0000
0100
0000
,
0010
0000
0001
0000
,
1000
0000
0000
0000
,
1001
0000
0000
0000
,
0001
0000
0000
0000
,
1001
0000
0000
0000
,
1000
0000
0000
0000
,
0110
0000
0010
0000
,
0010
0000
0010
0000
,
1001
0000
1000
0000
,
1000
0000
1000
0000
,
1001
0000
0110
0000
,
1001
0000
0000
0000
,
0002
0000
0000
0000
,
0000
0000
0000
0000
,
2003
0000
0000
0000
,
0000
0000
0000
0000
,
3020
0000
0000
0000
,
0000
0000
0000
0000
,
0230
0000
0000
0000
,
0000
0000
0000
0000
,
0302
0000
0010
0000
,
0010
0000
0010
0000
,
2003
0000
0010
0000
,
0010
0000
0010
0000
,
3002
0000
0100
0000
,
0100
0000
0100
0000
,
2003
0000
0100
0000
,
0100
0000
0100
0000
,
3100
0000
1000
0000
,
0100
0000
1000
0000
,
0001
0000
0010
0000
,
0001
0000
0010
0000
,
0001
0000
1000
0000
,
0001
0000
1000
0000
,
0010
0000
0100
0000
,
0010
0000
0000
0000
,
1000
0000
0100
0000
,
1000
0000
0001
0000
,
0010
0000
0001
0000
,
0100
0000
0001
0000
,
1000
0000
0010
0000
,
1000
0000
0001
0000
,
0010
0000
1000
0000
,
0100
0000
0000
0000
,
1000
1000
0000
1000
,
1000
0000
1000
1000
,
0001
0001
0000
0001
,
0001
0000
0001
0001
,
0100
0100
0000
0100
,
0100
0000
0100
0100
,
0010
0010
0000
0010
,
0010
0000
0010
0010
,
1000
0001
0000
0001
,
1000
0000
1000
0001
,
0100
0010
0000
0010
,
0100
0000
0100
0010
,
1000
0100
0000
0100
,
1000
0000
1000
0001
,
0010
0001
0000
0001
,
0100
0000
0100
0001
,
1001
0000
1100
0000
,
0101
0000
0000
0000
,
0101
0000
0011
0000
,
1010
0000
0000
0000
,
1000
0000
1010
0000
,
1100
0000
0101
0000
,
0001
0000
0101
0000
,
1100
0000
1010
0000
,
0010
0000
0110
0000
,
0101
0000
0011
0000
,
0010
0000
0011
0000
,
0101
0000
1100
0000
,
2000
0001
0001
0001
,
0001
0001
0001
3001
,
0002
0100
0100
0100
,
0100
0100
0100
0100
,
0203
0010
0010
0010
,
0010
0010
0010
0010
,
0320
1000
1000
1000
,
2030
0000
3001
0000
,
1000
0100
1000
0000
,
0001
0100
0001
0000
,
1000
0010
1000
0000
,
0001
0010
0001
0000
,
1000
0100
0010
0000
,
0001
0100
0010
0000
,
1000
0010
0100
0000
,
1001
0000
0000
0000
;
