#TITLE:Electro Sylph;
#SUBTITLE:;
#ARTIST:Shiki;
#TITLETRANSLIT:;
#SUBTITLETRANSLIT:;
#ARTISTTRANSLIT:;
#CREDIT:;
#BANNER:Electro-Sylph_bn.png;
#BACKGROUND:Electro-Sylph_bg.png;
#LYRICSPATH:;
#CDTITLE:CD_Title.png;
#MUSIC:Electro Sylph.mp3;
#OFFSET:-0.160;
#SAMPLESTART:54.460;
#SAMPLELENGTH:12.100;
#SELECTABLE:YES;
#BPMS:0.000=159.000;
#STOPS:;
#BGCHANGES:;

//---------------dance-single - ----------------
#NOTES:
     dance-single:
     :
     Beginner:
     2:
     0.158,0.224,0.032,0.189,0.000: // measure 1
0000
0000
0000
0000
,  // measure 2
0000
0000
0000
0000
,  // measure 3
0000
0000
0000
0000
,  // measure 4
0000
0000
0000
0000
,  // measure 5
0001
0000
0000
0000
,  // measure 6
1000
0000
0000
0000
,  // measure 7
0001
0000
0000
0000
,  // measure 8
1000
0000
0000
0000
,  // measure 9
0010
0000
0000
0000
,  // measure 10
0100
0000
0000
0000
,  // measure 11
0010
0000
0000
0000
,  // measure 12
0100
0000
0000
0000
,  // measure 13
0002
0000
0000
0000
,  // measure 14
1003
0000
1000
0002
,  // measure 15
0000
0000
0000
1003
,  // measure 16
0000
0000
0000
1000
,  // measure 17
0002
0000
0003
1000
,  // measure 18
0002
0000
1003
0000
,  // measure 19
0001
0000
0000
1000
,  // measure 20
0001
0001
1000
0000
,  // measure 21
0020
0000
0000
0000
,  // measure 22
0130
0000
0100
0020
,  // measure 23
0000
0000
0000
0130
,  // measure 24
0000
0000
0000
0100
,  // measure 25
0020
0000
0030
0010
,  // measure 26
0200
0000
0310
0000
,  // measure 27
0020
0000
0030
0010
,  // measure 28
0100
0100
0010
0000
,  // measure 29
1000
0000
1000
0000
,  // measure 30
0001
0000
0001
0000
,  // measure 31
0100
0000
0100
0000
,  // measure 32
0010
0000
0010
0000
,  // measure 33
1000
0000
0001
0000
,  // measure 34
1000
0000
0001
0000
,  // measure 35
0100
0000
0010
0000
,  // measure 36
0100
0000
0010
0000
,  // measure 37
2000
0000
0000
0000
,  // measure 38
0000
0000
3000
0000
,  // measure 39
0001
0000
1000
0000
,  // measure 40
0001
0000
1000
0000
,  // measure 41
0002
0000
0000
0000
,  // measure 42
0000
0000
0003
0000
,  // measure 43
0100
0000
0010
0000
,  // measure 44
0100
0000
0010
0000
,  // measure 45
0200
0000
0000
0000
,  // measure 46
0000
0000
0300
0000
,  // measure 47
0010
0000
0100
0000
,  // measure 48
0010
0000
0100
0000
,  // measure 49
0020
0000
0000
0000
,  // measure 50
0000
0000
0030
0000
,  // measure 51
1000
0000
0001
0000
,  // measure 52
0100
0000
0010
0000
,  // measure 53
2000
0000
0000
0000
,  // measure 54
3200
0000
0000
0000
,  // measure 55
0320
0000
0000
0000
,  // measure 56
0032
0000
0000
0000
,  // measure 57
1003
0000
0000
0000
,  // measure 58
1001
0000
0000
0000
,  // measure 59
0110
0000
0000
0000
,  // measure 60
1001
0000
0001
0000
,  // measure 61
2000
0000
0000
0000
,  // measure 62
3000
0000
0000
0000
;

//---------------dance-single - Copied from----------------
#NOTES:
     dance-single:
     Copied from:
     Easy:
     4:
     0.377,0.417,0.347,0.294,0.000:
0000
0000
0000
0000
,
0000
0000
0000
0000
,
0000
0000
0000
0000
,
0000
0000
0000
0000
,
0001
0001
0001
0001
,
0100
0100
0100
0100
,
0010
0010
0010
0010
,
1000
1000
1000
1000
,
0001
0100
0001
0100
,
0010
1000
0010
1000
,
0100
0010
0100
0010
,
0001
0100
0001
1000
,
1001
0000
1000
0001
,
0200
0000
0310
0110
,
0200
0000
0000
0300
0000
0001
0000
1001
,
0000
0000
0001
1000
,
0020
0000
0030
0100
,
0120
0030
2000
3000
,
0001
0001
1000
0010
,
0000
0110
1001
0000
,
0002
1000
0100
1000
,
2003
0010
0001
0010
,
3020
0130
0010
0110
,
0200
0010
0001
0310
,
0002
1000
0010
0100
,
0203
0010
0001
1000
,
0320
1000
0001
0130
,
0001
1000
1001
0000
,
2000
3001
1000
0010
,
0200
0310
1000
0001
,
0020
0130
0010
0001
,
2000
3100
0110
1001
,
0002
0103
0010
1000
,
0200
1300
0010
0100
,
0002
1003
0100
1000
,
0020
0130
0001
1000
,
1001
0001
0100
0010
,
1000
1010
1001
0000
,
0001
1000
0010
0100
,
0001
0011
1001
0011
,
1000
0010
0100
0001
,
0010
0011
0101
0000
,
0001
1000
0100
1000
,
0010
1010
1001
0011
,
1000
0010
0100
0001
,
1000
1010
1001
0000
,
0001
0100
0010
1000
,
0100
0110
0101
0110
,
0010
0001
0100
0010
,
0110
1010
0110
0000
,
0010
1000
0001
0100
,
0101
1001
1010
1001
,
0200
0000
0000
0000
,
0320
0000
0000
0000
,
2030
0000
0000
0000
,
3002
0000
1003
0001
,
0200
0000
0000
0000
,
0320
0000
0000
0000
,
2030
0000
0000
0000
,
3001
0100
0010
1000
,
0002
0000
0000
0000
,
0003
0000
0000
0000
;

//---------------dance-single - Copied from Copied f----------------
#NOTES:
     dance-single:
     Copied from Copied f:
     Medium:
     6:
     0.422,0.449,0.042,0.263,0.063:
0000
0000
0000
0000
,
0000
0000
0000
0000
,
0000
0000
0000
0000
,
0000
0000
0000
0000
,
0001
0010
0001
0000
0001
0000
0001
0000
,
0100
0010
0100
0000
0100
0000
0100
0000
,
0010
1000
0010
0000
0010
0000
0010
0000
,
1000
0100
1000
0000
1000
0000
1000
0000
,
0001
0100
0010
0000
1000
0000
0100
0000
,
1000
0010
0100
0000
0001
0000
0010
0000
,
0001
1000
0100
0000
1000
0000
0001
0000
,
0010
0001
1000
0000
0001
0010
0100
2000
,
0000
0000
0000
0000
0000
3000
0000
0020
,
0000
0000
0000
0030
0100
0000
0001
2000
,
0000
0000
0000
0000
3000
0100
1000
0020
,
0000
0000
0000
0000
0000
0130
0000
0001
,
2000
0000
0000
0000
0000
3100
0000
1000
,
0020
0000
0230
0000
,
0302
0000
0000
0000
0003
0010
0001
0100
,
0000
0100
0001
0000
1000
0001
0000
0000
,
0201
0000
0000
0000
0000
0000
0000
0320
,
0000
0000
0000
0030
1000
0000
0010
0200
,
0000
0000
0000
0000
0300
0010
1000
0200
,
0000
0000
0000
0000
0000
0310
0000
0010
,
0002
0000
0000
0000
0003
1000
0000
0001
,
2000
0000
3200
0000
,
0320
0000
0000
0000
0030
0001
0100
0010
,
0000
0010
1000
0000
0001
1000
0000
0000
,
0100
0000
1000
0000
0010
0100
0010
1000
,
0100
0000
1000
0000
0100
1000
0010
1000
,
0001
0000
0010
0000
0001
0100
0001
1000
,
0010
0110
1000
1001
,
0001
0000
0100
0000
0010
1000
0001
0010
,
0100
0000
0010
0000
0001
1000
0010
0100
,
0001
0000
1000
0000
0100
1000
0001
0100
,
0010
0000
1000
0000
0001
0100
0010
1000
,
0001
0000
0000
0000
1000
0000
0000
0000
0001
0000
0000
0001
0000
0000
0001
0000
,
1000
0000
0000
1000
0000
0000
1000
0000
1000
0000
0000
0000
0000
0000
0000
0000
,
0010
0000
0000
0000
0100
0000
0000
0000
0001
0000
0000
0001
0000
0000
0001
0000
,
1000
0000
1000
0001
0000
1000
0000
0001
,
1000
0000
0000
0000
0001
0000
0000
0000
0010
0000
0000
0010
0000
0000
0010
0000
,
0100
0000
0000
0100
0000
0000
0100
0000
0100
0000
0000
0000
0000
0000
0000
0000
,
0010
0000
0000
0000
1000
0000
0000
0000
0001
0000
0000
0001
0000
0000
0001
0000
,
1000
0000
1000
0010
0000
0010
0100
0000
,
0001
0000
0000
0000
1000
0000
0000
0000
0100
0000
0000
0100
0000
0000
0100
0000
,
1000
0000
0000
1000
0000
0000
1000
0000
1000
0000
0000
0000
0000
0000
0000
0000
,
0001
0000
0000
0000
0100
0000
0000
0000
0010
0000
0000
0010
0000
0000
0010
0000
,
1000
0000
0010
0100
0000
0001
0000
0100
,
0010
0000
0000
0000
1000
0000
0000
0000
0100
0000
0000
0100
0000
0000
0100
0000
,
0010
0000
0000
0010
0000
0000
0010
0000
0010
0000
0000
0000
0000
0000
0000
0000
,
1000
0000
0000
0000
0001
0000
0000
0000
0100
0000
0000
0010
0000
0000
0100
0000
,
0010
0000
1000
0001
0000
0100
0000
0001
,
1000
0100
2000
0000
0001
0000
3100
0000
,
0001
0100
0002
0000
1000
0000
0103
0000
,
1000
0010
2000
0000
0001
0000
3010
0000
,
0001
0010
0001
0000
1000
0001
0010
0001
,
1000
0010
2000
0000
0001
0000
3100
0000
,
0001
0100
0002
0000
1000
0000
0013
0000
,
0100
0010
0200
0000
0001
0000
0310
0000
,
0010
0100
0020
0000
1000
0000
0130
0000
,
2002
0000
0000
0000
,
3003
0000
0000
0000
;

//---------------dance-single - Copied from Copied f----------------
#NOTES:
     dance-single:
     Copied from Copied f:
     Hard:
     8:
     0.619,0.641,0.273,0.463,0.300:
0000
0000
0000
0000
,
0000
0000
0000
0000
,
0000
0000
0000
0000
,
0000
0000
0000
0000
,
0001
0000
0100
0000
0010
0000
0000
1000
0000
0100
0000
0000
1000
0000
0010
0000
,
0100
0000
0001
0000
0010
0000
0000
0001
0000
0100
0000
0000
0010
0000
1000
0000
,
0001
0000
0100
0000
0010
0000
0000
1000
0000
0001
0000
0000
0100
0000
0001
0000
,
1000
0000
0010
0000
0100
0000
0000
0001
0000
1000
0000
0000
0100
0000
1000
0000
,
0010
0000
0100
0000
0001
0000
0000
0010
0000
0100
0000
0000
1000
0000
0010
0000
,
0100
0000
0001
0000
0010
0000
0000
0100
0000
0010
0000
0000
1000
0000
0001
0000
,
0010
0000
0100
0000
1000
0000
0000
0001
0000
0100
0000
0000
0001
0000
1000
0000
,
0100
0010
0001
0000
1000
0010
0100
0001
,
2000
0100
0100
0000
3100
1000
0001
0020
,
0000
0100
0130
0000
0010
0001
0100
0002
,
0000
0100
0100
0003
0001
0010
0100
2000
,
0000
0001
0001
0000
3001
0100
0010
1000
,
0002
0010
0013
0000
0010
0001
0100
0020
,
0200
0030
0310
1000
1001
0000
0001
0000
,
0200
0000
0310
0000
2000
0001
3010
0200
,
0000
0310
0001
0000
0001
1000
0000
0000
,
0002
0010
0010
0000
0013
0001
1000
0200
,
0000
0010
0310
0000
0100
1000
0010
2000
,
0000
0010
0010
3000
1000
0100
0010
0002
,
0000
1000
1000
0000
1003
0010
0100
0001
,
2000
0100
3100
0000
0100
1000
0010
0200
,
0020
0300
0130
0001
1001
0000
1000
0000
,
0020
0000
0130
0000
0002
1000
0103
0020
,
0000
0130
1000
0000
1000
0001
0000
0000
,
1000
0000
0000
0100
0000
0000
1000
0000
0010
0000
0100
0000
0001
0000
0010
0000
,
0100
0000
0000
0010
0000
0000
0100
0000
0010
0000
0001
0000
1000
0000
0010
0000
,
1000
0000
0000
0001
0000
0000
1000
0000
0010
0000
0100
0000
0001
0000
0010
0000
,
0100
0000
0000
0010
0000
0000
0100
0000
0001
0000
0000
1000
0000
0000
0001
0000
,
1000
0000
0000
0100
0000
0000
1100
0000
1000
0000
0001
0000
0010
0000
0100
0000
,
0010
0000
0000
0001
0000
0000
0011
0000
0001
0000
1000
0000
0010
0000
0100
0000
,
0010
0000
0000
1000
0000
0000
1001
0000
0001
0000
0010
0000
0001
0000
0100
0000
,
0010
0000
0000
1000
0000
0000
1100
0000
0001
0000
0000
0100
0000
0000
0101
0000
,
0001
0000
0000
0000
0010
0000
0000
0000
0001
0000
0000
0011
0000
0000
0001
0000
,
0100
0000
0000
0110
0000
0000
0010
0000
1010
0000
0000
0000
0000
0000
0000
0000
,
1020
0000
0000
0000
2030
0000
0000
0000
3200
0000
0000
0301
0000
0000
0100
0000
,
0010
0000
0001
1000
0000
0010
0000
0010
,
1000
0000
0000
0000
0001
0000
0000
0000
0100
0000
0000
0110
0000
0000
0010
0000
,
1000
0000
0000
1100
0000
0000
0100
0000
0110
0000
0000
0000
0000
0000
0000
0000
,
0021
0000
0000
0000
0032
0000
0000
0000
0203
0000
0000
1300
0000
0000
0100
0000
,
0002
0000
0013
0001
0000
0100
0010
0000
,
1000
0000
0000
0000
0100
0000
0000
0000
1000
0000
0000
1010
0000
0000
0010
0000
,
0100
0000
0000
0101
0000
0000
0001
0000
1001
0000
0000
0000
0000
0000
0000
0000
,
1020
0000
0000
0000
0032
0000
0000
0000
0023
0000
0000
1000
0030
0000
0100
0000
,
0110
0000
0010
0001
0000
0110
0000
1000
,
0100
0000
0000
0000
1000
0000
0000
0000
0010
0000
0000
0110
0000
0000
0100
0000
,
0001
0000
0000
0011
0000
0000
1000
0000
1001
0000
0000
0000
0000
0000
0000
0000
,
0021
0000
0000
0000
2030
0000
0000
0000
3002
0000
0000
0103
0000
0000
1000
0000
,
0002
0000
0103
0010
0000
1000
0001
0000
,
2000
0000
0100
0000
3100
0000
0000
1000
0000
0001
0000
0010
0001
0000
0100
0000
,
0002
0000
0010
0000
0013
0000
0000
0001
0000
1000
0000
0100
1000
0000
0010
0000
,
0200
0000
0010
0000
0310
0000
0000
0100
0000
0001
0000
1000
0100
0000
1000
0000
,
0020
0000
0000
0130
0000
0100
0010
1000
,
0002
0000
1000
0000
0103
0000
0000
1000
0000
0001
0000
0001
0100
0000
0010
0000
,
2000
0000
0001
0000
3100
0000
0000
0001
0000
1000
0000
1000
0100
0000
1000
0000
,
0020
0000
0100
0000
1030
0000
0000
0100
0000
0001
0000
0010
0100
0000
0010
0000
,
0200
0000
0010
0000
0301
0000
0000
0010
0000
0001
0000
1000
0010
0000
0100
0000
,
0220
0000
0000
0000
,
0330
0000
0000
0000
;

//---------------dance-single - Copied from Copied f----------------
#NOTES:
     dance-single:
     Copied from Copied f:
     Challenge:
     9:
     0.802,0.770,1.000,0.189,0.489:
0000
0000
0000
0000
,
0000
0000
0000
0000
,
0000
0000
0000
0000
,
0000
0000
0000
0000
,
0001
0100
0001
0100
0001
0000
1000
0010
0000
0010
0100
0000
0001
0000
1000
0000
,
0100
1000
0100
1000
0100
0000
1000
0010
0000
0010
0100
0000
0001
0000
0010
0000
,
0001
0100
0001
0100
0001
0000
1000
0100
0000
0100
0010
0000
0001
0000
0100
0000
,
0010
0100
0010
0100
0010
0000
1000
0001
0000
0001
0010
0000
0001
0000
0100
0000
,
0010
1000
0010
0100
0001
0000
0010
0001
0000
0001
0100
0000
0010
0000
1000
0000
,
0100
1000
0010
0100
0001
0000
0010
0001
0000
0001
0100
0000
0010
0000
1000
0000
,
0010
0100
0001
1000
0100
0000
1000
0010
0000
0010
0100
0000
0001
0000
0010
0000
,
0001
0100
0010
0000
1000
0000
0100
1000
0010
0000
0100
0000
0010
0100
0001
0000
,
1000
0100
1100
0000
0100
0010
0001
0011
,
0000
0101
0001
0000
0100
0010
1000
1010
,
0000
1000
1001
0000
0011
0010
0100
1100
,
0000
1000
1001
0000
0010
0110
0000
1000
,
1001
0010
0011
0000
0100
0110
0000
0010
,
1010
1000
0110
0000
0010
0001
0110
0000
,
1000
0010
0110
0000
0001
0100
0110
1001
,
0000
1010
0101
0000
0011
1100
0000
0000
,
0101
0001
0010
0000
0010
0100
1000
1100
,
0000
1010
1000
0000
0010
0100
0001
0101
,
0000
0001
1001
0000
1100
0100
0010
0011
,
0000
0001
1001
0000
0100
0110
0000
0001
,
1001
0100
1100
0000
0010
0110
0000
0100
,
0101
0001
0110
0000
0100
1000
0110
0000
,
0001
0100
0110
0000
1000
0010
0110
1001
,
0000
0101
1010
0000
1100
0011
0000
0000
,
1000
0000
0100
1000
0000
0100
1000
0000
0010
0000
0100
0000
0001
0000
0010
0000
,
0100
0000
0010
0001
0000
0010
0001
0000
0100
0000
0010
0000
1000
0000
0001
0000
,
0100
0000
0001
0100
0000
0001
0100
0000
0010
0000
1000
0000
0100
0000
0010
0000
,
0001
0000
0100
0001
0000
0100
0001
0000
1000
0000
0010
1000
0000
0010
1000
0000
,
0001
0000
0100
0010
0000
1000
0100
0000
1000
0000
0010
0000
0100
0000
0001
0000
,
0010
0000
0001
0100
0000
0010
1000
0000
0100
0000
0010
0000
0001
0000
0100
0000
,
0001
0000
0010
0100
0000
1000
0010
0000
0100
0000
0001
0000
0010
0000
0100
0000
,
1000
0000
0010
1000
0000
0010
0100
0000
0001
0000
0010
0001
0000
0100
0010
0000
,
1010
0000
0000
0000
1000
0000
0000
0000
1100
0000
0000
0110
0000
0000
0011
0000
,
1001
0000
0000
1010
0000
0000
1100
0000
1001
0000
0000
0000
0000
0000
0000
0000
,
0021
0000
0000
0000
2030
0000
0000
0000
3020
0000
0000
0031
0000
0000
0100
0000
,
2000
0000
3100
0101
0000
0011
0000
1010
,
1100
0000
0000
0000
0001
0000
0000
0000
0101
0000
0000
0011
0000
0000
0101
0000
,
1001
0000
0000
1010
0000
0000
1100
0000
1001
0000
0000
0000
0000
0000
0000
0000
,
1200
0000
0000
0000
0302
0000
0000
0000
0203
0000
0000
1300
0000
0000
0010
0000
,
0002
0003
0011
1010
0000
1100
1001
0000
,
0011
0000
0000
0000
1000
0000
0000
0000
1100
0000
0000
1010
0000
0000
0011
0000
,
1010
0000
0000
1100
0000
0000
0101
0000
1001
0000
0000
0000
0000
0000
0000
0000
,
1200
0000
0000
0000
0302
0000
0000
0000
0203
0000
0000
1300
0000
0000
0010
0000
,
0002
0000
0013
1010
0000
1100
0000
0101
,
0011
0000
0000
0000
0001
0000
0000
0000
1010
0000
0000
0011
0000
0000
0101
0000
,
0110
0000
0000
1010
0000
0000
1100
0000
1001
0000
0000
0000
0000
0000
0000
0000
,
0021
0000
0000
0000
2030
0000
0000
0000
3020
0000
0000
0031
0000
0000
0100
0000
,
2000
3000
1100
0101
0000
0011
1001
0000
,
1000
0100
1000
0100
1000
0000
0010
0100
0000
0100
0010
0000
1000
0000
0001
0000
,
0010
0001
0010
0001
0010
0000
0001
0100
0000
0100
0010
0000
1000
0000
0001
0000
,
0100
0001
0100
0001
0100
0000
0010
1000
0000
1000
0010
0000
0100
0000
0001
0000
,
1000
0100
1000
0000
1001
0000
0001
0010
0000
0010
0001
0000
0100
0000
0010
0000
,
1000
0010
0100
0001
0100
0000
0010
1000
0000
1000
0100
0000
1000
0000
0001
0000
,
0010
0001
0100
0001
0010
0000
0001
1000
0000
1000
0100
0000
1000
0000
0010
0000
,
1000
0010
0100
0010
1000
0000
0001
0100
0000
0100
0010
0000
1000
0000
0001
0000
,
0100
0010
1000
0000
0100
0000
0010
0001
0100
0000
0010
0000
1000
0100
0010
0000
,
0022
0000
0000
0000
,
0033
0000
0000
0000
;
