#TITLE:Egg Fleet;
#SUBTITLE:(From Sonic Heroes);
#ARTIST:Jun Senoue;
#TITLETRANSLIT:;
#SUBTITLETRANSLIT:;
#ARTISTTRANSLIT:;
#CREDIT:;
#BANNER:Sonic Heroes_bn.png;
#BACKGROUND:SonicHeroesWallpaper3800.jpg;
#LYRICSPATH:;
#CDTITLE:CD_Title.png;
#MUSIC:Egg Fleet.mp3;
#OFFSET:0.910;
#SAMPLESTART:7.420;
#SAMPLELENGTH:11.980;
#SELECTABLE:YES;
#BPMS:0.000=180.001;
#STOPS:;
#BGCHANGES:;

//---------------dance-single - ----------------
#NOTES:
     dance-single:
     :
     Beginner:
     2:
     0.188,0.334,0.144,0.000,0.000:
0000
0000
0000
0000
,
0000
0000
0000
0000
,
0000
0000
0000
0000
,
0000
0000
0000
0000
,
0000
0000
0000
0000
,
1000
0000
0000
0000
,
0001
0000
0000
0000
,
1000
0000
0000
0000
,
0001
0000
0000
0000
,
0100
0000
0000
0000
,
0010
0000
0000
0000
,
0100
0000
0000
0000
,
0010
0000
1000
0000
,
0001
0000
0000
0000
,
1000
0000
0000
0000
,
0001
0000
0000
0000
,
1000
0000
0010
0010
,
0010
0000
0000
0000
,
0100
0000
0000
0000
,
0001
0000
0000
0000
,
1000
0000
0100
0000
,
1000
0000
0000
0000
,
1001
0000
0000
0000
,
0001
0000
0000
0100
,
0100
0000
0000
0000
,
1000
0000
1000
0000
,
0001
0000
0001
0000
,
0100
0000
0100
0000
,
0010
0000
0010
0000
,
1000
0000
1000
0000
,
0100
0000
0100
0000
,
0010
0000
0000
0000
,
0001
0000
0000
0000
,
0010
0000
0000
0000
,
0100
0000
0000
0000
,
1001
0000
0000
0000
,
1001
0000
0000
0000
,
0110
0000
0000
0000
,
1000
0000
0001
0000
,
0110
0000
0000
0000
,
0010
0000
1000
0000
,
1001
0000
0000
0000
,
0110
0000
0000
0000
,
1001
0000
0000
0000
,
0110
0000
0000
0000
,
1001
0000
0000
0000
,
1000
0000
0010
0000
,
0110
0000
0000
0000
,
0010
0000
0100
0000
,
0001
0000
0000
0000
,
1000
0000
0100
0000
,
1000
0000
0100
0000
,
0010
0000
0001
0000
,
1000
1000
1000
1000
,
0000
0000
0000
0000
,
0001
0001
0001
0001
,
0000
0000
0000
0000
,
0100
0100
0100
0100
,
0000
0000
0000
0000
,
0010
0010
0010
0010
,
0010
0000
1000
1000
,
0001
0000
0000
0000
,
1000
0000
0010
0000
,
1000
0000
0000
0000
,
0001
0000
0100
0000
,
0001
0000
0000
0000
,
1001
0000
1000
1000
,
0001
0000
0001
0001
,
0100
0000
0100
0100
,
0010
0000
0000
0000
,
0100
0000
0010
0000
,
1000
0000
0000
0000
,
0010
0000
0100
0000
,
0001
0000
0000
0000
,
1001
0000
1000
1000
,
0001
0000
0001
0001
,
1001
0000
0000
0000
,
1000
0000
1000
0000
,
0001
0000
0001
0000
,
0100
0000
0100
0000
,
0010
0000
0010
0000
,
1000
0000
1000
0000
,
0100
0000
0100
0000
,
0010
0000
0000
0000
,
0001
0000
0000
0000
,
0010
0000
0000
0000
,
0100
0000
0000
0000
,
1001
0000
0000
0000
,
1001
0000
0000
0000
,
1000
0000
0001
0000
,
0110
0000
0000
0000
,
0001
0000
1000
0000
,
0110
0000
0000
0000
,
0010
0000
0010
0000
,
1000
0000
1000
0000
,
0001
0000
0001
0000
,
1001
0000
0000
0000
,
0100
0000
1000
0000
,
1001
0000
0000
0000
,
0010
0000
0001
0000
,
1001
0000
0000
0000
,
0100
0000
0100
0000
,
0001
0000
0001
0000
,
1000
0000
1000
0000
,
0001
0001
0001
0001
,
0000
0000
0000
0000
,
1000
0000
1000
0000
,
0010
0000
0010
0000
,
0100
0000
0100
0000
,
0001
0001
0001
0001
,
0001
0000
1000
0000
,
0001
0000
1000
0000
,
0010
0000
0100
0000
,
0110
0000
0000
0000
;

//---------------dance-single - Copied from----------------
#NOTES:
     dance-single:
     Copied from:
     Easy:
     5:
     0.404,0.482,0.400,0.210,0.000:
0000
0000
0000
0000
,
0000
0000
0000
0000
,
0000
0000
0000
0000
,
0000
0000
0000
0000
,
0000
0000
0000
0000
,
1000
0001
1000
0001
,
0100
0010
1000
0000
,
0001
1000
0001
1000
,
0010
0100
0001
0001
,
1001
0000
1000
0001
,
0100
0000
0001
1000
,
0100
0000
1000
0010
,
0100
0000
0000
0010
0000
0000
1000
0000
,
1001
0000
0001
0000
1000
0000
0000
0110
,
0000
0000
1000
0010
,
0100
0000
0001
0000
0100
0000
0000
1001
,
0000
0000
0010
1000
,
1001
1000
0010
0100
,
0001
1000
0100
1000
,
0001
0100
0010
1000
,
0100
0000
0000
0110
0000
0000
0010
0000
,
0110
0000
1000
0000
0001
0000
0000
0110
,
0000
0000
1000
0001
,
0100
0000
0000
0010
0000
0000
0000
0002
,
0000
0000
0000
0000
,
2003
3010
0002
0013
,
2000
3010
0002
0103
,
0020
1030
0020
0031
,
0010
1000
0100
0010
,
0002
0103
2000
3100
,
0002
0103
2000
3100
,
0020
0001
0100
0001
,
2030
0010
0001
0010
,
3200
0010
1000
0010
,
0302
0000
0010
0000
1000
0000
0010
0003
,
1001
0000
0110
0000
,
1001
0000
0001
1000
,
0110
1000
1000
0001
,
0110
0000
0000
0010
0000
0000
0000
0000
,
0110
0001
0001
1000
,
0110
0000
0000
0100
0000
0000
0000
0000
,
1001
0010
0100
0100
,
0001
0000
0000
1001
0000
0000
0000
0000
,
1000
0000
0000
1001
0000
0000
0000
0000
,
0010
0000
0000
0110
0000
0000
0000
0000
,
1001
1000
0010
0010
,
0100
0000
0000
0011
0000
0000
0000
0000
,
1001
0001
0100
0100
,
0010
0000
0000
1100
0000
0000
0000
0000
,
1001
0010
1000
1000
,
0100
0000
0000
0011
0000
0000
0000
0000
,
0010
0000
0000
1100
0000
0000
0000
0000
,
0001
1000
0100
1000
,
0001
0010
0100
1000
,
0000
0000
0000
0000
,
1000
0100
0010
0001
,
0000
0000
0000
0000
,
0100
0010
1000
0001
,
0000
0000
0000
0000
,
0010
0100
0001
1000
,
0100
0000
0000
0010
0000
0010
0000
0000
,
1001
0000
1000
0001
,
0100
0000
0000
0110
0000
0000
0000
0000
,
1001
0000
0001
1000
,
0010
0000
0000
0110
0000
0000
0010
0000
,
0110
0000
0000
0000
1000
0000
0000
1001
,
0000
0000
0010
0100
,
0001
0000
0000
0000
1000
0000
0000
1001
,
0000
0000
0010
0100
,
0110
0000
1000
0001
,
0010
0000
0000
1010
0000
0000
0000
0000
,
0110
0000
0001
1000
,
0100
0000
0000
0101
0000
0000
0000
0000
,
0110
0000
1000
0000
0001
0000
0000
0110
,
0000
0000
0001
1000
,
0100
0000
0000
0010
0000
0000
0000
0002
,
0000
0000
0000
0000
0000
0000
0000
0003
,
2000
3010
0002
0013
,
2000
3010
0002
0103
,
0020
1030
0020
0031
,
0010
1000
0100
0010
,
0002
0103
2000
3100
,
0002
0103
2000
3100
,
0020
0001
0100
0001
,
2030
0010
0001
0010
,
3200
0010
1000
0010
,
0302
0000
0010
0000
1000
0000
0010
0003
,
1001
0000
0110
0000
,
1001
1000
0010
0100
,
0100
0000
0000
0101
0000
0000
0000
0000
,
1001
0001
1000
0010
,
0010
0000
0000
1010
0000
0000
0000
0000
,
1001
1000
0001
0001
,
1000
0000
0000
0101
0000
0000
0000
0000
,
0001
0000
0000
1100
0000
0000
0000
0000
,
0010
0000
0000
0101
0000
0000
1000
0000
,
1001
0010
0100
0100
,
0001
0000
0001
1000
0000
0000
0000
0000
,
1001
0100
0010
1000
,
1000
0001
0000
0000
0000
0000
0000
0000
,
0110
0010
1000
1000
,
0001
0000
0001
0010
0000
0000
0000
0000
,
0010
0000
0010
0100
0000
0000
0000
0000
,
1000
0100
0010
0001
,
1001
1100
1001
0101
,
1000
0000
0000
0100
0000
0010
0000
0001
,
2000
0000
0000
3100
0000
0000
0000
0000
,
0002
0000
0000
0103
0000
0000
0000
0000
,
0001
0010
0100
1000
,
1100
1001
0101
1001
,
1000
0100
0010
0001
,
0100
0010
1000
0001
,
0100
0001
0010
0100
,
0110
0000
0000
0000
;

//---------------dance-single - Copied from Copied f----------------
#NOTES:
     dance-single:
     Copied from Copied f:
     Hard:
     8:
     0.599,0.629,0.656,0.138,0.000:
0000
0000
0000
0000
,
0000
0000
0000
0000
,
0000
0000
0000
0000
,
0000
0000
0000
0000
,
0000
0000
0000
0000
,
1100
0101
1010
0011
,
0100
0010
0000
1000
0000
0100
0010
0001
,
0101
1100
1010
0011
,
0001
0100
0000
0010
0000
1000
0100
0010
,
1001
0000
1000
0100
0010
0001
0100
0010
,
0100
0000
0001
0010
0100
1000
0010
0100
,
0010
0000
1000
0100
0010
0001
0100
0010
,
0100
0000
0010
1001
0000
0000
0100
0000
,
1001
0000
0001
0010
0100
1000
0000
0110
,
0000
0000
1000
0010
,
0100
0000
0001
1000
0000
0100
0010
0011
,
0000
0000
0101
1100
,
1001
0000
1000
0010
0100
0001
0010
0100
,
0010
0000
0001
0010
0100
1000
0010
0100
,
0010
0000
1000
0100
0010
0001
0100
0010
,
0100
0000
0010
0110
0000
0000
1000
0000
,
1001
0000
0001
1000
0100
0010
0000
0110
,
0000
0000
0010
0001
,
0100
0000
0010
1000
0000
0100
1000
0020
,
0000
0000
0000
0030
,
0010
1000
0100
0000
0010
1000
0100
0000
,
0010
1000
0100
0000
0010
0100
0000
0001
,
0010
0001
0100
0000
0010
0001
0100
0000
,
0010
0001
0000
0101
0000
1100
0000
1000
,
0010
0100
0001
0000
0010
0001
0100
0000
,
0010
0001
0100
0000
0010
0001
0000
0100
,
0020
1000
0100
0001
,
0230
0001
0010
1300
,
0200
1000
0010
0001
,
0320
0000
0001
0000
0130
0000
0010
0001
,
1001
0100
0110
0001
,
1001
0000
1000
0010
0100
0001
0010
0100
,
1001
0000
1000
0010
1000
0010
0100
0001
,
0010
0000
0001
0011
0000
0000
1000
0000
,
1001
0000
0001
0100
0010
1000
0100
0010
,
0001
0000
1000
1100
0000
0000
0001
0000
,
0110
0000
0010
1000
0100
0010
0001
0100
,
0010
1000
0010
0200
0000
0000
0000
0000
,
0310
0100
1000
0020
0000
0000
0000
0000
,
0130
0001
0010
0200
0000
0000
0000
0300
,
1001
0000
0001
0100
0001
0100
0010
1000
,
0100
0000
1000
1100
0000
0000
0001
0000
,
1001
0000
1000
0010
0100
0001
0010
0100
,
1000
0000
0001
0011
0000
0000
1000
0000
,
0110
0000
0100
0001
0010
0100
1000
0010
,
0100
0001
0100
0020
0000
0000
0000
0000
,
0130
0010
0001
0200
0000
0000
0000
0000
,
0310
1000
0100
0001
,
0011
1010
1100
0101
,
0000
0000
0000
0000
,
1010
0011
0101
1100
,
0000
0000
0000
0000
,
1100
0101
0011
1010
,
0000
0000
0000
0000
,
1100
0101
0011
0101
,
1100
1000
0000
0100
0000
0010
0000
0001
,
1001
0000
1000
0100
0010
0001
0100
0001
,
0010
0000
0001
1100
0000
0000
1000
0000
,
1001
0000
0001
0010
0100
1000
0010
1000
,
0100
0000
1000
0101
0000
0000
0001
0000
,
1001
0000
1000
0010
0100
0001
0000
0110
,
0000
0000
0010
1000
,
0100
0000
1000
0001
0000
0010
0001
0101
,
0000
0000
0101
1100
,
1001
0000
0010
1000
0100
0010
0100
0001
,
0100
0000
1000
1001
0000
0000
0001
0000
,
1001
0000
0100
0001
0010
0100
0010
1000
,
0010
0000
0001
1001
0000
0000
1000
0000
,
1001
0000
0001
0100
0010
1000
0000
0110
,
0000
0000
0100
0001
,
0010
0000
0001
1000
0000
0100
1000
1010
,
0000
0000
0000
0000
,
0100
0001
0010
0000
0100
0001
0010
0000
,
0100
0001
0010
0000
0100
0010
0000
1000
,
0100
1000
0010
0000
0100
1000
0010
0000
,
0100
1000
0000
1010
0000
0011
0000
0001
,
0100
0010
1000
0000
0100
1000
0010
0000
,
0100
1000
0010
0000
0100
1000
0000
0010
,
0200
0001
0010
1000
,
0320
1000
0100
0031
,
0020
0001
0100
1000
,
0230
0000
1000
0000
0310
0000
0100
1000
,
1001
0010
0110
1000
,
1001
0000
0001
0100
0001
0100
0010
1000
,
0100
0000
1000
1100
0000
0000
0001
0000
,
1001
0000
1000
0010
0100
0001
0010
0100
,
1000
0000
0001
0011
0000
0000
1000
0000
,
0110
0000
0100
0001
0010
0100
1000
0010
,
0100
0001
0100
0020
0000
0000
0000
0000
,
0130
0010
0001
0200
0000
0000
0000
0000
,
0310
1000
0100
0020
0000
0000
0000
0030
,
1001
0000
1000
0010
1000
0010
0100
0001
,
0010
0000
0001
0011
0000
0000
1000
0000
,
1001
0000
0001
0100
0010
1000
0100
0010
,
0001
0000
1000
1100
0000
0000
0001
0000
,
0110
0000
0010
1000
0100
0010
0001
0100
,
0010
1000
0010
0200
0000
0000
0000
0000
,
0310
0100
1000
0020
0000
0000
0000
0000
,
0130
0001
0010
1000
,
1100
0101
0011
1010
,
1000
0001
0000
0010
0000
0100
0000
1000
,
0010
0100
0001
0020
0000
0000
0000
0000
,
0130
1000
0010
0200
0000
0000
0000
0300
,
0101
1100
0101
1100
,
1001
0011
1010
0011
,
0001
0100
0000
1100
0000
0101
0000
0001
,
1000
0100
0000
1100
0000
0101
0000
0001
,
1000
0010
0000
1010
0000
0011
0000
0101
;

//---------------dance-single - Copied from Copied f----------------
#NOTES:
     dance-single:
     Copied from Copied f:
     Challenge:
     10:
     0.848,0.888,0.840,0.125,0.446: // measure 1
0000
0000
0000
0000
,  // measure 2
0000
0000
0000
0000
,  // measure 3
0000
0000
0000
0000
,  // measure 4
0000
0000
0000
0000
,  // measure 5
0000
0000
0000
0000
,  // measure 6
0011
1010
0110
1010
,  // measure 7
0010
0000
0110
0000
0000
0000
0100
0000
0001
0010
0001
0000
1000
0100
1000
0100
,  // measure 8
1100
0101
0110
0101
,  // measure 9
1000
0010
0000
0100
0000
0001
0010
0100
,  // measure 10
1001
0000
0000
0000
0001
0000
0100
0000
0010
0000
1000
0000
0100
1000
0100
1000
,  // measure 11
0100
0000
0000
0000
1000
0000
0010
0000
0100
0000
0001
0000
0010
0001
0010
0001
,  // measure 12
0010
0000
0000
0000
0001
0000
0100
0000
0010
0000
1000
0000
0100
0010
0100
0010
,  // measure 13
0100
0010
0001
1001
0000
0000
0010
0000
,  // measure 14
1001
0000
0000
0000
1000
0000
0100
0000
0010
0000
0001
0000
0100
0010
0110
0000
,  // measure 15
0000
0000
0011
0110
,  // measure 16
1010
0000
1000
0110
0000
0110
0001
0011
,  // measure 17
0000
0000
0000
0000
0000
0000
0000
0000
0001
0010
0001
0000
1000
0100
1000
0100
,  // measure 18
1001
0000
0000
0000
1000
0000
0010
0000
0100
0000
0001
0000
0010
0001
0010
0001
,  // measure 19
0010
0000
0000
0000
0001
0000
0100
0000
0010
0000
1000
0000
0100
1000
0100
1000
,  // measure 20
0100
0000
0000
0000
1000
0000
0010
0000
0100
0000
0001
0000
0010
0100
0010
0100
,  // measure 21
0010
0100
1000
1001
0000
0000
0100
0000
,  // measure 22
1001
0000
0000
0000
0001
0000
0010
0000
0100
0000
1000
0000
0010
0100
0110
0000
,  // measure 23
0000
0000
0100
1000
,  // measure 24
0010
0000
0100
0001
0000
0010
0001
0200
,  // measure 25
0000
0000
0000
0300
,  // measure 26
0100
0000
0010
0000
1000
0000
0100
1000
0100
0000
1000
0000
0010
0000
0100
0010
,  // measure 27
0100
0000
0001
0000
0010
0000
0001
0010
0001
0000
0011
0000
0000
0000
1100
0000
,  // measure 28
0100
0000
1000
0000
0010
0000
0100
0010
0100
0000
0010
0000
0100
0000
0001
0010
,  // measure 29
0001
0000
0010
0000
0100
0000
1100
0000
0000
0000
0101
0000
0000
0000
0001
0100
,  // measure 30
0010
0000
1000
0000
0100
0000
1000
0010
0100
0000
0010
0000
0100
0000
0010
0100
,  // measure 31
0001
0000
0010
0000
0001
0000
0010
0001
0100
0000
0001
0000
0000
0000
0100
0000
,  // measure 32
0010
0000
0000
0000
1000
0000
0000
0001
1000
0000
0000
0000
1000
0000
0000
0000
0010
0000
0000
0000
0100
0000
0000
0010
0100
0000
0000
0000
0010
0000
0000
0100
,  // measure 33
0010
0000
0000
0000
0100
0000
0000
0001
1000
0000
0000
0000
1000
0000
0000
0100
1000
0000
0000
0000
0100
0000
0000
0010
0100
0000
0000
0000
0010
0000
0000
0100
,  // measure 34
0001
0000
0000
0000
0100
0000
0000
0001
0100
0000
0000
0000
0001
0000
0000
0010
0001
0000
0000
0000
0010
0000
0000
0001
0010
0000
0000
0000
0001
0000
0000
0000
,  // measure 35
1000
0000
0100
0000
0010
0000
0001
0000
0100
0010
0100
0000
0001
1000
0001
1000
,  // measure 36
1001
0000
0100
0010
0110
0000
0001
1000
,  // measure 37
1001
0000
0000
0000
1000
0000
0010
0000
0100
0001
0010
0100
1000
0000
0010
0000
,  // measure 38
1001
0000
0000
0000
0001
0000
0100
0000
0010
0000
1000
0000
0100
0010
0100
0010
,  // measure 39
0001
0100
0010
1100
0000
0000
0000
0000
,  // measure 40
1001
0000
0000
0000
1000
0000
0010
0000
0100
0000
0001
0000
0010
0100
0010
0100
,  // measure 41
1000
0010
0100
0011
0000
0000
1000
0000
,  // measure 42
0110
0000
0000
0000
0100
0000
0001
0000
1000
0000
0010
0000
0100
0001
0100
0001
,  // measure 43
0010
0100
1000
0020
0000
0000
0000
0000
,  // measure 44
0130
0010
0001
0200
0000
0000
0000
0000
,  // measure 45
0310
0000
1000
0000
0100
0000
0010
0000
0001
0010
0001
0000
1000
0100
1000
0100
,  // measure 46
1001
0000
0000
0000
1000
0000
0010
0000
0100
0000
0001
0000
0010
0100
0010
0100
,  // measure 47
1000
0010
0100
0011
0000
0000
0000
0000
,  // measure 48
1001
0000
0000
0000
0001
0000
0100
0000
0010
0000
1000
0000
0100
0010
0100
0010
,  // measure 49
0001
0100
0010
1100
0000
0000
0001
0000
,  // measure 50
0110
0000
0000
0000
0010
0000
1000
0000
0001
0000
0100
0000
0010
1000
0010
1000
,  // measure 51
0100
0010
0001
0200
0000
0000
0000
0000
,  // measure 52
0310
0100
1000
0020
0000
0000
0000
0000
,  // measure 53
0130
0010
0000
0000
0000
0000
0000
0000
0010
0100
0000
0000
0000
0000
0000
0000
1000
0000
0100
0000
1000
0000
0000
0000
0010
0000
0001
0000
0010
0000
0001
0000
,  // measure 54
1001
0000
0000
0000
0000
0000
0000
0000
0101
0000
0000
0000
0000
0000
0000
0000
0011
0000
0000
0000
0000
0000
0000
0000
1010
0000
0000
0000
0000
0000
0000
1000
,  // measure 55
0100
0000
1000
0100
0000
0000
0000
1000
0100
0000
1000
0100
0000
0000
0000
0000
1000
0000
0000
0000
0000
0000
0000
0000
0001
0000
0000
0000
0000
0000
0000
0000
,  // measure 56
0101
1100
1010
0011
,  // measure 57
0001
1000
0100
1100
0000
1000
0010
0100
,  // measure 58
0101
0000
0000
0000
0000
0000
0000
0000
1100
0000
0000
0000
0000
0000
0000
0000
1010
0000
0000
0000
0000
0000
0000
0000
0011
0000
0000
0000
0000
0000
0000
0001
,  // measure 59
0000
0000
0000
1000
0001
0000
0000
0000
0100
0000
0000
0000
0010
1000
0000
0000
0010
0000
0000
1000
0000
0000
0000
0010
0000
1000
0000
0000
0000
0000
0000
0000
,  // measure 60
1100
0110
0101
0110
,  // measure 61
1010
0000
1000
0000
0000
0000
0010
0000
0100
0001
1000
0000
0100
1000
0001
1000
,  // measure 62
1001
0000
0000
0000
0001
0000
0010
0000
0100
0000
1000
0000
0010
1000
0010
1000
,  // measure 63
0100
1000
0001
0101
0000
0000
0001
0000
,  // measure 64
1001
0000
0000
0000
1000
0000
0100
0000
0010
0000
0001
0000
0100
0001
0100
0001
,  // measure 65
0010
0001
1000
1010
0000
0000
1000
0000
,  // measure 66
1001
0000
0000
0000
0001
0000
0100
0000
0010
0000
1000
0000
0010
0100
0110
0000
,  // measure 67
0000
0000
1100
0110
,  // measure 68
0011
0000
0000
0000
0001
0000
1100
0000
0000
0000
1000
0000
0010
0100
0101
0000
,  // measure 69
0000
0000
0000
0000
0000
0000
0000
0000
1000
0000
0001
0010
0100
1000
0010
0100
,  // measure 70
0110
0000
0000
0000
0100
0000
0001
0000
0010
0000
0100
0000
0010
1000
0010
0100
,  // measure 71
0020
0000
0031
1001
0000
0000
1000
0000
,  // measure 72
1001
0000
0000
0000
0010
0000
1000
0000
0100
0000
0010
0000
0100
0001
0100
0010
,  // measure 73
0200
0000
1300
1001
0000
0000
0001
0000
,  // measure 74
1001
0000
0000
0000
1000
0000
0010
0000
0100
0000
0001
0000
0010
0100
0110
0000
,  // measure 75
0000
0000
1100
1010
,  // measure 76
0011
0000
0001
1100
0000
1000
0010
0022
,  // measure 77
0000
0000
0000
0033
0000
0000
0000
0000
,  // measure 78
0010
0000
0100
0000
0001
0000
0010
0001
0010
0000
0001
0000
0100
0000
0010
0100
,  // measure 79
0010
0000
1000
0000
0100
0000
1000
0100
1000
0000
1100
0000
0000
0000
0011
0000
,  // measure 80
0010
0000
0001
0000
0100
0000
0010
0100
0010
0000
0100
0000
0010
0000
1000
0100
,  // measure 81
1000
0000
0100
0000
0010
0000
0011
0000
0000
0000
1010
0000
0000
0000
1000
0010
,  // measure 82
0100
0000
0001
0000
0010
0000
0001
0100
0010
0000
0100
0000
0010
0000
0100
0010
,  // measure 83
1000
0000
0100
0000
1000
0000
0100
1000
0010
0000
1000
0000
0000
0000
0010
0000
,  // measure 84
0100
0000
0000
0000
0001
0000
0000
1000
0001
0000
0000
0000
0001
0000
0000
0000
0100
0000
0000
0000
0010
0000
0000
0100
0010
0000
0000
0000
0100
0000
0000
0010
,  // measure 85
0100
0000
0000
0000
0010
0000
0000
1000
0001
0000
0000
0000
0001
0000
0000
0010
0001
0000
0000
0000
0010
0000
0000
0100
0010
0000
0000
0000
0100
0000
0000
1000
,  // measure 86
0100
0000
0000
0000
1000
0000
0000
0010
1000
0000
0000
0000
0001
0000
0000
0010
0001
0000
0000
0000
0010
0000
0000
0001
0010
0000
0000
0000
0001
0000
0000
0000
,  // measure 87
0010
0000
0100
0000
1000
0000
0010
0000
0100
0010
0100
0000
0001
1000
0001
1000
,  // measure 88
1001
0000
0010
0100
0110
0000
1000
0001
,  // measure 89
1001
0000
0000
0000
1010
0000
0010
0000
0100
0000
0001
0000
0010
0100
0010
0100
,  // measure 90
1000
0010
0110
0011
0000
0000
1000
0000
,  // measure 91
1001
0000
0000
0000
0101
0000
0100
0000
0010
0000
1000
0000
0100
0010
0100
0010
,  // measure 92
0001
0100
0110
1100
0000
0000
0001
0000
,  // measure 93
0110
0000
0000
0000
1010
0000
0010
0000
1000
0000
0001
0000
0010
0100
0010
0100
,  // measure 94
1000
0001
0010
0200
0000
0000
0000
0300
,  // measure 95
0100
0010
0001
0200
0000
0000
0000
0000
,  // measure 96
0310
0000
1000
0000
0100
0000
0010
0000
0001
0000
0001
1000
0001
1000
0100
0010
,  // measure 97
1001
0000
0000
0000
0101
0000
0100
0000
0010
0000
1000
0000
0100
0010
0100
0010
,  // measure 98
0001
0100
0110
2200
0000
3300
0001
0000
,  // measure 99
1001
0000
0000
0000
1010
0000
0010
0000
0100
0000
0001
0000
0010
0100
0010
0100
,  // measure 100
1000
0010
0110
0022
0000
0033
1000
0000
,  // measure 101
0110
0000
0000
0000
0101
0000
0100
0000
0001
0000
1000
0000
0010
0100
0010
0100
,  // measure 102
1000
0001
0100
0020
0000
0000
0000
0000
,  // measure 103
0130
0010
0001
0200
0000
0000
0000
0000
,  // measure 104
0310
0000
1000
0000
0100
0000
0010
0000
0100
0000
1000
0001
1000
0001
0010
0100
,  // measure 105
1001
1010
1100
0101
,  // measure 106
0001
0000
1000
0000
0000
0000
0100
0000
0010
0001
0010
0000
0100
1000
0100
1000
,  // measure 107
0001
0010
0100
0020
0000
0000
0000
0030
,  // measure 108
0010
0100
1000
0020
0000
0000
0000
0030
,  // measure 109
1010
0011
1010
0011
,  // measure 110
1001
1100
0101
1100
,  // measure 111
1000
0110
0000
0011
0000
1010
0000
1000
,  // measure 112
0001
1010
0000
0011
0000
1010
0000
1000
,  // measure 113
0001
1100
0000
0101
0000
0011
0000
1010
;

//---------------dance-single - Copied from Copied f----------------
#NOTES:
     dance-single:
     Copied from Copied f:
     Medium:
     6:
     0.521,0.518,0.558,0.203,0.000:
0000
0000
0000
0000
,
0000
0000
0000
0000
,
0000
0000
0000
0000
,
0000
0000
0000
0000
,
0000
0000
0000
0000
,
1010
1001
1010
1001
,
0001
0100
0000
0020
0000
0000
1030
0000
,
0101
1001
0101
1001
,
1000
0010
0000
0200
0000
0000
0310
0000
,
1010
0000
1000
0000
0001
0000
0010
0001
,
0100
0000
0001
0000
1000
0000
0010
1000
,
0100
0000
1000
0000
0100
0000
0010
0001
,
0100
0000
0001
0020
0000
0000
0031
0000
,
1001
0000
1000
0000
0010
0000
0100
0200
,
0000
0000
0000
0300
0010
0000
1000
0000
,
1001
0000
0000
1000
0000
0010
0100
0002
,
0000
0000
1003
0100
,
0110
0000
0010
0000
0001
0000
0010
0001
,
0100
0000
0010
0000
1000
0000
0100
1000
,
0010
0000
0100
0000
0001
0000
0010
0001
,
0100
0000
0100
0020
0000
0000
0130
0000
,
1100
0000
1000
0000
0010
0000
0100
0200
,
0000
0000
0000
0300
0010
0000
1000
0000
,
1001
0000
0000
0010
0000
0001
0100
0020
,
0000
0000
0030
0000
,
1000
1100
0001
0101
,
1000
1100
0001
0101
,
1000
1010
0001
0011
,
1000
0001
0000
0101
0000
1100
0000
1000
,
0010
1010
1000
1100
,
0100
0000
0101
0000
0001
0010
0000
0001
,
0100
1100
1000
1001
,
1000
0001
0100
0000
0001
1000
0100
0000
,
0010
0001
1000
0000
0010
1000
0001
0000
,
0100
0000
0001
0000
1000
0010
0100
0001
,
0020
0000
0130
0000
,
2000
0000
0001
3001
,
1001
0000
1000
0000
0010
0100
0010
0100
,
0001
0000
0001
1000
0000
0000
0000
0000
,
1001
0000
0001
0000
0100
0010
0100
0010
,
1000
0000
1000
0001
0000
0000
0000
0000
,
1001
0000
1000
0000
0010
0100
0010
0100
,
0001
0000
0001
2000
0000
0000
0000
3000
,
0001
0000
0001
0200
0000
0000
0000
0300
,
0010
0000
0010
2000
0000
0000
3001
0000
,
0110
0000
0010
0000
1000
0001
1000
0001
,
0010
0000
0010
0100
0000
0000
0000
0000
,
0110
0000
0100
0000
0001
1000
0001
1000
,
0100
0000
0100
0010
0000
0000
0000
0000
,
0110
0000
0010
0000
1000
0001
1000
0001
,
0010
0000
0010
0200
0000
0000
0300
0000
,
0100
0000
0100
0002
0000
0000
0000
0003
,
1000
0100
0001
0010
,
1010
1100
1010
1100
,
0000
0000
0000
0000
,
0101
0011
0101
0011
,
0000
0000
0000
0000
,
1010
1100
1010
1100
,
0000
0000
0000
0000
,
0101
0011
0101
0011
,
0101
0000
0000
1000
0000
0001
0000
0100
,
0010
1000
0100
0010
,
0100
0000
1000
0020
0000
0000
0030
0000
,
0110
0001
0010
0100
,
0010
0000
0001
0200
0000
0000
0310
0000
,
1001
0000
1000
0000
0010
0000
0100
0200
,
0000
0000
0000
0300
0010
0000
1000
0000
,
1001
0000
0000
1000
0000
0001
0100
0020
,
0000
0000
1030
0100
,
1100
1000
0001
0010
,
1000
0000
0010
0200
0000
0000
0300
0000
,
0011
0001
0100
1000
,
0100
0000
0001
0020
0000
0000
0031
0000
,
1010
0000
1000
0000
0010
0000
0100
0200
,
0000
0000
0310
1000
,
1001
0000
0000
0110
0000
0010
1000
0200
,
0000
0000
0000
0300
,
0010
1100
0010
0101
,
0010
1100
0010
0101
,
0100
0011
0100
1010
,
1000
0001
0000
0010
0000
0100
0000
1000
,
0001
1010
0100
0011
,
1000
0101
0010
1100
,
0001
0011
0010
1010
,
1000
0001
0010
0000
0010
0001
1000
0000
,
1000
0001
0100
0000
0100
0001
1000
0000
,
0010
0000
0100
0000
0001
0100
0010
1000
,
0200
0000
0310
0000
,
1001
0000
0100
0010
0100
0010
0100
0010
,
1000
0000
1000
0001
0000
0000
0000
0000
,
1001
0000
0010
0100
0010
0100
0010
0100
,
0010
0000
0010
1000
0000
0000
0001
0000
,
1001
0000
1000
0001
1000
0001
1000
0001
,
0100
0010
0000
0010
2000
0000
0000
0000
,
3010
0000
0010
0200
0000
0000
0000
0300
,
0001
0000
0001
0020
0000
0000
0031
0000
,
1001
0000
1000
0010
1000
0010
1000
0010
,
0100
0000
0100
0001
0000
0000
1000
0000
,
1001
0000
0001
0100
0001
0100
0001
0100
,
0010
0000
0010
1000
0000
0000
0001
0000
,
1001
0000
1000
0100
1000
0100
0010
0001
,
0010
0000
0010
0200
0000
0000
0300
0000
,
0100
0000
0100
2000
0000
0000
0000
3000
,
0001
0010
1000
0100
,
0101
0011
1100
1010
,
1000
0001
0000
0010
0000
0100
0000
1000
,
0002
0000
0000
0013
0000
0000
0000
0000
,
2000
0000
0000
3100
0000
0000
0000
0000
,
0010
0001
0100
1000
,
0011
0101
1010
1100
,
1000
0001
0000
0010
0000
0100
0000
1000
,
0010
0100
0000
0001
0000
0010
0000
0100
,
1000
0010
0000
0100
0000
0001
0000
1001
;
