#TITLE:Don't Go So Smoothly!;
#SUBTITLE:;
#ARTIST:Falcom Sound Team jdk;
#TITLETRANSLIT:;
#SUBTITLETRANSLIT:;
#ARTISTTRANSLIT:;
#CREDIT:;
#BANNER:Ys_banner.JPG;
#BACKGROUND:Ys-1-2-Chronicles.jpg;
#LYRICSPATH:;
#CDTITLE:CD_Title.png;
#MUSIC:Don't Go So Smoothly!.ogg;
#OFFSET:-0.200;
#SAMPLESTART:0.200;
#SAMPLELENGTH:16.400;
#SELECTABLE:YES;
#BPMS:0.000=250.001;
#STOPS:;
#BGCHANGES:;

//---------------dance-single - ----------------
#NOTES:
     dance-single:
     :
     Easy:
     4:
     0.310,0.356,0.000,0.227,0.000:
0000
0000
0000
0000
,
1000
0000
0000
0001
0000
0000
0100
0000
,
0001
0000
0000
1000
0000
0000
0100
0000
,
1000
0000
0000
0001
0000
0000
0100
0000
,
0001
0000
0000
1000
0000
0000
0100
0000
,
1000
0000
0000
0001
0000
0000
0010
0000
,
0001
0000
0000
1000
0000
0000
0010
0000
,
1000
0000
0000
0001
0000
0000
0010
0000
,
0001
0000
0000
1000
0000
0000
0010
0000
,
2000
0000
0000
0000
,
0000
0000
0000
0000
,
3020
0000
0000
0000
,
0000
0130
0100
0100
,
0200
0000
0000
0000
,
0000
0000
0000
0000
,
0302
0000
0000
0000
,
0000
1003
0001
1000
,
0001
0000
0000
0100
0000
0000
0001
0000
,
1000
0000
0000
0010
0000
0000
1000
0000
,
0001
0000
0000
0100
0000
0000
0001
0000
,
1000
0000
0000
0010
0000
0000
1000
0000
,
0001
0000
0000
1000
0000
0000
0100
0000
,
1000
0000
0000
0001
0000
0000
0010
0000
,
0001
0000
0000
1000
0000
0000
0100
0000
,
1000
0000
0000
0001
0000
0000
0100
0000
,
0002
0000
0000
0000
,
0000
0000
0000
0000
,
0203
0000
0000
0000
,
0000
0310
0010
0010
,
0020
0000
0000
0000
,
0000
0000
0000
0000
,
2030
0000
0000
0000
,
0000
3001
1000
0001
,
2000
0000
0000
0000
,
0000
0000
0000
0000
,
0000
0000
0000
0000
,
0000
0000
0000
0000
,
3000
0000
0000
0000
,
0000
0000
0000
0000
,
0000
0000
0000
0000
,
0000
0000
0000
0000
,
0001
1000
0001
0000
,
1000
0001
1000
0000
,
0001
0100
0001
0000
,
1000
0100
1000
0000
,
0001
0010
0001
0000
,
1000
0010
1000
0000
,
0001
1000
0001
0000
,
1000
0001
1000
0000
,
0010
0000
0000
0100
0000
0000
0010
0000
,
1000
0000
0000
0001
0000
0000
1000
0000
,
0010
0000
0000
0100
0000
0000
0010
0000
,
1000
0000
0000
0100
0000
0000
0010
0000
,
0001
0000
0000
0100
0000
0000
0001
0000
,
1000
0000
0000
0010
0000
0000
0100
0000
,
0001
0000
0000
1000
0000
0000
0001
0000
,
0010
0000
0000
0100
0000
0000
1000
0000
,
0002
0000
0000
0000
,
0000
0000
0000
0000
,
2003
0000
0000
0000
,
0000
3010
0010
0010
,
0020
0000
0000
0000
,
0000
0000
0000
0000
,
0230
0000
0000
0000
,
0000
0301
1000
0001
,
1000
0010
0000
1000
,
0100
0000
0000
1000
0000
0000
0001
0000
,
0010
0001
0000
1000
,
0010
0000
0000
0100
0000
0000
0001
0000
,
0010
0001
0000
1000
,
0010
0000
0000
0100
0000
0000
0010
0000
,
1000
0100
0000
0010
,
0001
0000
0000
0100
0000
0000
0010
0000
,
2000
0000
0000
0000
,
0000
0000
0000
0000
,
3020
0000
0000
0000
,
0000
0130
0001
1000
,
0002
0000
0000
0000
,
0000
0000
0000
0000
,
0023
0000
0000
0000
,
0000
0130
1000
0001
,
2000
0002
0000
0000
,
0000
0000
0000
0000
,
0000
0000
0000
0000
,
0000
0000
0000
0000
,
0000
3003
0000
0000
;

//---------------dance-single - Copied from----------------
#NOTES:
     dance-single:
     Copied from:
     Medium:
     8:
     0.733,0.712,0.107,0.704,0.000:
0000
0000
0002
0000
,
1003
0000
0001
0100
0000
0100
0001
0000
,
0010
0000
0001
0100
0000
0100
0001
0000
,
0001
0000
1000
0010
0000
0010
1000
0000
,
0001
0000
1000
0010
0000
0010
1000
0000
,
1000
0000
0010
1000
0000
0010
1000
0000
,
0001
0000
0010
0001
0000
0010
0001
0000
,
1000
0000
0001
1000
0000
0001
1000
0000
,
0010
0000
0100
0010
0000
0100
0010
0000
,
2000
0010
0010
0010
,
0010
0010
0010
0010
,
3020
0100
0100
0100
,
0100
0000
0130
0010
0100
0000
0001
1000
,
0002
1000
1000
1000
,
1000
1000
1000
1000
,
2003
0010
0010
0010
,
3010
0000
1000
0001
1000
0000
0001
0100
,
0001
0000
1000
0100
0000
1000
0001
0000
,
1000
0000
0001
0100
0000
0001
1000
0000
,
0001
0000
1000
0010
0000
1000
0001
0000
,
1000
0000
0001
0010
0000
0001
1000
0000
,
0001
0000
0100
0010
0000
1000
0001
0000
,
1000
0000
0010
0100
0000
0001
1000
0000
,
0010
0000
0100
0001
0000
1000
0010
0000
,
1000
0000
0001
0100
0000
0010
1000
0000
,
0002
0100
0100
0100
,
0100
0100
0100
0100
,
2003
0100
0100
0100
,
0100
0000
3100
1000
0001
0000
1000
0001
,
0020
0001
0001
0001
,
0001
0001
0001
0001
,
0032
1000
1000
1000
,
1003
0000
1000
0001
0010
0000
0001
1000
,
0020
0000
0000
0230
0000
0000
0320
0000
,
2030
0000
0000
3002
0000
0000
2003
0000
,
3020
0000
0000
2030
0000
0000
3020
0000
,
2030
0000
0000
3002
0000
0000
2003
0000
,
3002
0000
0000
0203
0000
0000
0302
0000
,
2003
0000
0000
3200
0000
0000
0320
0000
,
0032
0000
0000
0203
0000
0000
0320
0000
,
2030
0000
0000
3002
0000
0000
0203
0000
,
0301
1000
0100
1000
,
0002
0003
0020
0030
2000
3000
0200
0300
,
0010
0001
1000
0001
,
0020
0030
0002
0003
0200
0300
2000
3000
,
0010
1000
0100
1000
,
0020
0030
2000
3000
0200
0300
0002
0003
,
0010
0001
1000
0001
,
0020
0030
0002
0003
0200
0300
2000
3000
,
0010
0000
1000
0100
0000
0000
1100
0000
,
1000
0000
0001
0010
0000
0000
0011
0000
,
0001
0000
1000
0010
0000
0000
1010
0000
,
1000
0000
0001
0010
0000
0000
0011
0000
,
0001
0000
0100
0010
0000
0000
1010
0000
,
1000
0000
0100
0010
0000
0000
0011
0000
,
0001
0000
1000
0010
0000
0000
1010
0000
,
0010
0000
0100
0001
0000
0000
0011
0000
,
1002
0100
0100
0100
,
0100
0100
0100
0103
,
2000
0010
0010
0010
,
0010
0000
3010
0100
0001
0000
0010
0100
,
2000
0010
0010
0010
,
0010
0010
0010
0010
,
3002
0010
0010
0010
,
0010
0000
0013
0001
0100
0000
0010
1000
,
0100
1000
0100
1000
0000
1000
0001
0000
,
0010
0000
0001
0100
0000
0010
1000
0000
,
0001
0100
0001
0100
0000
0100
0010
0000
,
1000
0000
0010
0100
0000
0100
0001
0000
,
1000
0010
1000
0010
0000
0010
0100
0000
,
0001
0000
1000
0010
0000
0010
0100
0000
,
0001
0010
0001
0010
0000
0001
1000
0000
,
0010
0000
0100
0001
0000
1000
0100
0000
,
0020
0001
0100
0100
,
0001
0001
0100
0100
,
0032
1000
0100
0100
,
1000
0000
1003
0001
1000
0010
0100
0010
,
0200
0001
0010
0010
,
0001
0001
0010
0010
,
0302
1000
0010
0010
,
1000
0000
1003
0001
1000
0100
0010
0001
,
1000
0002
2000
0000
0000
0000
0000
0000
,
0000
0000
0000
0000
,
0000
0000
0000
0000
,
0000
0000
0000
0000
,
0000
3003
0000
0000
;

//---------------dance-single - Copied from Copied f----------------
#NOTES:
     dance-single:
     Copied from Copied f:
     Hard:
     10:
     0.850,0.915,0.191,0.238,0.000:
0000
0000
0000
0000
2002
0000
0000
3003
,
1000
0100
0010
0001
0000
0010
0001
0000
,
0001
0010
0100
1000
0000
0100
1000
0000
,
1000
0100
0010
0001
0000
0010
0001
0000
,
0001
0010
0100
1000
0000
0100
1000
0000
,
1000
0010
1000
0100
0000
0010
0001
0000
,
0001
0010
0001
0100
0000
0010
1000
0000
,
1000
0010
1000
0100
0000
0010
0001
0000
,
0001
0010
0001
0100
0000
0010
1000
0000
,
0002
1000
0100
1000
,
0100
1000
0100
1000
,
2003
0001
0010
0001
,
0010
0000
3001
0010
0100
0010
0001
1000
,
0020
0100
0001
0100
,
0001
0100
0001
0100
,
2030
0010
0001
0010
,
0001
0000
3010
1000
0001
1000
0100
0010
,
0001
1000
0001
0100
0000
0001
1000
0000
,
1000
0001
1000
0100
0000
1000
0001
0000
,
0001
1000
0001
0010
0000
0001
1000
0000
,
1000
0010
1000
0001
0000
1000
0001
0000
,
1000
0001
0010
0100
0000
0100
1000
0000
,
0001
1000
0100
0010
0000
0010
0001
0000
,
1000
0001
0010
0100
0000
0100
1000
0000
,
0001
1000
0100
0010
0000
0010
0001
0000
,
2000
0010
0001
0010
,
0001
0010
0001
0010
,
3002
0100
1000
0100
,
1000
0000
0103
0001
1000
0001
0010
0100
,
2000
0001
0100
0001
,
0100
0001
0100
0001
,
3200
0010
1000
0010
,
1000
0000
0310
0001
1000
0001
0010
0100
,
1000
0001
1000
0001
0000
0010
0001
0000
,
0001
1000
0001
1000
0000
0010
1000
0000
,
1000
0001
1000
0001
0000
0010
0001
0000
,
0001
1000
0001
1000
0000
0010
1000
0000
,
0001
1000
0100
1000
0000
0001
1000
0000
,
1000
0001
0010
0001
0000
0001
1000
0000
,
0001
0100
0001
0010
0000
0010
0100
0000
,
1000
0010
1000
0100
0000
0100
0010
0000
,
0001
0100
0001
0100
0010
1000
0100
0000
,
0010
0001
0010
0001
1000
0010
0100
0000
,
0001
1000
0001
1000
0100
0010
0001
0000
,
1000
0010
1000
0010
0100
0001
0010
0000
,
0010
0001
1000
0001
0010
0100
1000
0000
,
0100
1000
0001
1000
0100
0010
0001
0000
,
1000
0001
1000
0010
0100
0001
0010
0100
,
1000
0010
1000
0100
0010
0001
1000
0001
,
1000
0001
0010
0100
0000
0100
0010
0001
,
1001
1000
0010
0100
0000
0100
0010
1000
,
1001
0001
0010
0100
0000
0100
0010
0001
,
1001
1000
0010
0100
0000
0100
0010
1000
,
1010
0010
0100
0001
0000
0001
0010
0100
,
1100
1000
0010
0100
0000
0100
0010
1000
,
1001
0001
0010
0100
0000
0100
0010
0001
,
1001
1000
0010
0100
0100
0010
1000
0100
,
0020
0001
0100
0001
,
0100
0001
0100
0001
,
0032
0010
0100
0010
,
0100
0000
0013
0001
1000
0010
0001
0010
,
2000
0010
0100
0010
,
0100
0010
0100
0010
,
3200
0001
1000
0001
,
1000
0000
0301
0100
1000
0001
1000
0010
,
1000
0100
0001
0100
0000
1000
0001
0000
,
0001
0100
1000
0100
0000
0001
1000
0000
,
0001
0010
1000
0010
0000
0001
1000
0000
,
1000
0010
0001
0010
0000
1000
0001
0000
,
1000
0100
1000
1000
0000
0001
1001
0000
,
1000
0010
0100
0100
0000
0010
0110
0000
,
0100
0001
1000
1000
0000
0001
1001
0000
,
1000
0001
0010
0010
0000
0001
1001
0000
,
0210
0001
0010
0001
,
1000
0000
0001
0000
1000
0000
0001
0300
,
0102
0010
1000
0100
,
1000
0000
0013
0001
1000
0001
0010
0100
,
1200
1000
0010
1000
,
0001
0000
1000
0000
0001
0000
1000
0300
,
0021
0001
0100
0001
,
0100
0000
0031
1000
0010
0001
0010
1000
,
0100
0020
0002
0000
0000
0000
0000
0000
,
0000
0000
0000
0000
,
0000
0000
0000
0000
,
0000
0000
0000
0000
,
0000
0033
0000
0000
;

//---------------dance-single - Copied from Copied f----------------
#NOTES:
     dance-single:
     Copied from Copied f:
     Challenge:
     12:
     1.000,1.000,1.000,0.382,0.006:
0000
0000
0000
0000
2002
0000
0000
3003
,
0001
0100
1000
0200
0000
0301
1000
MMMM
,
1000
0100
0001
0200
0000
1300
0001
MMMM
,
1000
0010
0001
0020
0000
1030
0001
MMMM
,
0001
0010
1000
0020
0000
0031
1000
MMMM
,
0001
0100
1000
0002
0000
0013
1000
MMMM
,
1000
0100
0001
2000
0000
3010
0001
MMMM
,
0001
0100
1000
0002
0000
0013
1000
MMMM
,
1000
0100
0001
2000
0000
3010
0001
MMMM
,
2000
0010
0001
0100
,
0001
0000
0010
0000
0001
0000
0100
3000
,
0020
0001
0100
1000
,
0001
0000
1030
0100
0001
0100
0010
0001
,
0200
1000
0010
0001
,
0010
1000
0010
0001
,
2000
0300
0M01
0000
0100
0000
0001
0000
,
0100
0000
3001
1000
0100
0001
0010
0100
,
1000
0010
1000
0100
MMMM
0010
0001
0100
,
0101
0001
1000
0010
MMMM
0010
1000
0100
,
1100
1000
0010
0100
MMMM
0100
0010
1000
,
1001
0001
0010
0100
MMMM
0100
0010
0001
,
1001
1000
0010
0100
MMMM
0100
0010
1000
,
1001
0001
0010
0100
MMMM
0100
1000
0010
,
1010
1000
0001
0100
MMMM
0001
0010
0100
,
1100
1000
0010
0100
MMMM
0100
0010
1000
,
1002
0000
1000
0000
0010
0010
0010
0000
,
1000
0000
0010
0000
0100
0100
0100
0003
,
0210
0000
0001
0000
1000
1000
1000
0000
,
0001
0000
0310
1000
0100
0001
0100
0010
,
0021
0000
1000
0000
0001
0001
0001
0000
,
0100
0000
1000
0000
0001
0001
0001
0030
,
1020
0000
0001
0000
0100
0100
0100
0030
,
0010
1000
0100
0001
0100
1000
0010
0100
,
0101
0001
0010
0100
MMMM
0100
1000
0010
,
1010
0010
1000
0100
MMMM
0100
0010
0001
,
0011
0001
0100
0010
MMMM
0010
1000
0100
,
1100
1000
0001
0010
MMMM
0010
0001
0100
,
1001
0001
1000
0100
MMMM
1000
0010
0100
,
1001
0010
0100
0001
MMMM
0010
0100
1000
,
1010
0010
0100
0001
MMMM
0010
0001
0100
,
1001
0010
1000
0100
MMMM
0010
0001
1000
,
1001
0001
0010
0100
0010
0001
1000
0010
,
0110
0100
0010
1000
0100
0010
0001
0100
,
0101
0001
0010
0100
1000
0010
0100
0001
,
1001
1000
0010
0100
0001
0010
0100
0010
,
0011
0001
0100
1000
0100
0010
1000
0100
,
1100
0100
0010
0001
1000
0010
1000
0100
,
0110
0010
0001
0100
1000
0100
0001
0010
,
0110
0100
1000
0010
0001
0010
1000
0100
,
0110
0001
0100
0110
MMMM
0110
1000
0100
,
0110
0010
0001
1001
MMMM
1001
1000
0010
,
0110
0100
0001
0101
MMMM
1001
1000
0010
,
1010
1000
0100
0110
MMMM
0011
0001
0100
,
0110
0010
1000
1001
MMMM
1010
1000
0100
,
0110
0010
0001
1001
MMMM
1010
0010
0100
,
0101
0001
0010
0110
MMMM
1100
1000
0010
,
1010
1000
0100
0110
0010
0001
0101
1001
,
2200
0000
0010
0000
0001
0010
0001
0000
,
0010
0000
0001
0000
0010
0001
0010
3300
,
0202
0000
0010
0000
1000
0010
1000
0303
,
0101
0000
1001
1000
0010
0001
0010
0100
,
0202
0000
0010
0000
1000
0010
1000
0000
,
0010
0000
1000
0000
0010
1000
0010
0303
,
2002
0000
0010
0000
0100
0010
0100
0000
,
0110
3003
1000
0001
0010
0100
1000
0010
,
0110
1000
0001
0110
MMMM
1001
1001
MMMM
,
0110
1000
0001
0110
MMMM
1001
1001
MMMM
,
0011
1000
0010
1010
MMMM
0101
0101
MMMM
,
0011
0100
1000
1010
MMMM
1100
1100
MMMM
,
1001
1000
0010
0110
MMMM
1100
0011
MMMM
,
0101
0100
0010
1001
MMMM
0011
1100
MMMM
,
1010
1000
0100
0011
MMMM
0101
1010
MMMM
,
1001
0100
0010
1100
MMMM
1010
0101
MMMM
,
1002
0000
1000
0000
0010
0010
0010
0000
,
1000
0000
0010
0000
0100
0100
0100
0003
,
210M
0000
0001
0000
0100
0100
0100
0000
,
3001
0000
1000
0010
0001
0010
0100
0001
,
0020
0000
1000
0000
0100
0100
0100
0000
,
0001
0000
0100
0000
1000
1000
1000
0000
,
2000
0030
0001
0000
0010
0010
0010
0000
,
0001
0010
3001
0100
1000
0100
0010
1000
,
1100
0110
0022
0000
0000
0000
0000
0000
,
0000
0000
0000
0000
,
0000
0000
0000
0000
,
0000
0000
0000
0000
,
0000
0000
0000
0000
0033
00MM
00MM
0000
0000
0000
0000
0000
0000
0000
0000
0000
;

//---------------dance-single - Copied from ----------------
#NOTES:
     dance-single:
     Copied from:
     Beginner:
     1:
     0.135,0.152,0.012,0.227,0.000: // measure 1
0000
0000
0000
0000
,  // measure 2
1000
0000
0000
0000
,  // measure 3
0001
0000
0000
0000
,  // measure 4
1000
0000
0000
0000
,  // measure 5
0001
0000
0000
0000
,  // measure 6
0100
0000
0000
0000
,  // measure 7
0010
0000
0000
0000
,  // measure 8
0100
0000
0000
0000
,  // measure 9
0010
0000
0000
0000
,  // measure 10
2000
0000
0000
0000
,  // measure 11
3000
0000
0000
0000
,  // measure 12
0002
0000
0000
0000
,  // measure 13
0003
0000
0000
0000
,  // measure 14
0200
0000
0000
0000
,  // measure 15
0300
0000
0000
0000
,  // measure 16
0020
0000
0000
0000
,  // measure 17
0030
0000
0000
0000
,  // measure 18
1000
0000
0000
0000
,  // measure 19
0010
0000
0000
0000
,  // measure 20
1000
0000
0000
0000
,  // measure 21
0010
0000
0000
0000
,  // measure 22
0100
0000
0000
0000
,  // measure 23
0001
0000
0000
0000
,  // measure 24
0100
0000
0000
0000
,  // measure 25
0001
0000
0000
0000
,  // measure 26
2000
0000
0000
0000
,  // measure 27
3000
0000
0000
0000
,  // measure 28
0020
0000
0000
0000
,  // measure 29
0030
0000
0000
0000
,  // measure 30
0200
0000
0000
0000
,  // measure 31
0300
0000
0000
0000
,  // measure 32
0002
0000
0000
0000
,  // measure 33
0003
0000
0000
0000
,  // measure 34
2002
0000
0000
0000
,  // measure 35
0000
0000
0000
0000
,  // measure 36
0000
0000
0000
0000
,  // measure 37
0000
0000
0000
0000
,  // measure 38
3003
0000
0000
0000
,  // measure 39
0000
0000
0000
0000
,  // measure 40
0000
0000
0000
0000
,  // measure 41
0000
0000
0000
0000
,  // measure 42
0001
0000
0000
0000
,  // measure 43
0100
0000
0000
0000
,  // measure 44
0010
0000
0000
0000
,  // measure 45
1000
0000
0000
0000
,  // measure 46
0100
0000
0000
0000
,  // measure 47
0010
0000
0000
0000
,  // measure 48
0001
0000
0000
0000
,  // measure 49
1000
0000
0000
0000
,  // measure 50
0001
0000
0000
0000
,  // measure 51
1000
0000
0000
0000
,  // measure 52
0010
0000
0000
0000
,  // measure 53
0100
0000
0000
0000
,  // measure 54
0001
0000
0000
0000
,  // measure 55
1000
0000
0000
0000
,  // measure 56
0010
0000
0000
0000
,  // measure 57
0100
0000
0000
0000
,  // measure 58
0002
0000
0000
0000
,  // measure 59
0003
0000
0000
0000
,  // measure 60
2000
0000
0000
0000
,  // measure 61
3000
0000
0000
0000
,  // measure 62
0020
0000
0000
0000
,  // measure 63
0030
0000
0000
0000
,  // measure 64
0200
0000
0000
0000
,  // measure 65
0300
0000
0000
0000
,  // measure 66
0010
0000
0000
0000
,  // measure 67
1000
0000
0000
0000
,  // measure 68
0010
0000
0000
0000
,  // measure 69
1000
0000
0000
0000
,  // measure 70
0001
0000
0000
0000
,  // measure 71
0010
0000
0000
0000
,  // measure 72
0001
0000
0000
0000
,  // measure 73
0010
0000
0000
0000
,  // measure 74
0200
0000
0000
0000
,  // measure 75
0300
0000
0000
0000
,  // measure 76
2000
0000
0000
0000
,  // measure 77
3000
0000
0000
0000
,  // measure 78
0020
0000
0000
0000
,  // measure 79
0030
0000
0000
0000
,  // measure 80
0200
0000
0000
0000
,  // measure 81
0300
0000
0000
0000
,  // measure 82
0001
0002
0000
0000
,  // measure 83
0000
0000
0000
0000
,  // measure 84
0000
0000
0000
0000
,  // measure 85
0000
0000
0000
0000
,  // measure 86
0000
0003
0000
0000
;
