#TITLE:Cosmic Fall;
#SUBTITLE:"Find the Computer Room!";
#ARTIST:Jun Senoue;
#TITLETRANSLIT:;
#SUBTITLETRANSLIT:;
#ARTISTTRANSLIT:;
#CREDIT:;
#BANNER:Shadow_bn.png;
#BACKGROUND:Shadow_bg.png;
#LYRICSPATH:;
#CDTITLE:XeniSys 87 Logo.png;
#MUSIC:Cosmic Fall.mp3;
#OFFSET:-0.500;
#SAMPLESTART:6.480;
#SAMPLELENGTH:11.960;
#SELECTABLE:YES;
#BPMS:0.000=160.000;
#STOPS:;
#BGCHANGES:;

//---------------dance-single - ----------------
#NOTES:
     dance-single:
     :
     Challenge:
     12:
     1.000,0.963,0.218,0.000,1.000: // measure 1
0000
0000
1000
0100
0000
0011
0000
0000
0100
1000
0000
0010
0100
0010
0110
0000
,  // measure 2
0000
0000
0001
0010
0000
1100
0000
0000
0010
0001
0000
1000
0100
0010
0110
0000
,  // measure 3
0000
0000
1000
0100
0000
0101
0000
0000
0100
1000
0000
0010
1000
0001
1001
0000
,  // measure 4
0000
0000
0001
0010
0000
1010
0000
0000
0010
0001
0000
1000
0010
0100
0001
1000
,  // measure 5
0010
1000
000M
0100
1000
0000
001M
1000
0000
0100
100M
0000
0001
0000
0010
0001
,  // measure 6
0100
0001
0000
1000
0100
0000
1000
0010
1000
0100
0010
0000
0001
0100
0010
0000
,  // measure 7
0100
0001
M000
0010
0001
0000
M100
0001
0000
0010
M001
0000
0010
0000
0001
0100
,  // measure 8
0001
0010
0100
0000
0M10
0001
1000
0000
0M10
1000
0001
0000
0100
0010
0100
0010
,  // measure 9
1000
0001
00M0
0100
0001
0000
10M0
0001
0000
0100
00M1
0000
1000
0000
0010
0100
,  // measure 10
0001
0100
0010
0000
1000
0100
0010
0000
0010
0001
1000
0000
0010
1000
0001
1000
,  // measure 11
0010
0100
M000
0010
0001
0000
M010
0100
0000
0010
M001
0000
0010
1000
0100
0010
,  // measure 12
0001
0100
0001
0000
1000
0001
0100
0000
0010
1000
0010
0100
0001
0010
0100
1000
,  // measure 13
0001
1000
0M00
0010
1000
0000
0M01
1000
0000
0010
1M00
0000
0100
0000
0010
0001
,  // measure 14
0100
0001
0000
1000
0100
0000
0010
0001
0100
0001
1000
0000
0010
1000
0001
0000
,  // measure 15
0010
0100
M000
0001
0100
0000
M010
0100
0000
0001
M100
0000
0010
0000
0001
0000
,  // measure 16
0M10
0001
1000
0000
0M10
1000
0001
0000
0010
0001
0010
0001
1000
0010
0100
1000
,  // measure 17
0100
0001
0000
0010
100M
0000
0010
0100
000M
0010
1000
0000
001M
0000
0001
0100
,  // measure 18
1000
0100
0010
0000
1000
0100
0010
0000
0010
0001
0100
0001
0010
0100
1000
0001
,  // measure 19
01M0
1000
0000
0100
00M1
0000
0100
1000
00M0
0100
0001
0000
0010
0000
0100
0001
,  // measure 20
01M0
1000
0001
0000
01M0
0001
1000
0000
0010
1000
0010
0100
0001
0010
0100
1000
,  // measure 21
0001
0010
0001
0000
M1MM
0000
0001
0010
0001
0000
M1MM
0000
0001
0010
0001
0000
,  // measure 22
M1MM
0000
0001
0010
0001
0000
M1MM
0000
0010
1000
0100
0000
1000
0010
0100
0001
,  // measure 23
0010
0100
0010
0000
MMM1
0000
0100
0010
0100
0000
MMM1
0000
0010
0100
0010
0000
,  // measure 24
MMM1
0000
0100
0010
0100
0000
MMM1
0000
0010
0100
0010
0001
0100
0010
0100
1000
,  // measure 25
0100
0001
1000
0000
M1MM
0000
0010
0001
1MMM
0000
0010
0000
1MMM
0001
0100
0000
,  // measure 26
MM1M
0000
0100
0001
1MMM
0000
0100
0000
0010
0001
1000
0000
0010
0100
0010
1000
,  // measure 27
0001
0010
1000
0000
MMM1
0000
1000
0010
MMM1
0000
1000
0000
MMM1
0100
1000
0000
,  // measure 28
MMM1
0000
1000
0100
MMM1
0000
1000
0000
0001
0010
MM11
0000
0001
0100
M1M1
0000
,  // measure 29
1000
0010
100M
0100
0010
0000
M001
0100
0001
0010
0100
0000
100M
0010
1000
0100
,  // measure 30
0010
0000
M001
0100
0001
0010
0100
1000
0010
1000
100M
0010
0100
0001
M001
0010
,  // measure 31
0100
1000
001M
1000
0100
0000
0010
0001
M100
0001
0010
0000
0100
1000
0001
0000
,  // measure 32
1000
0010
100M
0100
0010
M001
0100
0001
1000
0010
100M
0100
0010
M001
0100
0001
,  // measure 33
1000
0010
100M
0100
0010
0000
0001
0100
M001
0010
0100
0000
100M
0010
1000
0010
,  // measure 34
010M
0000
0001
1000
0001
0010
M100
0010
0001
0001
0100
0010
1000
100M
0100
0010
,  // measure 35
M001
0100
0001
1000
0010
0000
100M
0010
1000
0001
M010
0000
0100
1000
0001
0000
,  // measure 36
0100
0010
100M
0010
0100
0001
1000
0M01
0010
0001
10M0
0001
0100
0010
1000
0001
,  // measure 37
1000
0100
001M
1000
0010
0000
0001
0100
M010
0001
0010
0000
0010
1000
010M
0010
,  // measure 38
0001
0000
1000
0010
0001
0010
M100
0100
0001
0010
M100
0100
0010
0001
M100
0100
,  // measure 39
0001
0010
M100
0001
0100
0000
010M
1000
0010
0100
100M
0000
0100
M001
0010
0100
,  // measure 40
1000
0000
0001
0100
1000
0100
001M
0010
1000
0100
001M
0010
0100
1000
001M
0010
,  // measure 41
0100
1000
010M
0010
1000
0000
100M
0100
0010
1000
0M10
0000
0010
0001
1000
0010
,  // measure 42
0100
0000
M001
0010
0100
0001
10M0
1000
0001
0100
10M0
1000
0001
0100
10M0
1000
,  // measure 43
0100
0001
M010
0100
0010
0000
010M
1000
0010
0100
100M
0000
01M0
0001
1000
0000
,  // measure 44
0100
M010
0001
0M01
1000
001M
0100
0100
M001
0010
0100
M100
0010
0001
1M00
1000
,  // measure 45
0001
0010
0001
1000
1MMM
0000
1000
0010
1000
0001
MMM1
0000
0001
0100
0001
1000
,  // measure 46
1MMM
0000
1000
0100
1000
0001
MMM1
0000
0M10
0001
1000
0000
0M10
1000
0001
0000
,  // measure 47
1000
0010
1000
0100
M1MM
0000
0001
0010
0001
0100
M1MM
0000
0001
1000
0001
0010
,  // measure 48
MM1M
0000
1000
0001
1000
0100
M1MM
0000
0001
0010
M100
00MM
M100
0010
0001
0000
,  // measure 49
1000
0010
0100
0010
MM1M
0000
0100
0001
0010
0001
MMM1
0000
0010
0001
0100
0010
,  // measure 50
MM1M
0000
1000
0010
1000
0100
M1MM
0000
0010
0001
MM10
0000
0M1M
1000
0010
0000
,  // measure 51
1000
0100
1000
1000
MM1M
0000
0001
0010
0001
0001
0100
0000
MM1M
1000
1000
0100
,  // measure 52
MM1M
0000
0010
0001
0001
0100
MM1M
0000
0M1M
1000
1010
0000
10MM
0100
1100
0000
,  // measure 53
MMMM
0000
0001
0010
0000
1100
0000
0010
0001
0100
0000
0010
1000
0100
0110
0000
,  // measure 54
MMMM
0000
0010
0001
0000
1010
0000
0001
0010
0100
0000
0100
1000
0010
1010
0000
,  // measure 55
MMMM
0000
1000
0010
0000
0101
0000
0010
1000
0100
0000
0010
0001
0100
0101
0000
,  // measure 56
MMMM
0000
0001
0010
0000
1100
0000
0010
0001
0100
0000
0010
1000
0100
0001
0100
,  // measure 57
0011
0000
0000
0000
;

//---------------dance-single - Copied from----------------
#NOTES:
     dance-single:
     Copied from:
     Hard:
     9:
     0.883,0.931,0.791,0.252,0.378:
0000
0000
1000
0000
0000
0100
0000
0000
0101
0000
0000
0011
0000
0000
1010
0000
,
0000
0000
0001
0000
0000
0100
0000
0000
1100
0000
0000
1010
0000
0000
0011
0000
,
0000
0000
0010
0000
0000
0100
0000
0000
1100
0000
0000
0101
0000
0000
0011
0000
,
0000
0000
0100
0000
0000
0010
0000
0000
0011
0000
0000
0101
0000
0000
1100
0000
,
1000
0010
1000
0100
0000
0010
0001
0000
,
0100
0001
0100
0010
0001
0100
1000
0100
,
0001
0010
0100
0001
0000
0100
1000
0000
,
0010
1000
0010
0100
0001
0010
1000
0010
,
0100
1000
0010
0001
0000
0010
1000
0000
,
0100
0001
0100
0010
0001
0100
1000
0100
,
0010
1000
0100
0010
0000
0100
1000
0000
,
0010
0000
0100
0000
0001
0000
0010
0000
0100
1000
0100
0000
1000
0001
1000
0001
,
0010
0001
0100
0001
0000
1000
1001
0000
,
0100
1000
0100
0010
1000
0100
0001
0100
,
0010
0001
0100
1000
0000
0100
0101
0000
,
1000
0100
0001
0100
0010
0001
0100
1000
,
0100
0010
1000
0001
0000
1000
0011
0000
,
0100
0001
0100
0010
0001
0100
1000
0100
,
0010
1000
0100
0001
0000
0100
1100
0000
,
0010
0000
0100
0000
1000
0000
0100
0000
0010
1000
0010
0000
1000
0001
1000
0001
,
0010
0001
0100
0101
0000
0100
0001
0010
,
0001
0101
0000
0100
0101
0001
0011
0010
,
1010
1000
0100
1100
0000
0100
1000
0010
,
1000
1100
0000
0100
1100
1000
1001
0001
,
0011
0010
0100
1100
0000
1000
0010
0100
,
0010
1010
0000
1000
1100
0100
1001
0010
,
0011
0001
0010
0110
0000
0100
1100
1000
,
0010
0000
1010
0000
0000
0000
1000
0000
0001
1000
0100
0000
1000
0001
0100
0000
,
0010
1000
0010
1000
0001
1000
0001
0010
,
0001
0000
1000
0000
0010
0000
0100
0000
0001
1000
0001
0000
0100
0010
0100
0000
,
0010
1000
0010
0100
0001
0100
0001
1000
,
0010
0100
0010
0000
1000
0001
1000
0000
0010
0100
0010
0000
1000
0001
1000
0000
,
0001
0010
0001
0100
0010
0100
0010
1000
,
0010
0000
1000
0001
1000
0000
0001
0000
0010
0100
0010
0000
0100
1000
0100
0000
,
1100
1000
0010
0110
0100
0001
1001
0000
,
1000
0100
1000
0000
0001
0100
0001
0000
1000
0010
1000
0010
0100
0001
0100
0001
,
2000
0010
0100
3002
0010
0100
2003
0001
,
0100
0000
3002
0000
1000
0000
0100
0000
1003
0001
1000
0000
0010
0100
0010
0000
,
0200
0001
0010
0320
1000
0100
1030
0000
,
0010
1000
0010
0000
1000
0001
1000
0000
0001
0010
0001
0000
1000
0001
1000
0001
,
2000
0001
0010
3002
1000
0010
0203
0001
,
0301
0010
0001
0000
1000
0010
1000
0000
0002
0000
0010
0000
0100
0000
1003
0000
,
2010
0000
0100
0000
0001
3000
0012
0000
1000
0000
0100
0003
2200
0000
0000
3300
,
1000
0100
1000
0000
0001
0100
0001
0000
1000
0001
1000
0001
0010
0100
0010
0100
,
1000
0010
1010
1000
0100
1100
1000
0010
,
1010
1000
0100
1100
1001
1001
0101
0101
,
0001
0010
0011
0001
0100
0101
0001
0010
,
0011
0001
0100
0101
1001
1001
1010
1010
,
1000
0100
1000
0000
0100
0000
1000
0100
1000
0000
0100
0000
1000
0100
1000
0000
,
0100
0000
1000
0100
1000
0000
0100
0000
0010
0001
1000
0000
0010
1000
0001
0000
,
0010
0001
0010
0000
0001
0000
0010
0001
0010
0000
0001
0000
0010
0001
0010
0000
,
0001
0000
0010
0001
0010
0000
0001
0000
0010
0001
1000
0000
0010
1000
0001
0000
,
0000
0000
0011
0000
0000
1010
0000
0000
2200
0000
0000
0010
0000
0000
3301
0000
,
0000
0000
1010
0000
0000
0011
0000
0000
0202
0000
0000
0010
0000
0000
1303
0000
,
0000
0000
1100
0000
0000
1010
0000
0000
0022
0000
0000
0100
0000
0000
1033
0000
,
0000
0000
0011
0000
0000
1010
0000
0000
2200
0000
0000
0010
0000
0000
0001
0000
,
3311
0000
0000
0000
;

//---------------dance-single - Copied from Copied f----------------
#NOTES:
     dance-single:
     Copied from Copied f:
     Medium:
     7:
     0.552,0.482,0.046,0.000,0.092:
0000
0000
1000
0000
0000
0100
0000
0000
0010
0000
0000
0001
0000
0000
0100
0000
,
0000
0000
0001
0000
0000
0010
0000
0000
0100
0000
0000
1000
0000
0000
0010
0000
,
0000
0000
1000
0000
0000
0100
0000
0000
1000
0000
0000
0010
0000
0000
0100
0000
,
0000
0000
0001
0000
0000
0010
0000
0000
0001
0000
0000
0100
0000
0000
0010
0000
,
1000
0000
0010
1000
0000
0100
1000
0000
,
0010
1000
0001
0000
0010
0000
0001
0000
,
0100
0000
0001
0010
0000
0001
0100
0000
,
0001
1000
0100
0000
1000
0001
1000
0001
,
0010
0000
0001
0100
0000
0001
0010
0000
,
0001
1000
0010
0000
1000
0000
0100
1000
,
0010
0000
1000
0100
0000
1000
0010
0000
,
1000
0001
0100
0000
0010
0100
0010
0100
,
0001
0000
1000
0100
0000
1000
0010
0000
,
0100
0010
0100
0000
0001
0000
1000
0001
,
0010
0000
0001
0100
0000
0001
0010
0000
,
0001
1000
0100
0000
1000
0010
0100
0001
,
1000
0000
0010
1000
0000
0100
1000
0000
,
0010
0100
0001
0000
0010
0100
1000
0001
,
0100
0000
0001
0010
0000
0001
0100
0000
,
0010
1000
0001
0000
0100
0010
1000
0001
,
0100
0000
0010
1000
0000
0100
1000
0000
,
0010
1000
0000
0100
1000
0000
1000
0001
,
0100
0000
0001
0010
0000
0001
0100
0000
,
0001
0010
0000
0001
0100
0000
0001
0000
,
1000
0000
0010
1000
0000
0010
0100
0000
,
0010
1000
0000
0010
0100
0000
0001
0000
,
0010
0000
0001
0100
0000
0010
0100
0000
,
0001
0100
0000
0010
0100
0000
0001
0000
,
1000
0010
1000
0100
0000
0010
0001
0000
,
0100
0001
0100
0000
0010
0000
1000
0001
,
0010
0000
0001
0100
0000
0001
0010
0000
,
0001
0100
0010
0000
1000
0001
1000
0001
,
0100
0010
1000
0010
0000
1000
0100
0000
,
1000
0001
1000
0000
0010
0000
0100
0001
,
0010
0000
0001
0100
0000
0001
0010
0000
,
0001
1000
0100
0000
1000
0010
1000
0100
,
0010
0001
0100
0001
0000
1000
0010
0000
,
1000
0001
1000
0001
0010
0100
0010
0100
,
1000
0010
0100
0010
0000
0100
0001
0000
,
1000
0010
1000
0010
0100
0001
0100
0001
,
0010
0100
1000
0100
0000
0010
0001
0000
,
0100
0001
0100
0001
1000
0010
1000
0010
,
0100
0001
0010
0100
0000
1000
0010
0000
,
1000
0010
1000
0100
0010
0001
0100
0001
,
1000
0100
1000
0001
0000
0001
0100
0001
,
1000
0001
0000
1000
0100
1000
0010
0100
,
0010
0001
0010
0100
0000
0010
1000
0010
,
0100
0010
0000
0100
0001
0100
0010
0100
,
1000
0100
0001
1000
0000
0100
0010
0100
,
0001
0100
0000
0010
0001
0010
0100
1000
,
0010
0100
1000
0100
0000
0010
1000
0100
,
0010
0100
0000
0010
0001
0100
0101
0000
,
0000
0000
0010
0000
0000
1000
0000
0000
0100
0000
0000
0001
0000
0000
0011
0000
,
0000
0000
0001
0000
0000
0100
0000
0000
1000
0000
0000
0010
0000
0000
1010
0000
,
0000
0000
1000
0000
0000
0100
0000
0000
0001
0000
0000
0100
0000
0000
1100
0000
,
0000
0000
0001
0000
0000
0100
0000
0000
1000
0000
0000
0100
0000
0000
0001
0000
,
1000
0000
0000
0000
;

//---------------dance-single - Copied from Copied f----------------
#NOTES:
     dance-single:
     Copied from Copied f:
     Easy:
     3:
     0.403,0.416,0.183,0.642,0.000:
0000
1000
0000
0000
0001
0000
0000
0100
,
0000
0001
0000
0000
1000
0000
0000
0100
,
0000
1000
0000
0000
0010
0000
0000
0100
,
0000
0001
0000
0000
0010
0000
0000
0100
,
2000
0000
0000
3020
0000
0000
2030
0000
,
0000
0000
3001
0010
,
0200
0000
0000
0320
0000
0000
0032
0000
,
1003
0001
1000
0100
,
2000
0000
0000
3002
0000
0000
0203
0000
,
0000
0000
0310
1000
,
0002
0000
0000
0023
0000
0000
0230
0000
,
0310
0001
1000
0001
,
0020
0000
0000
0032
0000
0000
0203
0000
,
0000
0000
0310
1000
,
0200
0000
0000
0320
0000
0000
0032
0000
,
1003
0010
1000
0100
,
2000
0000
0000
3020
0000
0000
0230
0000
,
0000
0000
0310
1000
,
0002
0000
0000
0023
0000
0000
0230
0000
,
0310
0001
1000
0001
,
0010
0000
0000
0001
0000
0000
0010
0000
,
0000
0001
0000
0000
0010
0000
0001
0000
,
1000
0000
0000
0010
0000
0000
1000
0000
,
0000
0010
0000
0000
1000
0000
0001
0000
,
0100
0000
0000
0010
0000
0000
0100
0000
,
0000
0010
0000
0000
0100
0000
0010
0000
,
1000
0000
0000
0100
0000
0000
1000
0000
,
0000
0100
0000
0000
1000
0000
0010
0000
,
0200
0000
0000
0302
0000
0000
0023
0000
,
0000
0000
0031
0100
,
0020
0000
0000
2030
0000
0000
3200
0000
,
1300
0010
0100
0001
,
2000
0000
0000
3200
0000
0000
0320
0000
,
0031
0100
0001
0010
,
0002
0000
0000
2003
0000
0000
3200
0000
,
1300
0010
1000
0100
,
0021
0000
0000
0032
0000
0000
0203
0000
,
0310
1000
0100
0010
,
0012
0000
0000
2003
0000
0000
3020
0000
,
1030
0010
1000
0100
,
2100
0000
0000
3020
0000
0000
0230
0000
,
0301
0010
0001
0100
,
0102
0000
0000
0023
0000
0000
0230
0000
,
1300
0001
1000
0010
,
1000
0000
0000
1100
0000
0000
0100
0000
,
0000
1100
0000
0000
1000
0000
1001
0000
,
0001
0000
0000
0011
0000
0000
0010
0000
,
0000
0011
0000
0000
0001
0000
1001
0000
,
1000
0000
0000
1010
0000
0000
0010
0000
,
0000
1010
0000
0000
1000
0000
1001
0000
,
0001
0000
0000
0101
0000
0000
0100
0000
,
0000
0101
0000
0000
0001
0000
1001
0000
,
0000
2000
0000
0000
3020
0000
0000
0130
,
0000
0200
0000
0000
0302
0000
0000
0013
,
0000
0020
0000
0000
0032
0000
0000
0103
,
0000
0200
0000
0000
0320
0000
0000
1030
;

//---------------dance-single - Copied from Copied f----------------
#NOTES:
     dance-single:
     Copied from Copied f:
     Beginner:
     1:
     0.147,0.159,0.000,0.046,0.000:
0000
1000
0000
0000
0000
0000
0000
0000
,
0000
0001
0000
0000
0000
0000
0000
0000
,
0000
0100
0000
0000
0000
0000
0000
0000
,
0000
0010
0000
0000
0000
0000
0000
0000
,
1000
0000
0000
0000
,
0001
0000
0100
0000
,
0010
0000
0000
0000
,
0100
0000
0010
0000
,
1000
0000
0000
0000
,
0001
0000
1000
0000
,
0100
0000
0000
0000
,
1000
0000
0001
0000
,
0010
0000
0000
0000
,
0001
0000
0100
0000
,
0010
0000
0000
0000
,
1000
0000
0010
0000
,
0100
0000
0000
0000
,
0001
0000
0010
0000
,
0100
0000
0000
0000
,
1000
0000
0010
0000
,
0100
0000
0000
0100
,
0000
0000
0100
0000
,
0010
0000
0000
0010
,
0000
0000
0010
0000
,
1000
0000
0000
1000
,
0000
0000
1000
0000
,
0001
0000
0000
0001
,
0000
0000
0001
0000
,
1000
0000
0000
1000
0000
0000
1000
0000
,
0000
0000
0001
0000
,
0010
0000
0000
0010
0000
0000
0010
0000
,
0000
0000
0000
0000
,
0001
0000
0000
0001
0000
0000
0001
0000
,
0000
0000
1000
0000
,
0010
0000
0000
0010
0000
0000
0010
0000
,
0000
0000
0000
0100
,
0001
0000
0000
1000
0000
0000
0001
0000
,
0000
0000
1000
0000
,
0010
0000
0000
0100
0000
0000
0010
0000
,
0000
0000
0000
0000
,
1000
0000
0000
0010
0000
0000
1000
0000
,
0000
0000
1000
0000
,
0001
0000
0000
0010
0000
0000
0001
0000
,
0000
0000
0000
1000
,
0001
0000
0000
1000
,
0000
0000
0001
0000
,
0010
0000
0000
0001
,
0000
0000
0010
0000
,
0001
0000
0000
0100
,
0000
0000
0001
0000
,
1000
0000
0000
0010
,
0000
0000
1000
0000
,
0002
0000
0003
0000
,
0200
0000
0300
0000
,
0020
0000
0030
0000
,
2000
0000
3000
0000
;
