#TITLE:Chasing Drive;
#SUBTITLE:(From Sonic Adventure 2);
#ARTIST:Sonic Team;
#TITLETRANSLIT:;
#SUBTITLETRANSLIT:;
#ARTISTTRANSLIT:;
#CREDIT:;
#BANNER:Banner.png;
#BACKGROUND:;
#LYRICSPATH:;
#CDTITLE:XeniSys 87 Logo.png;
#MUSIC:Chasing Drive.mp3;
#OFFSET:0.075;
#SAMPLESTART:111.460;
#SAMPLELENGTH:15.800;
#SELECTABLE:YES;
#BPMS:0.000=230.000;
#STOPS:;
#BGCHANGES:0.000=Chasing Drive.avi=1.000=1=1=0,
99999=-nosongbg-=1.000=0=0=0 // don't automatically add -songbackground-
;

//---------------dance-single - ----------------
#NOTES:
     dance-single:
     :
     Beginner:
     2:
     0.173,0.280,0.142,0.000,0.000:
0000
0000
0000
0000
,
0000
0000
0000
0000
,
0000
0000
0000
0000
,
0000
0000
0000
0000
,
0000
0000
0000
0000
,
0000
0000
0000
0000
,
0000
0000
0000
0000
,
0000
0000
0000
0000
,
0000
0000
0000
0000
,
1000
0000
0000
0000
,
1000
0000
0000
0000
,
0001
0000
0000
0000
,
0001
0000
0000
0000
,
0100
0000
0000
0000
,
0100
0000
0000
0000
,
0010
0000
0000
0000
,
0010
0000
0000
0000
,
1000
0000
0000
0000
,
1000
0000
0000
0000
,
0001
0000
0001
0000
,
0001
0000
0000
0000
,
0100
0000
0000
0000
,
0100
0000
0000
0000
,
0010
0000
0010
0000
,
0010
0000
0000
0000
,
1000
0000
0000
0000
,
1000
0000
0000
0000
,
0010
0000
0010
0000
,
0010
0000
0000
0000
,
0100
0000
0000
0000
,
0100
0000
0000
0000
,
0001
0000
0001
0000
,
1000
0000
1000
0000
,
1001
0000
0000
0000
,
0001
0000
0000
0000
,
0110
0000
0000
0000
,
1000
0000
0000
0000
,
1000
0000
0000
0000
,
0001
0000
0000
0000
,
0100
0000
0000
0000
,
0010
0000
0000
0000
,
1001
0000
0001
0000
,
1000
0000
0000
0000
,
0110
0000
0100
0000
,
0010
0000
0000
0000
,
1001
0000
0000
0000
,
0110
0000
0000
0000
,
1010
0000
0000
0000
,
0101
0000
0000
0000
,
1000
0000
0000
0000
,
1000
0000
0000
0000
,
0100
0000
0000
0000
,
0100
0000
0000
0000
,
0010
0000
0000
0000
,
0010
0000
0000
0000
,
0001
0000
0000
0000
,
0001
0000
0001
0000
,
0100
0000
0000
0000
,
0100
0000
0000
0000
,
0010
0000
0000
0000
,
0010
0000
0000
0000
,
1000
0000
0000
0000
,
1000
0000
0000
0000
,
0001
0000
0000
0000
,
0001
0000
0000
0000
,
0100
0000
0000
0000
,
0010
0000
0010
0000
,
0110
0000
0000
0000
,
1000
0000
0000
0000
,
0001
0000
0000
0000
,
0100
0000
0100
0000
,
0010
0000
0000
0000
,
0100
0000
0000
0000
,
0001
0000
0000
0000
,
1000
0000
1000
0000
,
0010
0000
0000
0000
,
1000
0000
0000
0000
,
0100
0000
0000
0000
,
0010
0000
0010
0000
,
0001
0000
0000
0000
,
0100
0000
0000
0000
,
0110
0000
0000
0000
,
0000
0000
0000
0000
,
0001
0000
0000
0000
,
1000
0000
0000
0000
,
0001
0000
0001
0000
,
0001
0000
0000
0000
,
0100
0000
0000
0000
,
0010
0000
0000
0000
,
1000
0000
1000
0000
,
1000
0000
0000
0000
,
0100
0000
0000
0000
,
1000
0000
0000
0000
,
0010
0000
0010
0000
,
0010
0000
0000
0000
,
0100
0000
0000
0000
,
0001
0000
0000
0000
,
0100
0000
0100
0000
,
0010
0000
0010
0000
,
1000
0000
0000
0000
,
0001
0000
0000
0000
,
0100
0000
0100
0000
,
0010
0000
0000
0000
,
1001
0000
0000
0000
,
0110
0000
0000
0000
,
0101
0000
0000
0000
,
1010
0000
0000
0000
,
1000
0000
1000
0000
,
0001
0000
0000
0000
,
0001
0000
0001
0000
,
0100
0000
0000
0000
,
0110
0000
0000
0000
,
1001
0000
0000
0000
,
0110
0000
0000
0000
,
1001
0000
0000
0000
,
1000
0000
0100
0000
,
1000
0000
0000
0000
,
0001
0000
0010
0000
,
0001
0000
0000
0000
,
0100
0000
0010
0000
,
0100
0000
0000
0000
,
0001
0000
1000
0000
,
0001
0000
0001
0000
,
1000
0000
1000
0000
,
0001
0000
0001
0000
,
1001
0000
0000
0000
;

//---------------dance-single - Copied from----------------
#NOTES:
     dance-single:
     Copied from:
     Easy:
     5:
     0.318,0.420,0.060,0.060,0.000: // measure 1
0000
0000
0000
0000
,  // measure 2
0000
0000
0000
0000
,  // measure 3
0000
0000
0000
0000
,  // measure 4
0000
0000
0000
0000
,  // measure 5
0000
0000
0000
0000
,  // measure 6
0000
0000
0000
0000
,  // measure 7
0000
0000
0000
0000
,  // measure 8
0000
0000
0000
0000
,  // measure 9
0000
0000
0000
0000
,  // measure 10
1000
0000
0100
0000
,  // measure 11
1000
0000
0100
0000
,  // measure 12
0010
0000
0001
0000
,  // measure 13
0010
0000
0001
0000
,  // measure 14
1000
0000
0001
0000
,  // measure 15
1000
0000
0001
0000
,  // measure 16
0100
0000
0010
0000
,  // measure 17
0100
0100
0010
0010
,  // measure 18
1000
0000
0001
0000
,  // measure 19
0100
0000
0001
0000
,  // measure 20
1000
0000
0010
0000
,  // measure 21
1000
0000
0100
0000
,  // measure 22
1000
0000
0010
0000
,  // measure 23
0100
0000
0001
0000
,  // measure 24
1000
0000
1000
0000
,  // measure 25
0001
0001
1000
1000
,  // measure 26
0010
0000
0100
0000
,  // measure 27
0010
0000
0100
0000
,  // measure 28
0001
0000
0010
0000
,  // measure 29
0001
0000
0010
0000
,  // measure 30
0100
0000
1000
0000
,  // measure 31
0100
0000
1000
0000
,  // measure 32
0010
0000
0100
0000
,  // measure 33
0010
0010
0100
0100
,  // measure 34
0001
0000
1000
0001
,  // measure 35
1000
0000
0010
0000
,  // measure 36
0100
0000
0010
0100
,  // measure 37
0002
0000
0000
0003
,  // measure 38
1000
0000
0000
1000
0000
0000
1000
0000
,  // measure 39
0001
0000
0000
0001
0000
0000
0001
0000
,  // measure 40
0100
0000
0000
0100
0000
0000
0100
0000
,  // measure 41
0010
0000
0000
0010
0000
0000
0010
0000
,  // measure 42
1000
0000
0001
1000
,  // measure 43
0001
0000
0100
0010
,  // measure 44
0100
0000
0001
1000
,  // measure 45
0200
0000
0000
0300
,  // measure 46
1000
0000
0000
1000
0000
0000
1000
0000
,  // measure 47
0010
0000
0000
0010
0000
0000
0010
0000
,  // measure 48
0100
0000
0000
0100
0000
0000
0100
0000
,  // measure 49
0001
0000
0000
0001
0000
0000
0001
0000
,  // measure 50
1000
0000
0100
0000
,  // measure 51
0010
0000
0001
0000
,  // measure 52
0100
0000
0010
0000
,  // measure 53
1000
0000
0001
0000
,  // measure 54
0100
0000
1000
0000
,  // measure 55
0100
0000
0001
0000
,  // measure 56
0010
0000
1000
0000
,  // measure 57
0010
0001
1000
0010
,  // measure 58
0100
0000
0001
0000
,  // measure 59
0010
0000
0001
0000
,  // measure 60
0100
0000
0010
0000
,  // measure 61
1000
0000
0010
0000
,  // measure 62
0100
0000
0001
0000
,  // measure 63
0010
0000
1000
0000
,  // measure 64
0010
0000
0001
0000
,  // measure 65
0100
0000
1000
0000
,  // measure 66
0100
0010
0100
0010
,  // measure 67
1000
0010
0100
0001
,  // measure 68
1001
0000
0001
1000
,  // measure 69
0001
0000
0100
0010
,  // measure 70
0100
0000
0001
1000
,  // measure 71
0100
0100
1000
0010
,  // measure 72
0100
0000
0010
0100
,  // measure 73
0010
0000
0100
0010
,  // measure 74
0100
0000
0001
1000
,  // measure 75
0010
0010
0100
0001
,  // measure 76
0010
0000
0001
0000
,  // measure 77
0010
0000
0100
0000
,  // measure 78
1000
0000
0100
0000
,  // measure 79
1000
0000
0010
0000
,  // measure 80
0100
0000
0010
0000
,  // measure 81
1000
0000
0001
0000
,  // measure 82
0101
0000
1010
0000
,  // measure 83
1000
0001
0010
0100
,  // measure 84
1000
0000
0010
0000
,  // measure 85
0100
0000
0001
0000
,  // measure 86
0010
0000
0100
0000
,  // measure 87
1000
0000
0100
0000
,  // measure 88
0010
0000
0001
0000
,  // measure 89
0100
0000
0001
0000
,  // measure 90
1010
0000
0101
0000
,  // measure 91
1000
0100
0010
0001
,  // measure 92
0100
0000
0001
1000
,  // measure 93
0100
0000
1000
0000
,  // measure 94
0010
0000
0100
0001
,  // measure 95
0020
0000
0000
0030
,  // measure 96
0001
0000
0000
1000
0000
0000
0001
0000
,  // measure 97
0100
0000
0000
0010
0000
0000
0100
0000
,  // measure 98
0010
0000
0000
1000
0000
0000
0010
0000
,  // measure 99
0100
0000
0000
0001
0000
0000
0100
0000
,  // measure 100
0010
0000
0010
1000
,  // measure 101
0100
0000
0010
0001
,  // measure 102
0100
0000
0010
1000
,  // measure 103
0200
0000
0000
0300
,  // measure 104
0001
0000
0000
1000
0000
0000
0001
0000
,  // measure 105
0100
0000
0000
0010
0000
0000
0100
0000
,  // measure 106
0010
0000
0000
0001
0000
0000
0010
0000
,  // measure 107
0100
0000
0000
1000
0000
0000
0100
0000
,  // measure 108
0010
0000
0001
0000
,  // measure 109
0010
0000
0100
0000
,  // measure 110
1000
0000
0100
0000
,  // measure 111
0010
0000
0001
0000
,  // measure 112
0100
0000
1000
0000
,  // measure 113
0010
0000
0001
0000
,  // measure 114
0200
0000
0310
0000
,  // measure 115
1000
1010
0001
0011
,  // measure 116
1000
0000
0100
0000
,  // measure 117
1000
0000
0100
0000
,  // measure 118
0010
0000
0001
0000
,  // measure 119
0010
0000
0001
0000
,  // measure 120
0100
0000
1000
0000
,  // measure 121
0010
0000
0001
0000
,  // measure 122
0200
0000
0000
0300
,  // measure 123
0020
0000
0000
0030
,  // measure 124
2000
0000
0000
3000
,  // measure 125
0001
0010
1000
0100
,  // measure 126
1001
0000
0000
0000
;

//---------------dance-single - Copied from Copied f----------------
#NOTES:
     dance-single:
     Copied from Copied f:
     Hard:
     9:
     0.686,0.653,0.179,0.448,0.000:
0000
0000
0000
0000
,
0000
0000
0000
0000
,
0000
0000
0000
0000
,
0000
0000
0000
0000
,
0000
0000
0000
0000
,
0000
0000
0000
0000
,
0000
0000
0000
0000
,
0000
0000
0000
0000
,
0000
0000
0000
0000
,
1000
0000
0100
1000
0000
0010
0100
0000
,
0001
0000
0010
0001
0000
0100
0010
0000
,
1000
0010
0001
0100
,
1000
0010
1000
0100
0000
0001
0010
0000
,
1000
0000
0010
0100
0000
0001
0010
0000
,
0001
0000
0100
0010
0000
1000
0100
0000
,
1000
0100
0001
0010
,
1000
0100
0010
0001
0100
0010
1000
0001
,
0100
0001
0010
0001
,
0100
0000
1000
0010
1000
0000
0100
0000
,
0020
0130
2000
3001
,
0010
0001
1000
0100
,
0010
0001
0010
0001
0000
0000
0200
0000
,
0010
0010
1000
0301
,
0020
0031
2000
3010
,
1000
0100
0010
0001
0100
0010
1000
0001
,
0010
0000
0001
0000
0100
0001
0100
0000
,
0010
0000
1000
0100
1000
0000
0010
0000
,
2000
3100
0020
0031
,
0100
0010
1000
0001
,
0100
0001
0010
0001
0000
0000
0020
0000
,
0001
0001
1000
0130
,
0020
0130
2000
3010
,
0100
0010
1000
0100
0010
0001
0100
0001
,
1000
0000
0010
0100
0001
0000
1000
0000
,
0100
0000
1000
0020
0000
0000
0130
0000
,
0001
0000
0010
0200
0000
0000
1300
0000
,
0020
0100
0100
0130
,
1001
0000
1000
0100
0000
0010
0001
0000
,
1001
0000
0001
0010
0000
0100
1000
0000
,
0110
0000
0010
0100
0000
0001
1000
0000
,
0110
0000
1000
0001
0000
0100
0010
0000
,
0110
0000
1000
0010
0100
0000
0001
0000
,
0010
0000
0100
2000
0000
0000
3010
0000
,
0100
0000
0001
0020
0000
0000
0031
0000
,
0200
0010
0010
0310
,
1010
0000
1000
0001
0000
0010
0100
0000
,
1100
0000
0010
0100
0000
0001
0010
0000
,
0011
0000
1000
0010
0000
0100
0010
0000
,
1010
0000
1000
0100
0000
0010
0100
0000
,
0020
0031
0200
1300
,
1001
0000
1000
0010
0000
0100
0001
0000
,
2000
0000
3100
0000
0010
0001
0100
0000
,
0002
0000
0013
0000
0100
1000
0010
1000
,
0100
0000
0010
0001
0100
0000
0001
0000
,
1000
0000
0010
1000
0100
0000
0010
0000
,
0002
0010
1000
0103
,
0010
0001
0100
0000
0010
1000
0100
0000
,
0200
1300
0020
0031
,
1001
0000
0001
0100
0000
0010
1000
0000
,
0002
0000
0013
0000
0100
1000
0010
0000
,
2000
0000
3100
0000
0010
0001
0100
0001
,
0010
0000
0100
1000
0010
0000
1000
0000
,
0001
0000
0100
0001
0010
0000
0100
0000
,
2000
0100
0001
3010
,
0200
1000
0010
0301
,
0020
1000
0100
0031
,
0002
1003
0200
0310
,
1001
0000
0010
0001
0000
0100
0010
0000
,
1000
0000
0100
1000
0000
0010
0100
0000
,
0001
0100
1000
0010
,
0001
0100
0001
0010
0000
1000
0100
0000
,
0001
0000
0100
0010
0000
1000
0100
0000
,
1000
0000
0010
0100
0000
0001
0010
0000
,
0001
0010
1000
0100
,
0001
0010
0100
1000
0010
0100
0001
1000
,
0010
1000
0100
1000
,
0010
0000
0001
0100
0001
0000
0010
0000
,
0200
0310
0002
1003
,
0100
1000
0001
0010
,
0100
1000
0100
1000
0000
0000
0020
0000
,
0100
0100
0001
1030
,
0200
1300
0002
0103
,
0001
0010
0100
1000
0010
0100
0001
1000
,
0100
0000
1000
0000
0010
1000
0010
0000
,
0100
0000
0001
0010
0001
0000
0100
0000
,
0002
0013
0200
1300
,
0010
0100
0001
1000
,
0010
1000
0100
1000
0000
0000
0200
0000
,
1000
1000
0001
0310
,
0200
0310
0002
0103
,
0010
0100
0001
0010
0100
1000
0010
1000
,
0001
0000
0100
0010
1000
0000
0001
0000
,
0010
0000
0001
0200
0000
0000
0310
0000
,
1000
0000
0100
0020
0000
0000
0031
0000
,
0200
0010
0010
0310
,
1001
0000
0001
0010
0000
0100
1000
0000
,
1001
0000
1000
0100
0000
0010
0001
0000
,
0110
0000
0100
0010
0000
1000
0001
0000
,
0110
0000
0001
1000
0000
0010
0100
0000
,
0110
0000
0001
0100
0010
0000
1000
0000
,
0100
0000
0010
0002
0000
0000
0103
0000
,
0010
0000
1000
0200
0000
0000
1300
0000
,
0020
0100
0100
0130
,
0101
0000
0001
1000
0000
0100
0010
0000
,
0011
0000
0100
0010
0000
1000
0100
0000
,
1100
0000
0001
0100
0000
0010
0100
0000
,
0101
0000
0001
0010
0000
0100
0010
0000
,
0200
1300
0020
0031
,
1001
0000
0001
0100
0000
0010
1000
0000
,
0002
0000
0013
0000
0100
1000
0010
0000
,
2000
0000
3100
0000
0010
0001
0100
0001
,
0010
0000
0100
1000
0010
0000
1000
0000
,
0001
0000
0100
0001
0010
0000
0100
0000
,
2000
0100
0001
3010
,
0100
1000
0010
0000
0100
0001
0010
0000
,
0020
0031
0200
1300
,
1001
0000
1000
0010
0000
0100
0001
0000
,
2000
0000
3100
0000
0010
0001
0100
0000
,
0002
0000
0013
0000
0100
1000
0010
1000
,
0100
0000
0010
0001
0100
0000
0001
0000
,
1000
0000
0010
1000
0100
0000
0010
0000
,
0002
0010
1000
0103
,
0020
0001
0100
1030
,
0200
0001
0010
1300
,
2000
3001
0020
0130
,
1001
0000
0000
0000
;

//---------------dance-single - Copied from Copied f----------------
#NOTES:
     dance-single:
     Copied from Copied f:
     Medium:
     7:
     0.632,0.747,0.620,0.329,0.000:
0000
0000
0000
0000
,
0000
0000
0000
0000
,
0000
0000
0000
0000
,
0000
0000
0000
0000
,
0000
0000
0000
0000
,
0000
0000
0000
0000
,
0000
0000
0000
0000
,
0000
0000
0000
0000
,
0000
0000
0000
0000
,
1000
0100
0010
0001
,
0100
0001
0010
0100
,
1000
0010
0100
0001
,
2000
3100
0010
0001
,
0100
0010
1000
0010
,
0100
0001
0100
0010
,
1000
0100
0010
0001
,
0101
1010
0110
1001
,
1000
0010
0100
0001
,
0010
0100
1000
0001
,
2000
3100
0002
0103
,
0010
1000
0100
0001
,
0100
1000
0010
0001
,
0010
1000
0100
1000
,
0020
0130
2000
3001
,
0011
1001
1010
1001
,
0001
0100
0010
1000
,
0100
0010
0001
1000
,
0002
0013
2000
3010
,
0100
0001
0010
1000
,
0010
0001
0100
1000
,
0100
0001
0010
0001
,
0200
0310
0002
1003
,
1100
1001
0101
1001
,
2001
0010
0001
3010
,
1002
0010
1000
0013
,
0120
1000
0001
1030
,
2001
0001
0001
3100
,
1100
1000
0001
0010
,
0011
0001
1000
0010
,
1010
1000
0001
0100
,
0101
0001
1000
0010
,
1001
0100
0110
0001
,
1001
1000
0010
0100
,
0101
1000
1100
0010
,
0102
1000
1000
0103
,
2001
0010
0001
3100
,
1002
0010
1000
0103
,
0210
1000
0001
0310
,
0120
0001
1000
0130
,
1000
1000
0100
0100
,
0001
0001
0100
0100
,
1000
1000
0010
0010
,
0001
0001
0010
0010
,
1000
0100
0001
0010
,
0001
0100
1000
0010
,
0002
0010
1000
0103
,
1100
1100
0011
0011
,
0001
0001
0010
0010
,
1000
1000
0010
0010
,
0001
0001
0100
0100
,
1000
1000
0100
0100
,
0001
0010
1000
0100
,
1000
0010
0001
0100
,
0102
0100
1000
0013
,
2010
0010
0001
3100
,
0102
0100
1000
0013
,
1010
1100
0101
0011
,
0001
0010
0100
1000
,
0010
1000
0100
0010
,
0001
0100
0010
1000
,
0002
0013
0100
1000
,
0010
0100
0001
0100
,
0010
1000
0010
0100
,
0001
0010
0100
1000
,
1010
0101
0110
1001
,
0001
0100
0010
1000
,
0100
0010
0001
1000
,
0002
0013
2000
3010
,
0100
0001
0010
1000
,
0010
0001
0100
1000
,
0100
0001
0010
0001
,
0200
0310
0002
1003
,
1100
1001
0101
1001
,
1000
0010
0100
0001
,
0010
0100
1000
0001
,
2000
3100
0002
0103
,
0010
1000
0100
0001
,
0100
1000
0010
0001
,
0010
1000
0100
1000
,
0020
0130
2000
3001
,
0011
1001
1010
1001
,
1002
0100
1000
0103
,
2001
0100
0001
3100
,
0210
0001
1000
0301
,
1002
1000
1000
0013
,
0011
0001
1000
0100
,
1100
1000
0001
0100
,
0101
0001
1000
0010
,
1010
1000
0001
0100
,
1001
0010
0110
1000
,
1001
0001
0100
0010
,
1010
0001
0011
0100
,
2010
0001
0001
3010
,
1002
0100
1000
0013
,
2001
0100
0001
3010
,
0120
0001
1000
0130
,
0210
1000
0001
0310
,
0001
0001
0010
0010
,
1000
1000
0010
0010
,
0001
0001
0100
0100
,
1000
1000
0100
0100
,
0001
0010
1000
0100
,
1000
0010
0001
0100
,
2000
0100
0001
3010
,
0011
0011
1100
1100
,
1000
1000
0100
0100
,
0001
0001
0100
0100
,
1000
1000
0010
0010
,
0001
0001
0010
0010
,
1000
0100
0001
0010
,
0001
0100
1000
0010
,
2010
0010
0001
3100
,
0102
0100
1000
0013
,
2010
0010
0001
3100
,
0101
0011
1010
1100
,
1001
0000
0000
0000
;

//---------------dance-double - Copied from Copied f----------------
#NOTES:
     dance-double:
     Copied from Copied f:
     Medium:
     8:
     0.558,0.607,0.344,0.090,0.000:
00000000
00000000
00000000
00000000
,
00000000
00000000
00000000
00000000
,
00000000
00000000
00000000
00000000
,
00000000
00000000
00000000
00000000
,
00000000
00000000
00000000
00000000
,
00000000
00000000
00000000
00000000
,
00000000
00000000
00000000
00000000
,
00000000
00000000
00000000
00000000
,
00000000
00000000
00000000
00000000
,
00100000
01000000
00001000
00010000
,
00000100
00000010
00000001
00000100
,
00000010
00010000
00001000
01000000
,
00100000
10000000
01000000
00100000
,
01000000
10000000
00010000
00100000
,
00001000
00010000
00000100
00000010
,
00000001
00000001
00001000
00001000
,
00000001
00001000
00010000
10000000
,
01000000
10000000
01000000
10000000
,
00100000
01000000
00010000
00100000
,
00001000
00010000
00001000
00010000
,
00000100
00001000
00000010
00000100
,
00000001
00001000
00000001
00001000
,
00000010
00000100
00000001
00001000
,
00000100
00000100
00000010
00000010
,
00000001
00001000
00010000
10000000
,
00100000
01000000
00100000
01000000
,
00010000
00100000
00001000
00010000
,
00000100
00000010
00000100
00000010
,
00000001
00001000
00000100
00000010
,
00000001
00001000
00000001
00001000
,
00000010
00010000
00001000
00100000
,
01000000
01000000
00100000
00100000
,
10000000
00010000
00001000
00000001
,
00000020
00000100
00000130
00000010
,
00000002
00000100
00000103
00000001
,
00002000
00000010
00003010
00001000
,
00011000
00010000
00001000
01000000
,
01100000
00100000
10000000
01000000
,
01100000
00100000
00001000
00010000
,
00011000
00010000
00000010
00000100
,
00000110
00000100
00000001
00000010
,
00001001
00000100
00001001
00000100
,
00001001
00000001
00001000
00010000
,
10010000
00100000
10010000
00100000
,
10010000
10000000
01000000
00100000
,
01100000
00100000
00001000
00010000
,
00000110
00000010
00010000
00001000
,
01100000
00100000
00001000
00010000
,
00000110
00000010
00010000
00001000
,
10000000
10000000
01000000
01000000
,
00100000
00100000
00010000
00010000
,
00001000
00001000
00000100
00000100
,
00000010
00000010
00000001
00000001
,
00000100
00000001
00000010
00000001
,
00000100
00001000
00010000
00100000
,
10000000
01000000
10000000
00100000
,
10100000
00110000
00010010
00000011
,
00000001
00000001
00000010
00000010
,
00000100
00000100
00001000
00001000
,
00010000
00010000
00100000
00100000
,
01000000
01000000
10000000
10000000
,
00100000
10000000
01000000
10000000
,
00100000
00010000
00001000
00000010
,
00000002
00000010
00001000
00000103
,
00020000
00000010
00001000
00030100
,
00002000
00100000
10000000
01003000
,
01001000
01010000
01100000
11000000
,
01000000
00100000
10000000
00010000
,
01000000
00001000
00010000
00000010
,
00000100
00000010
00001000
00000001
,
00000010
00000100
01000000
00100000
,
10000000
00100000
01000000
00001000
,
00010000
00000100
00000010
00000100
,
00010000
00001000
01000000
00100000
,
00100000
01000000
00000100
00000010
,
00000010
00000001
00000010
00000001
,
00000100
00000010
00001000
00000100
,
00010000
00001000
00010000
00001000
,
00100000
00010000
01000000
00100000
,
10000000
00010000
10000000
00010000
,
01000000
00100000
10000000
00010000
,
00100000
00100000
01000000
01000000
,
10000000
00010000
00001000
00000001
,
00000100
00000010
00000100
00000010
,
00001000
00000100
00010000
00001000
,
00100000
01000000
00100000
01000000
,
10000000
00010000
00100000
01000000
,
10000000
00010000
10000000
00010000
,
01000000
00001000
00010000
00000100
,
00000010
00000010
00000100
00000100
,
00000001
00001000
00010000
10000000
,
02000000
00100000
03100000
01000000
,
20000000
00100000
30100000
10000000
,
00020000
01000000
01030000
00010000
,
00011000
00001000
00010000
00000010
,
00000110
00000100
00000001
00000010
,
00000110
00000100
00010000
00001000
,
00011000
00001000
01000000
00100000
,
01100000
00100000
10000000
01000000
,
10010000
00100000
10010000
00100000
,
10010000
10000000
00010000
00001000
,
00001001
00000100
00001001
00000100
,
00001001
00000001
00000010
00000100
,
00000110
00000100
00010000
00001000
,
01100000
01000000
00001000
00010000
,
00000110
00000100
00010000
00001000
,
01100000
01000000
00001000
00010000
,
00000001
00000001
00000010
00000010
,
00000100
00000100
00001000
00001000
,
00010000
00010000
00100000
00100000
,
01000000
01000000
10000000
10000000
,
00100000
10000000
01000000
10000000
,
00100000
00010000
00001000
00000100
,
00000001
00000010
00000001
00000100
,
00000101
00001100
01001000
11000000
,
10000000
10000000
01000000
01000000
,
00100000
00100000
00010000
00010000
,
00001000
00001000
00000100
00000100
,
00000010
00000010
00000001
00000001
,
00000100
00000001
00000010
00000001
,
00000100
00001000
00010000
01000000
,
20000000
01000000
00010000
30100000
,
00002000
01000000
00010000
00103000
,
00020000
00000100
00000001
00030010
,
00010010
00001010
00000110
00000011
,
00000010
00000000
00000000
00000000
;

//---------------dance-double - Copied from Copied f----------------
#NOTES:
     dance-double:
     Copied from Copied f:
     Easy:
     5:
     0.325,0.513,0.090,0.179,0.000:
00000000
00000000
00000000
00000000
,
00000000
00000000
00000000
00000000
,
00000000
00000000
00000000
00000000
,
00000000
00000000
00000000
00000000
,
00000000
00000000
00000000
00000000
,
00000000
00000000
00000000
00000000
,
00000000
00000000
00000000
00000000
,
00000000
00000000
00000000
00000000
,
00000000
00000000
00000000
00000000
,
10000000
00000000
00100000
00000000
,
01000000
00000000
00010000
00000000
,
00100000
00000000
00001000
00000000
,
00010000
00000000
00000100
00000000
,
00000010
00000000
00000001
00000000
,
00000100
00000000
00000010
00000000
,
00001000
00000000
00000100
00000000
,
00010000
00010000
00001000
00010000
,
00001000
00000000
01000000
00000000
,
00100000
00000000
10000000
00000000
,
01000000
00000000
00100000
00000000
,
00001000
00000000
00010000
00000000
,
00000100
00000000
00000010
00000000
,
00000001
00000000
00000100
00000000
,
00000001
00000000
00001000
00000000
,
00000001
00000001
00001000
00000001
,
00001000
00000000
00000100
00000000
,
00000010
00000000
00000001
00000000
,
00000100
00000000
00000010
00000000
,
00001000
00000000
00000100
00000000
,
00010000
00000000
00001000
00000000
,
01000000
00000000
00100000
00000000
,
10000000
00000000
00010000
00000000
,
10000000
10000000
00010000
10000000
,
00010000
00000000
10000000
00010000
,
00100000
00000000
01000000
00000000
,
00100000
00000000
00001000
00010000
,
00001000
00000000
00000000
00000000
,
00010000
00000000
00000000
00010000
00000000
00000000
00010000
00000000
,
00000010
00000000
00000000
00000010
00000000
00000000
00000010
00000000
,
00000100
00000000
00000000
00000100
00000000
00000000
00000100
00000000
,
00000001
00000000
00000000
00000001
00000000
00000000
00000001
00000000
,
00001000
00000000
00000100
00010000
,
00001000
00000000
01000000
00000000
,
00100000
00000000
10000000
00010000
,
02000000
03000000
00000000
00000000
,
00100000
00000000
00000000
10000000
00000000
00000000
01000000
00000000
,
00100000
00000000
00000000
00010000
00000000
00000000
00001000
00000000
,
00000100
00000000
00000000
00000010
00000000
00000000
00000001
00000000
,
00000100
00000000
00000000
00000010
00000000
00000000
00001000
00000000
,
00000001
00000000
00000100
00000000
,
00000010
00000000
00000000
00001000
00000000
00000000
00000100
00000000
,
00020000
00000000
00000000
00000000
,
00032000
00000000
00000000
00000000
,
02003000
00000000
03100000
10000000
,
01000000
00000000
00100000
00001000
,
00020000
00000000
00000000
00030000
,
00011000
00011000
00011000
00011000
,
00010000
00000000
00000100
00000000
,
00000010
00000000
00000000
00000001
00000000
00000000
00000100
00000000
,
00000002
00000000
00000000
00000000
,
00002003
00000000
00000000
00000000
,
00003200
00000000
00010300
00001000
,
01000000
00000000
00000000
01000000
00000000
00000000
00100000
00000000
,
20020000
00000000
00000000
00000000
,
00000000
00000000
00000000
00000000
00000000
00000000
00000000
30030000
,
00022000
00000000
00000000
00000000
00000000
00000000
00000000
00033000
,
00010000
00000100
00000010
00000001
,
00000100
00000000
00000010
00000000
,
00010000
00000000
00001000
00000000
,
01000000
00000000
00100000
00000000
,
01000000
01000000
00100000
01000000
,
00010000
00000000
00100000
00000000
,
00001000
00000000
00010000
00000000
,
00000010
00000000
00000100
00000000
,
00000001
00000001
00001000
00000001
,
00001000
00000000
00000010
00000000
,
00000100
00000000
00000001
00000000
,
00000010
00000000
00000100
00000000
,
00010000
00000000
00001000
00000000
,
00100000
00000000
01000000
00000000
,
10000000
00000000
00100000
00000000
,
10000000
00000000
00010000
00000000
,
10000000
10000000
00010000
10000000
,
00010000
00000000
00100000
00000000
,
01000000
00000000
10000000
00000000
,
00100000
00000000
01000000
00000000
,
00010000
00000000
00100000
00000000
,
00001000
00000000
00010000
00000000
,
00000010
00000000
00000100
00000000
,
00000001
00000000
00001000
00000000
,
00000001
00000001
00001000
00000001
,
00001000
00000000
00000001
00001000
,
00000100
00000000
00000010
00000000
,
00000100
00000000
00010000
00001000
,
00010000
00000000
00000000
00000000
,
00001000
00000000
00000000
00001000
00000000
00000000
00001000
00000000
,
01000000
00000000
00000000
01000000
00000000
00000000
01000000
00000000
,
00100000
00000000
00000000
00100000
00000000
00000000
00100000
00000000
,
10000000
00000000
00000000
10000000
00000000
00000000
10000000
00000000
,
00010000
00000000
00100000
00001000
,
00010000
00000000
00000010
00000000
,
00000100
00000000
00000001
00001000
,
00000020
00000030
00000000
00000000
,
00000100
00000000
00000000
00000001
00000000
00000000
00000010
00000000
,
00000100
00000000
00000000
00001000
00000000
00000000
00010000
00000000
,
00100000
00000000
00000000
01000000
00000000
00000000
10000000
00000000
,
00100000
00000000
00000000
01000000
00000000
00000000
00010000
00000000
,
10000000
00000000
00100000
00000000
,
01000000
00000000
00000000
00010000
00000000
00000000
00100000
00000000
,
00002000
00000000
00000000
00000000
,
00023000
00000000
00000000
00000000
,
00030020
00000000
00000130
00000001
,
00000010
00000000
00000100
00010000
,
00002000
00000000
00000000
00003000
,
00011000
00011000
00011000
00011000
,
00001000
00000000
00100000
00000000
,
01000000
00000000
00000000
10000000
00000000
00000000
00100000
00000000
,
20000000
00000000
00000000
00000000
,
30020000
00000000
00000000
00000000
,
00230000
00000000
00301000
00010000
,
00000010
00000000
00000000
00000010
00000000
00000000
00000100
00000000
,
00002002
00000000
00000000
00000000
,
00000000
00000000
00000000
00000000
00000000
00000000
00000000
00003003
,
00000220
00000000
00000000
00000000
00000000
00000000
00000000
00000330
,
00000100
00000001
00000010
00000100
,
00010000
00000000
00000000
00000000
;

//---------------dance-double - Copied from Copied f----------------
#NOTES:
     dance-double:
     Copied from Copied f:
     Hard:
     9:
     0.748,0.700,0.067,0.217,0.000:
00000000
00000000
00000000
00000000
,
00000000
00000000
00000000
00000000
,
00000000
00000000
00000000
00000000
,
00000000
00000000
00000000
00000000
,
00000000
00000000
00000000
00000000
,
00000000
00000000
00000000
00000000
,
00000000
00000000
00000000
00000000
,
00000000
00000000
00000000
00000000
,
00000000
00000000
00000000
00000000
,
10000000
00000000
00010000
00100000
00000000
00001000
00010000
00000000
,
00001000
00000000
00010000
00000010
00000000
00000100
00000001
00000000
,
00000010
00000100
00010000
00001000
,
01000000
00100000
01000000
00100000
00000000
10000000
00010000
00000000
,
10000000
00000000
00100000
01000000
00000000
00010000
00100000
00000000
,
00001000
00000000
00010000
00000100
00000000
00000010
00000001
00000000
,
00000100
00000010
00001000
00000001
,
00000010
00000001
00000010
00000100
00010000
00001000
01000000
00100000
,
01000000
00000000
00100000
00000000
10000000
01000000
00100000
00000000
,
01000000
00000000
00100000
00001000
00010000
00000000
00001000
00000000
,
00010000
00001000
00010000
00000000
00010000
00000100
00010000
00000000
,
00000100
00001000
00000010
00000100
,
00000001
00000010
00000001
00000100
00000000
00000010
00001000
00000000
,
00000200
00000000
00020300
00000000
00031000
01000000
00100000
00000000
,
00100000
10000000
01000000
00000000
01000000
00100000
00001000
00000000
,
00001000
00010000
00001000
00000100
00000010
00000100
00000001
00000010
,
00000100
00000000
00000010
00000000
00000001
00000100
00000010
00000000
,
00001000
00000000
00000100
00010000
00001000
00000000
00100000
00000000
,
00001000
00010000
00001000
00000000
00001000
00100000
00001000
00000000
,
00100000
00010000
10000000
01000000
,
10000000
00100000
10000000
01000000
00000000
00100000
00001000
00000000
,
00020000
00000000
00032000
00000000
00013000
00000010
00000100
00000000
,
00000100
00000001
00000010
00000000
00000010
00000100
00010000
00000000
,
00001000
00010000
00001000
01000000
00100000
10000000
00010000
00100000
,
01000000
00000000
01000000
10000000
00100000
00000000
00100000
01000000
,
00001000
00010000
00001000
00010000
00000000
00001000
00010000
00000000
,
00010000
00000010
00000100
00000001
00000000
00000001
00000100
00000000
,
00000020
00020030
00032000
02003000
,
03100000
10000000
01000000
10000000
00000000
00100000
01000000
00000000
,
00010000
00100000
01000000
00100000
00000000
00001000
00010000
00000000
,
00010000
00000100
00000010
00000100
00000000
00000010
00000001
00000000
,
00000100
00000010
00000100
00001000
00000000
00000100
00000001
00000010
,
00000100
00000000
00000100
00010000
00000100
00000000
00000100
00010000
,
01000000
10000000
00010000
01000000
00000000
01000000
00100000
00000000
,
00100000
10000000
01000000
00100000
00000000
00100000
00001000
00020000
,
00002000
00000000
00000000
00033000
,
00010000
00000100
00000010
00000100
00000000
00000010
00000001
00000000
,
00000001
00000100
00000010
00000100
00000000
00000010
00001000
00000000
,
00000100
00010000
00001000
00010000
00000000
00001000
01000000
00000000
,
00100000
10000000
00100000
01000000
00000000
00100000
10000000
01000000
,
00100000
01000000
10000000
00000000
00100000
01000000
00010000
00000000
,
00100000
00001000
00010000
00002000
00000000
00010000
00013000
00000000
,
00010000
00000010
00000100
00000000
00000010
00000100
00000001
00000000
,
00000010
00000100
00010000
00001000
00000000
00001000
01000000
00100000
,
01000000
00000000
00100000
00000000
10000000
01000000
00100000
00000000
,
01000000
00000000
00100000
00001000
00010000
00000000
00000100
00000000
,
00000010
00000001
00000100
00000000
00000010
00001000
00000100
00000000
,
00000100
00000010
00000011
00000000
00000001
00001000
00001100
00000000
,
00000100
00000010
00000001
00000000
00000100
00000010
00001000
00000000
,
00000100
00010000
00001000
00010000
00000000
00001000
00100000
01000000
,
00100000
00010000
01000000
00000000
00100000
10000000
01000000
00000000
,
01000000
00100000
00001000
00010000
00000000
00010000
00001000
00000100
,
00000010
00000001
00000100
00000000
00000010
00001000
00000100
00000000
,
00000100
00010000
00001000
00010000
00000000
00001000
01000000
00000000
,
00100000
10000000
01000000
00000000
01000000
00100000
00010000
00000000
,
00010000
00000100
00000010
00000000
00000010
00000001
00000100
00000000
,
00000010
00001000
00000001
00000100
,
00000001
00001000
00001100
00000000
00001000
00000001
00000101
00000000
,
00000001
00000000
00000100
00000010
00000000
00001000
00000100
00000000
,
00010000
00000000
00001000
01000000
00000000
00100000
10000000
00000000
,
02000000
03200000
00302000
00023000
,
00030100
00000010
00000100
00001000
00000000
00001000
00000001
00000000
,
00000100
00000000
00000010
00001000
00000000
00000100
00010000
00000000
,
00001000
00000000
01000000
00100000
00000000
00100000
10000000
00000000
,
00020000
02030000
03200000
10300000
,
01000000
00100000
00001000
00010000
00000100
00000010
00000001
00000010
,
00000100
00000000
00000010
00000000
00000001
00000010
00000100
00000000
,
00000010
00000000
00000100
00010000
00001000
00000000
00010000
00000000
,
00001000
00010000
00001000
00000000
00001000
00100000
00001000
00000000
,
00100000
00010000
01000000
00100000
,
10000000
01000000
10000000
00100000
00000000
01000000
00010000
00000000
,
00200000
00000000
00302000
00000000
00013000
00000010
00000100
00000000
,
00000100
00000001
00000010
00000000
00000010
00000100
00010000
00000000
,
00010000
00001000
00010000
00100000
01000000
00100000
10000000
01000000
,
00100000
00000000
01000000
00000000
10000000
00100000
01000000
00000000
,
00010000
00000000
00100000
00001000
00010000
00000000
00000100
00000000
,
00010000
00001000
00010000
00000000
00010000
00000100
00010000
00000000
,
00000100
00001000
00000001
00000010
,
00000001
00000100
00000001
00000010
00000000
00000100
00010000
00000000
,
00002000
00000000
00023000
00000000
00031000
01000000
00100000
00000000
,
00100000
10000000
01000000
00000000
01000000
00100000
00001000
00000000
,
00010000
00001000
00010000
00000010
00000100
00000001
00001000
00000100
,
00000010
00000000
00000010
00000001
00000100
00000000
00000100
00000010
,
00010000
00001000
00010000
00001000
00000000
00010000
00001000
00000000
,
00001000
01000000
00100000
10000000
00000000
10000000
00100000
00000000
,
02000000
03002000
00023000
00030020
,
00000130
00000001
00000010
00000001
00000000
00000100
00000010
00000000
,
00001000
00000100
00000010
00000100
00000000
00010000
00001000
00000000
,
00001000
00100000
01000000
00100000
00000000
01000000
10000000
00000000
,
00100000
01000000
00100000
00010000
00000000
00100000
10000000
01000000
,
00100000
00000000
00100000
00001000
00100000
00000000
00100000
00001000
,
00000010
00000001
00001000
00000010
00000000
00000010
00000100
00000000
,
00000100
00000001
00000010
00000100
00000000
00000100
00010000
00002000
,
00020000
00000000
00000000
00033000
,
00001000
00100000
01000000
00100000
00000000
01000000
10000000
00000000
,
10000000
00100000
01000000
00100000
00000000
01000000
00010000
00000000
,
00100000
00001000
00010000
00001000
00000000
00010000
00000010
00000000
,
00000100
00000001
00000100
00000010
00000000
00000100
00000001
00000010
,
00000100
00000010
00000001
00000000
00000100
00000010
00001000
00000000
,
00000100
00010000
00001000
00020000
00000000
00001000
00031000
00000000
,
00001000
01000000
00100000
00000000
01000000
00100000
10000000
00000000
,
01000000
00100000
00001000
00010000
00000000
00010000
00000010
00000100
,
00000010
00000000
00000100
00000000
00000001
00000010
00000100
00000000
,
00000010
00000000
00000100
00010000
00001000
00000000
00100000
00000000
,
01000000
10000000
00100000
00000000
01000000
00010000
00100000
00000000
,
00100000
01000000
11000000
00000000
10000000
00010000
00110000
00000000
,
00100000
01000000
10000000
00000000
00100000
01000000
00010000
00000000
,
00100000
00001000
00010000
00001000
00000000
00010000
00000100
00000010
,
00000100
00001000
00000010
00000000
00000100
00000001
00000010
00000000
,
00000010
00000100
00010000
00001000
00000000
00001000
00010000
00100000
,
01000000
10000000
00100000
00000000
01000000
00010000
00100000
00000000
,
00100000
00001000
00010000
00001000
00000000
00010000
00000010
00000000
,
00000100
00000001
00000010
00000000
00000010
00000100
00001000
00000000
,
00001000
00100000
01000000
00000000
01000000
10000000
00100000
00000000
,
01000000
00010000
10000000
00100000
,
10000000
00010000
00110000
00000000
00010000
10000000
10100000
00000000
,
10010000
00000000
00000000
00000000
;
