#TITLE:Change the World;
#SUBTITLE:;
#ARTIST:Tatsh Feat. 小田ユウ;
#TITLETRANSLIT:;
#SUBTITLETRANSLIT:;
#ARTISTTRANSLIT:;
#CREDIT:;
#BANNER:Change the World_bn.png;
#BACKGROUND:Change the World_bg.png;
#LYRICSPATH:;
#CDTITLE:CD_Title.png;
#MUSIC:Change the World.mp3;
#OFFSET:-1.370;
#SAMPLESTART:57.920;
#SAMPLELENGTH:13.200;
#SELECTABLE:YES;
#BPMS:0.000=143.000,24.000=286.000,152.000=143.000,168.000=286.000,324.000=143.000,332.500=286.000,335.500=286.000,459.000=143.000,462.000=143.000,467.500=286.000,470.500=286.000,488.500=286.020;
#STOPS:228.000=0.620
,363.000=0.125
,482.000=0.105
;
#BGCHANGES:;

//---------------dance-single - ----------------
#NOTES:
     dance-single:
     :
     Easy:
     4:
     0.335,0.460,0.024,0.357,0.000:
1000
0000
0001
0000
,
1000
0010
0010
1000
,
0001
0000
1000
0000
,
0010
0000
0000
0100
0000
0100
0000
0200
,
0000
0000
0300
0000
,
0020
0000
0030
0000
,
0010
0000
0000
1000
,
0000
1000
0000
0001
,
0000
1000
0000
0001
,
0000
0000
0100
0000
,
0010
0000
0000
0100
,
0000
0100
0000
0010
,
0000
0100
0000
0010
,
0000
0000
1000
0000
,
0001
0000
0000
1000
,
0000
1000
0000
0001
,
0000
1000
0000
0001
,
0000
0000
0100
0000
,
0020
0000
0000
0000
,
2030
0000
0000
0000
,
3001
0000
0000
1000
0000
0000
0001
0000
,
0000
1000
0001
1000
,
0001
0000
0100
0000
,
0010
0000
1000
0000
,
0001
0000
0010
0000
,
0001
0000
1000
0000
,
0010
0000
0100
0000
,
0001
0000
1000
0000
,
0100
0000
0010
0000
,
0100
0000
1000
0000
,
0001
0000
0100
0000
,
0010
0000
0100
0000
,
0001
0000
1000
0000
,
0001
0000
0100
0000
,
0002
0000
0000
0000
,
1003
0000
0001
0000
,
0100
0000
0010
0100
,
0000
0100
0000
0000
,
0001
1000
0100
1000
,
0010
0010
0100
0001
,
1000
0100
1000
0001
,
0010
0010
0001
1000
,
0001
0000
0100
0000
,
0001
0000
1000
0000
,
0010
0000
0010
0000
,
0100
0000
0010
0000
,
1000
0000
0100
0000
,
1000
0000
0001
0000
,
2000
0000
0000
0000
,
3001
0000
0100
0000
,
0220
0000
0000
0000
,
0330
0010
2000
0002
,
0000
0000
3000
0003
,
0000
0000
0000
0000
,
0001
0100
0001
0100
,
0010
0000
0000
1000
0000
0000
2002
0000
,
0000
0000
0000
3003
,
0000
0001
0000
0100
,
0000
0010
0000
0100
,
0000
0001
0000
0001
,
0000
1000
0000
0001
,
0000
1000
0000
0100
,
0000
1000
0000
0001
,
0000
0010
0000
0010
,
0001
0000
0100
0000
,
0220
0000
0000
0330
,
0000
0000
0000
0010
,
0000
2000
0000
0000
,
3000
0001
0000
0100
,
0000
0020
0000
0000
,
2030
0002
0000
0000
,
0000
3003
0000
0000
,
0000
0001
0000
0100
,
0000
0010
0000
1000
,
0000
0010
0000
0100
,
0000
0001
0000
0001
,
0000
1000
0000
0001
,
0000
2000
0000
0000
,
0000
3002
0000
0000
,
0000
1003
0000
0001
,
0000
0100
0000
0020
,
0200
0000
0000
0330
0000
0010
0000
1000
,
0000
0001
0000
0100
0000
0001
0000
1000
,
0000
0010
0000
0000
0100
0000
0000
0020
,
0000
0200
0000
0000
0000
0000
0000
0030
,
0000
0300
0000
0000
0000
0000
0000
0000
,
0000
0001
0000
0000
0000
1000
0000
0000
,
0000
0002
0000
0000
0000
0000
0000
0000
,
0000
0000
0000
0000
0000
0000
0000
2003
,
0000
3020
0000
0000
0000
0000
0000
0000
,
0000
0000
0000
0030
0000
0000
0000
0000
,
1000
0000
0010
0000
,
1000
0000
0001
0000
,
0010
0000
0001
0000
,
0100
0000
0010
0000
,
1000
0000
0001
0000
,
0010
0000
0001
0000
,
1000
0000
0100
0000
,
1000
0000
0001
2000
,
3000
1000
0001
0000
,
0100
0000
0010
0000
,
1000
0000
0001
0000
,
0010
0000
0001
0000
,
1000
0000
0010
0000
,
1000
0000
0001
0000
,
0100
0000
0001
0000
,
1000
0000
0010
0000
,
0200
0000
0320
0000
,
2030
0000
3001
1000
,
0002
0000
0203
0000
,
0320
0000
1030
0010
,
2000
0000
3020
0000
,
0230
0000
0301
0100
,
0002
0000
0203
0000
,
0320
0000
1030
0002
,
0000
0103
0000
0001
0000
1000
0000
0010
,
0000
1000
0000
0001
0000
0010
0000
0001
,
0000
0000
0000
0100
0000
0000
0000
0010
,
0000
0000
0000
1000
0000
0000
0000
0010
,
0000
0000
0000
0100
0000
0000
0000
0001
,
0000
0000
0000
1000
0000
0000
0002
0000
,
0000
0000
0000
0000
,
0000
0000
2003
3020
,
0000
0000
0000
0000
,
0000
0000
0000
0000
,
0000
0000
0000
0030
;

//---------------dance-single - Copied from----------------
#NOTES:
     dance-single:
     Copied from:
     Medium:
     7:
     0.555,0.970,0.406,0.544,0.000:
1000
0010
1000
0001
,
0011
1001
1010
1001
,
0001
1000
0100
1000
,
1010
0000
1000
0001
0000
0010
0000
0200
,
0000
0000
0000
0000
,
2300
0000
3002
0000
,
1003
0010
1000
0002
,
0000
0203
0000
2300
,
0000
3200
0000
0302
,
0000
1003
0001
0000
,
1000
0010
1000
0200
,
0000
0320
0000
0032
,
0000
0023
0000
0230
,
0000
1300
0001
0000
,
0100
0001
0100
0020
,
0000
2030
0000
3200
,
0000
0320
0000
0230
,
0000
1300
0001
0010
,
0002
0000
0100
0000
,
2003
0000
0000
0000
0100
0000
0000
3000
,
1100
0000
0000
1001
0000
0000
0011
0000
,
0000
1001
1001
1001
,
0110
0000
0010
1000
,
0001
1000
0010
0000
,
0100
0000
0001
1000
,
0010
0000
1000
0001
,
1001
0000
0010
0100
,
0000
0100
0010
1000
,
0001
0000
0001
1000
,
0000
0010
0100
0001
,
1000
0000
0100
1000
,
0000
1000
0001
0010
,
0001
0000
0100
0010
,
0000
0010
0100
0001
,
2000
0000
3001
1000
,
0002
0000
0003
0100
,
0020
0000
0000
0030
1000
0000
0002
0000
,
0000
0003
2002
0000
0000
3003
0000
0000
,
2001
0000
3001
0100
1000
0100
0001
0010
,
0110
1100
1010
0011
,
1002
0003
1000
0100
0001
0100
1000
0001
,
0100
1000
0100
0002
0000
0000
1003
0000
,
0001
1000
0000
1000
,
0001
1000
0001
0010
,
0200
0000
0320
0000
,
0031
2000
0000
3000
,
1001
0000
0001
0200
,
0000
0320
0000
2030
,
0000
3000
0000
0001
,
1000
0000
0000
0010
0000
0000
0100
0000
,
0002
0000
0000
0000
,
0000
0013
0100
2000
,
0000
0000
0000
0000
,
3000
0000
0000
0000
,
1000
1000
0001
1000
,
1010
0000
0000
0101
0000
0000
2002
0000
,
0000
0000
0000
3003
,
2002
3003
0000
0000
0000
0000
0000
0000
0000
0000
0000
0000
0000
0000
0000
0000
0001
0000
0000
0000
0000
0000
0000
0000
0000
0000
0000
0000
0000
0000
0000
0000
0000
0000
0000
0000
0000
0000
0000
0000
1000
0000
0000
0000
0000
0000
0000
0000
0000
0000
0000
0000
0000
0000
0000
0000
0000
0000
0000
0000
0000
0000
0000
0000
,
0010
0000
0100
0000
0000
0001
0000
0000
,
1000
1010
0000
1001
,
0000
0011
0000
1001
,
0000
0000
0001
0000
0000
0100
0000
0000
,
0010
0000
1000
0000
0000
0001
0000
0000
,
0100
0110
0000
0010
,
1010
0000
1100
0000
,
1002
0000
0000
0100
,
0003
2001
0000
0100
,
0000
3002
0000
0023
,
0000
0000
0031
0000
0000
0100
0000
0000
,
0010
2010
0010
3010
,
1000
0002
0000
0000
,
0000
0003
0000
0000
,
0000
1000
0000
0001
,
0000
1000
0010
1000
,
0010
0100
0001
0010
,
0100
1100
0000
1001
,
0000
0101
0000
1001
,
0000
0001
0100
0100
,
0001
1000
0100
0100
,
1000
0000
1010
0000
0000
1000
0000
0000
,
0001
0101
0000
1000
,
2002
0003
3001
1000
0000
0010
0000
0100
,
0000
0001
0000
1000
0000
0100
0000
0010
,
0000
0011
0000
0000
1000
0000
0000
0001
,
0000
2020
0000
0000
0000
0000
0000
0000
,
0000
3030
0000
0000
0000
0000
0000
0000
,
0000
0001
0000
0000
0000
1000
0000
0000
,
0000
0002
0000
0000
0000
0000
0000
0000
,
0000
0000
0000
0000
0000
0003
0000
2000
,
0000
0020
0000
0000
0000
0000
0000
0000
,
0000
0000
0000
3000
0000
0030
0000
0000
,
0001
0100
0001
1000
,
0010
0010
1000
0010
,
0100
0001
1000
0001
,
0100
0100
0010
1000
,
0001
0010
0100
0010
,
0001
0001
1000
0001
,
0100
0010
1000
0010
,
0100
0001
1000
1001
,
0000
1000
0010
0010
,
0100
0001
1000
0010
,
1000
0001
0100
0100
,
0010
1000
0001
0100
,
0001
0001
1000
0100
,
1000
1000
0001
1000
,
0010
0010
1000
0001
,
0100
0100
0010
1000
,
0002
0000
0203
0000
,
0320
0000
0000
0000
1030
0000
0001
1000
,
0002
0000
1003
0200
,
0000
0310
0010
0001
,
1000
0010
1000
0200
,
0000
0000
0310
0000
0001
0000
1000
0001
,
1000
0001
0010
0100
,
0010
0001
1000
2001
,
3001
0010
1000
0010
0001
1000
1002
0000
,
1003
0010
0001
0010
1000
0001
0010
0110
,
0000
0010
0000
0001
0000
0100
0000
0110
,
0000
0010
0000
1000
0000
0001
0000
1001
,
0000
1000
0000
0001
0000
0100
0000
0020
,
0000
0000
0000
2030
0000
0000
3002
0000
,
0000
0000
0000
0000
,
0000
0000
2003
3020
,
0000
0000
0000
0000
,
0000
0000
0000
0000
,
0000
0000
0000
0030
;

//---------------dance-single - Copied from Copied f----------------
#NOTES:
     dance-single:
     Copied from Copied f:
     Hard:
     10:
     0.935,1.000,0.763,0.731,0.130: // measure 1
0011
0000
0000
0001
0000
0000
0100
0000
0110
0000
0000
0010
0000
0000
1000
0000
,  // measure 2
1010
1100
0101
0011
,  // measure 3
1010
0000
0000
1000
0000
0000
0010
0000
0110
0000
0000
0100
0000
0000
0001
0000
,  // measure 4
0011
0000
1010
1010
0000
0011
0000
0202
,  // measure 5
0000
0000
0303
0000
,  // measure 6
1000
0010
1000
0010
0100
0001
0100
0001
0010
0100
1000
0100
0010
0001
1000
0001
,  // measure 7
2000
0001
3100
1002
,  // measure 8
0103
2001
3100
1002
,  // measure 9
0013
2001
3010
1002
,  // measure 10
0010
1000
1000
0103
,  // measure 11
2010
0001
0001
3100
,  // measure 12
2100
3001
0102
1003
,  // measure 13
2010
3001
0012
1003
,  // measure 14
2010
0001
0001
3100
,  // measure 15
1002
0000
0010
0000
1000
0003
2010
0000
,  // measure 16
3100
0012
0103
1200
,  // measure 17
0310
0201
0310
2000
,  // measure 18
0001
3100
1001
1001
,  // measure 19
2010
0010
0001
3100
,  // measure 20
0012
0010
1000
0103
,  // measure 21
0101
0000
0000
1001
0000
0000
1100
0000
,  // measure 22
0000
1100
0101
1010
,  // measure 23
0011
0000
0001
0100
,  // measure 24
0010
1000
0100
0001
,  // measure 25
0101
0100
1000
0010
,  // measure 26
0001
0010
0100
0001
,  // measure 27
1001
1000
0010
0100
,  // measure 28
1000
0100
0001
0010
,  // measure 29
0011
0001
0100
1000
,  // measure 30
0100
0010
1000
0001
,  // measure 31
1001
1000
0100
0001
,  // measure 32
1001
0001
0100
1000
,  // measure 33
1010
0100
0001
0010
,  // measure 34
0101
0010
1000
0100
,  // measure 35
1100
0010
0001
0100
,  // measure 36
0011
0100
1000
0010
,  // measure 37
1001
1100
0011
2002
,  // measure 38
0000
3003
0220
0000
0000
0330
0000
0000
,  // measure 39
1010
0010
1000
0100
0001
0100
1000
0010
,  // measure 40
1010
1000
1010
0010
0011
0001
0011
0010
,  // measure 41
1010
1000
0100
0001
0100
1000
0010
0100
,  // measure 42
0101
0001
0011
0010
1010
1000
1100
0100
,  // measure 43
0101
0001
0100
1000
,  // measure 44
0100
0001
0010
0100
,  // measure 45
1100
1000
1010
0010
,  // measure 46
0011
0001
0011
0010
,  // measure 47
1020
1000
0100
1030
,  // measure 48
0021
0001
0100
0031
,  // measure 49
1002
0010
1000
0103
,  // measure 50
2001
0010
0001
3100
,  // measure 51
1002
0103
2001
3100
,  // measure 52
1001
0101
1100
1010
,  // measure 53
2002
3000
0100
0000
1000
0000
0013
0000
,  // measure 54
2002
0003
0010
0000
0001
0000
3100
0000
,  // measure 55
1010
0011
1100
0101
,  // measure 56
1001
0000
0000
1001
0000
0000
0220
0000
,  // measure 57
0000
0000
0330
0000
,  // measure 58
0000
0000
0001
0000
1000
0100
1000
0000
,  // measure 59
0001
0000
1000
0000
0001
0010
0001
0000
,  // measure 60
1000
0000
0010
0100
0010
0000
0100
0001
,  // measure 61
0100
0000
0001
0010
0001
0000
1000
0010
,  // measure 62
1000
0000
0001
0000
1000
0010
0100
0000
,  // measure 63
0001
0000
1000
0000
0001
0100
0010
0000
,  // measure 64
1000
0000
0001
0100
0010
0000
1000
0000
,  // measure 65
0001
0010
0100
0000
1000
0010
0100
0000
,  // measure 66
0220
0000
0330
0010
,  // measure 67
0010
0100
0010
1000
,  // measure 68
0001
1000
1000
0001
,  // measure 69
0001
0100
0010
1000
,  // measure 70
0001
0000
1000
0100
0010
0001
0010
0100
,  // measure 71
1000
0001
0020
0000
0000
0000
0000
0000
,  // measure 72
0000
0030
0000
0000
,  // measure 73
0000
0002
0000
2003
,  // measure 74
0000
0000
3001
0000
1000
0100
0010
0100
,  // measure 75
1000
0000
0010
0000
0100
0001
1000
0001
,  // measure 76
0100
0000
0001
0010
0100
0000
0100
0010
,  // measure 77
0001
0000
1000
0010
0100
0000
0100
0010
,  // measure 78
1000
0000
0002
0000
0103
0001
1000
0010
,  // measure 79
0100
0000
0020
0000
0130
0001
1000
0010
,  // measure 80
0100
0000
0002
0000
1003
0001
1000
0010
,  // measure 81
0200
0000
0310
1000
0010
1000
0001
0010
,  // measure 82
0200
0000
0000
0000
0310
0000
0001
0010
0000
0001
0100
0000
0010
0000
1000
0001
,  // measure 83
1000
0000
0110
0000
0000
0010
1000
0000
0100
0000
0010
0001
0100
0000
0010
1000
,  // measure 84
0100
0010
0002
0000
0000
0000
1003
0000
0001
0000
1000
0000
0001
0000
0010
0000
,  // measure 85
0100
2000
0000
0100
0000
0001
0000
3010
,  // measure 86
0000
0002
0000
0010
0000
1000
0000
0103
,  // measure 87
0000
1010
0000
1001
0000
0011
0000
0000
,  // measure 88
0000
1000
0100
1000
0100
1000
0001
1000
,  // measure 89
0001
0000
1000
0010
1000
0010
1000
0000
0001
0000
0010
0000
0100
0000
0020
0000
,  // measure 90
0000
0002
0000
0000
0000
0000
0000
0000
,  // measure 91
0000
0000
0000
0033
0000
0000
0000
0000
,  // measure 92
0010
0001
0100
0010
1000
0000
0010
1000
,  // measure 93
0200
0000
0320
0000
0031
0100
0001
0100
,  // measure 94
0010
1000
0100
0010
0002
0000
1003
0001
,  // measure 95
0020
0000
0230
0000
0310
0001
1000
0010
,  // measure 96
1000
0100
0010
0001
2000
0000
3001
0100
,  // measure 97
0001
0100
0010
1000
0100
0010
0001
0010
,  // measure 98
0200
1000
1300
0100
0020
0001
0031
0010
,  // measure 99
0002
0000
1003
0001
1000
0010
0200
0000
,  // measure 100
0000
0000
0310
1000
0100
0010
0001
1000
,  // measure 101
0002
0000
2003
0000
3001
0100
0010
0100
,  // measure 102
0001
1000
0010
0100
0010
1000
0001
0010
,  // measure 103
0100
1000
0100
0010
0001
1000
0001
1000
,  // measure 104
0010
0100
0100
0010
1000
0000
0001
0010
,  // measure 105
0100
0010
0010
0001
1000
0100
0010
0100
,  // measure 106
2000
0000
0000
0000
0000
0000
3001
0000
1000
0001
1000
0000
0001
0000
1000
0000
,  // measure 107
0010
0100
0010
0100
0001
1000
0001
1000
,  // measure 108
0200
0000
0320
0000
,  // measure 109
0032
0000
0000
0000
2003
0000
3010
1000
,  // measure 110
0002
0000
0203
2300
,  // measure 111
0000
3200
0302
0023
,  // measure 112
0230
0000
2300
3002
,  // measure 113
0000
0000
0003
0000
0100
0000
0100
0001
,  // measure 114
2000
0000
0000
0000
3001
0010
0100
1000
,  // measure 115
0002
0000
1003
2002
,  // measure 116
3003
0000
1000
0000
0001
0000
0100
0000
1000
0100
0001
0010
0200
0000
0310
0001
,  // measure 117
0001
0100
0000
0010
1000
0000
0001
0100
0010
1000
0100
0000
0010
0001
0001
0000
,  // measure 118
1000
0001
1000
0010
0100
0001
0010
0100
,  // measure 119
1000
0100
1000
0010
0100
0001
1000
0100
,  // measure 120
0020
0001
0031
0010
0200
1000
1300
0200
,  // measure 121
0000
0000
0000
0320
0000
0000
0031
0100
,  // measure 122
0001
0000
0100
0000
0001
0000
1000
0000
0001
0000
1000
0000
0010
1000
0010
1000
,  // measure 123
0010
1000
0001
0000
2000
0000
0002
0000
,  // measure 124
0000
0000
0000
0000
,  // measure 125
0000
0000
0000
0000
,  // measure 126
0000
0000
3000
0003
;
