#TITLE:Come Back to my Heart;
#SUBTITLE:(Ryu Remix);
#ARTIST:Another Infinity feat. Mayumi Morigana;
#TITLETRANSLIT:;
#SUBTITLETRANSLIT:;
#ARTISTTRANSLIT:;
#CREDIT:;
#BANNER:Come Back to my Heart (Ryu Remix)_bn.png;
#BACKGROUND:Rainbow Rainbow.jpg;
#LYRICSPATH:;
#CDTITLE:;
#MUSIC:Come Back to my Heart (Ryu Remix).mp3;
#OFFSET:-0.458;
#SAMPLESTART:45.540;
#SAMPLELENGTH:14.300;
#SELECTABLE:YES;
#BPMS:0.000=180.000;
#STOPS:;
#BGCHANGES:;

//---------------dance-single - ----------------
#NOTES:
     dance-single:
     :
     Hard:
     9:
     0.693,0.664,0.187,0.215,0.014:
0000
0000
0000
0000
,
0000
0000
0000
0000
,
0000
0000
0000
0000
,
0000
0000
0000
0000
,
1000
0100
0010
0100
1000
0000
0001
0000
,
0100
0010
1000
0010
0100
0000
0001
0000
,
1000
0010
0100
0000
0010
0100
0001
0000
,
0100
0010
1000
0001
0100
0010
1000
0000
,
0001
0010
0100
0000
1000
0010
0100
0000
,
0001
0010
0100
0010
0001
1000
0010
0000
,
1000
0100
0010
0000
0001
0100
0010
0000
,
1000
0100
0010
0100
1000
0001
0010
0010
,
0001
1000
0100
0000
0010
0001
0100
0000
,
0010
1000
0100
0010
0001
0100
0001
0000
,
0010
0001
1000
0000
0010
1000
0100
0000
,
0010
1000
0001
1000
0100
0010
0001
0000
,
1000
0100
1000
0100
0010
0001
0100
0000
,
0001
0010
0001
0010
0100
1000
0010
0000
,
1000
0001
1000
0001
0100
0010
1000
0002
,
0000
0103
0010
2000
0000
3010
0100
0001
,
0100
0010
0100
0010
1000
0100
0001
0000
,
0010
0100
0010
0100
0001
0010
1000
0010
,
0100
1000
0100
0010
0002
0000
0103
0010
,
2000
3200
0301
0000
,
0010
0001
0100
0010
1000
0000
1100
0000
,
0100
1000
0010
0100
0001
0010
0001
0100
,
0020
0000
0230
0000
0310
1000
0001
0010
,
0200
0000
0320
0000
0130
0001
0010
0100
,
1000
0010
0100
0001
0010
0000
0011
0000
,
0001
0100
0010
1000
0100
1000
0010
0100
,
0002
0000
0103
0010
1000
0010
0100
0001
,
2000
0000
3100
1000
0010
0100
0001
0010
,
0200
0000
0300
0000
,
0000
0000
0010
0000
0000
0000
0000
0000
0001
0000
0000
0000
0000
1000
0000
0000
0000
0000
0100
0000
0000
0000
0000
0000
0010
0000
0000
0000
0001
0000
0000
0000
,
1000
0100
0010
0001
2000
0000
3010
0000
,
0001
0010
0100
1000
0020
0000
1030
0000
,
0100
1000
0100
0000
1000
0010
1000
0000
,
0010
0100
0010
0100
0001
0010
1000
0000
,
0010
0001
0100
1000
0200
0000
0310
0000
,
0010
1000
0100
0001
0200
0000
0310
0000
,
0100
1000
1001
0000
1000
0010
0110
0000
,
0100
0001
1000
0010
0100
0001
1000
0000
,
0010
0100
1001
0000
1000
0001
0110
0000
,
0100
1000
0100
0010
0001
0100
0010
0000
,
0100
1000
0010
0000
0100
0001
0010
0000
,
0100
1000
0010
0100
0001
0010
0100
0000
,
0010
0001
0100
0000
0100
0010
1000
0000
,
0001
0010
0100
1000
0020
0100
0130
0010
,
1000
0100
0010
0000
0001
0100
0010
0000
,
1000
0100
0010
0001
0100
0010
1000
0000
,
0001
0010
0100
0000
0010
0001
0100
0000
,
0010
1000
0100
0010
0001
1000
0101
0000
,
0100
0010
1000
0100
0010
0000
0011
0000
,
0010
0001
0100
0010
1000
0000
1010
0000
,
1000
0001
0010
0000
0001
1000
0010
0000
,
1000
0001
0010
0001
1000
0100
0010
0000
,
0100
1000
0010
0100
0001
0000
1010
0000
,
1000
0010
0100
0001
0010
0000
0101
0000
,
0001
1000
0000
0100
1000
0010
0000
0100
,
0001
0010
0100
1000
0010
0000
0000
0100
,
0001
0000
1001
1000
0010
0000
0110
0000
,
0100
0001
0010
0100
1000
0000
1010
0000
,
1000
0100
0010
0000
0010
0001
0100
0000
,
0100
0010
1000
0200
0010
0010
0310
0000
,
0100
1000
0010
0100
0001
0000
0101
0000
,
0100
0010
1000
0100
0010
0000
0110
0000
,
0100
1000
0001
0000
0100
0001
1000
0000
,
0001
0010
0100
1000
0020
0100
0130
0000
,
0001
1000
1010
0000
1000
0001
0011
0000
,
0001
1000
0100
0010
0100
0010
0001
0100
,
0010
0100
0001
0000
0100
0010
1000
0000
,
0100
0010
0001
0100
0100
0010
1000
0000
,
0001
0010
0100
0000
1000
0010
0100
0000
,
0001
0010
0100
1000
0020
0100
0130
0010
,
1000
0001
0100
0000
0001
1000
0100
0000
,
1000
0010
0100
0002
0010
0013
0001
0000
,
0100
0010
1000
0001
0010
0100
1000
0010
,
0100
0001
1000
0100
0010
0001
0101
0000
,
2020
0000
0000
0000
,
3030
0000
0000
0000
;

//---------------dance-single - Copied from----------------
#NOTES:
     dance-single:
     Copied from:
     Challenge:
     9:
     0.806,0.886,0.187,0.318,0.271: // measure 1
0000
0000
0000
0000
,  // measure 2
0000
0000
0000
0000
,  // measure 3
0000
0000
0000
0000
,  // measure 4
0000
0000
0000
0000
0000
0000
0000
1000
,  // measure 5
0001
0000
0000
0100
0000
0000
0001
0000
2000
0000
0000
0000
0000
0000
3010
0100
,  // measure 6
0010
0000
0000
0100
0000
0000
0001
0000
2000
0000
0000
0000
0000
0000
3100
0000
,  // measure 7
0010
0000
0001
1000
0000
0000
0010
0000
0100
0000
0001
1000
0000
0000
0100
0000
,  // measure 8
0010
0001
1000
0010
0200
0000
0300
0000
,  // measure 9
0101
0000
1100
0000
0101
0001
0010
2000
,  // measure 10
0000
3010
0001
0100
1000
0100
0010
0000
,  // measure 11
1010
0000
0011
0010
1000
0010
0001
0010
,  // measure 12
0100
0001
1000
0100
0001
0001
0100
1000
,  // measure 13
0001
0000
0101
0000
1100
1000
0010
0002
,  // measure 14
0000
0013
1000
0100
0001
0100
0010
0000
,  // measure 15
0011
0000
1010
0010
0100
1000
0010
0001
,  // measure 16
0010
1000
0001
0010
1000
0001
0100
0000
,  // measure 17
1000
0000
0100
0000
0001
0000
0100
0000
0010
0000
0001
1000
0000
0000
0000
0000
,  // measure 18
0001
0000
0100
0000
1000
0000
0100
0000
0010
0000
1000
0001
0000
0000
0000
0000
,  // measure 19
0010
1000
0010
1000
0100
0001
0100
0002
,  // measure 20
0000
0103
1000
0020
0000
0031
0010
1000
,  // measure 21
0001
0000
0010
0000
1000
0000
0010
0000
0100
0000
1000
0001
0000
0000
0000
0000
,  // measure 22
1000
0000
0010
0000
0001
0000
0010
0000
0100
0000
0001
1000
0000
0000
1200
0000
,  // measure 23
0000
2300
0000
3020
0000
0031
0010
1000
,  // measure 24
0100
0001
0100
0010
0011
0000
0000
0000
,  // measure 25
0010
0000
0001
0010
0000
0000
0100
0000
2000
0000
0000
0000
3010
0000
0100
0000
,  // measure 26
0001
0000
0010
0200
0000
0000
1300
0000
0010
0000
0001
0000
0010
0000
0100
0002
,  // measure 27
0000
0000
0000
0000
0003
0000
1000
0001
1000
0000
0100
0000
1000
0000
0001
0020
,  // measure 28
0000
0000
0000
0000
0030
0000
0001
1000
0001
0000
0100
0000
0010
0000
1000
0000
,  // measure 29
0001
0000
0010
0001
0000
0010
0001
0000
0100
0000
0010
0000
1000
0000
0000
0000
,  // measure 30
0010
0000
1000
0100
0000
1000
0100
0000
0010
0000
0001
0000
0100
0000
0001
2000
,  // measure 31
0000
0000
0100
0000
3100
0000
1000
0001
1000
0000
0001
0000
0100
0000
0010
1000
,  // measure 32
0000
0000
0001
0000
0001
0000
0100
0010
0100
0000
0010
0000
1000
0000
0001
0000
,  // measure 33
0010
0001
0010
0000
0001
0100
0001
0000
0100
0010
0100
0000
0010
1000
0010
1000
,  // measure 34
0000
0010
0100
0000
0010
0000
0100
0010
0000
0010
0100
0000
0001
1000
0001
0000
,  // measure 35
1000
0000
0000
0010
0000
0000
1000
0000
0002
0000
0000
0000
0000
0000
0103
0010
,  // measure 36
0100
0000
0000
0010
0000
0000
1000
0000
0002
0000
0000
0000
0000
0000
0013
0000
,  // measure 37
0100
0000
1000
0001
0000
0000
0100
0000
0010
0000
1000
0001
0000
0000
0010
0000
,  // measure 38
0100
0000
1000
0001
0000
0000
0100
0000
0020
0000
0000
0000
0030
0000
0100
0000
,  // measure 39
0010
1000
0010
0100
0001
0010
2000
0000
,  // measure 40
3100
0001
0100
0001
0010
0001
1000
0000
,  // measure 41
0010
0000
0100
2000
0000
0000
3100
0000
0001
0000
1000
0002
0000
0000
0103
0000
,  // measure 42
0001
0010
0100
1000
1100
0001
0101
0000
,  // measure 43
1001
0000
0010
0100
0000
0000
0010
0000
1001
0000
0100
0010
0000
0000
0100
0000
,  // measure 44
1001
0010
0100
0010
1001
0000
0000
0000
,  // measure 45
1000
0100
0010
0100
0001
0100
0010
0100
,  // measure 46
1000
0010
0001
0010
1000
0100
0001
0000
,  // measure 47
0010
0001
0010
0100
0010
1000
0010
0100
,  // measure 48
1000
0010
0001
0010
1000
0100
0001
0000
,  // measure 49
0100
1000
0010
0001
0010
1000
0100
0010
,  // measure 50
0100
0001
0100
0010
0001
1000
0010
0000
,  // measure 51
0100
1000
0100
0001
0010
0001
0100
1000
,  // measure 52
0001
0010
1000
0100
0001
1000
0010
0000
,  // measure 53
0100
0000
0001
0000
0100
0000
0001
0000
0010
0000
1000
0000
0010
0000
0100
1000
,  // measure 54
0100
1000
0010
1000
0010
0001
0010
0100
,  // measure 55
0001
0000
0010
0001
0010
0000
0001
0000
1000
0000
0100
1000
0100
0000
1000
0000
,  // measure 56
0010
0000
0100
0010
0100
0000
0001
0000
1000
0000
0010
0000
0001
0000
0000
0000
,  // measure 57
0010
0000
1000
0000
0010
0000
1000
0000
0100
0000
0001
0000
0100
0000
0010
0001
,  // measure 58
0010
0001
0100
0001
0100
0010
1000
0100
,  // measure 59
1000
0000
0010
1000
0010
0000
1000
0000
0001
0000
0010
0001
0010
0000
0001
0000
,  // measure 60
0010
0001
0100
0010
1000
0100
0001
0200
,  // measure 61
0000
0000
0000
0300
1100
0000
1000
0000
0020
0000
0000
0000
0130
0000
0001
0010
,  // measure 62
0100
1000
0100
0010
0002
0000
0013
0001
,  // measure 63
0100
0000
0010
1000
0010
0000
0100
0000
0001
0000
0010
0001
0010
0000
0001
0000
,  // measure 64
0100
0000
0010
1000
0010
0000
1000
0000
0001
0000
0001
0000
0001
0000
0000
0000
,  // measure 65
0120
0000
0000
0000
0130
0000
0001
0000
0020
0000
0000
0000
0130
0000
1000
0100
,  // measure 66
0020
0000
0031
0100
0020
0000
0130
0001
,  // measure 67
1000
0000
0100
1000
0100
0000
1000
0000
0001
0000
0010
0001
0010
0000
0001
0000
,  // measure 68
0200
0000
0000
0010
2300
0000
0000
0001
,  // measure 69
3100
0000
1000
0100
1000
0000
0001
0000
0100
0000
0001
0010
0001
0000
1000
0000
,  // measure 70
0200
0000
0000
1000
0302
0000
0000
0003
,  // measure 71
0100
1000
0100
0010
0001
0100
1000
0100
,  // measure 72
0010
1000
0100
0001
0100
0010
0001
1000
,  // measure 73
0010
0001
0010
1000
0100
0001
0100
0010
,  // measure 74
0001
0100
1000
0100
0010
1000
0100
0001
,  // measure 75
0100
0010
0001
0100
1000
0100
0010
1000
,  // measure 76
0001
0010
1000
0001
0100
0010
0001
0100
,  // measure 77
1000
1000
0100
0100
0001
0001
0010
0010
,  // measure 78
1000
0010
0001
0100
0010
0010
0010
0000
,  // measure 79
2020
0000
0000
0000
,  // measure 80
3030
0000
0000
0000
;

//---------------dance-single - Copied from----------------
#NOTES:
     dance-single:
     Copied from:
     Medium:
     7:
     0.528,0.590,0.103,0.308,0.005:
0000
0000
0000
0000
,
0000
0000
0000
0000
,
0000
0000
0000
0000
,
0000
0000
0000
0000
,
1000
0010
0100
0000
0002
0000
0103
0000
,
0001
0100
0010
0000
2000
0000
3100
0000
,
1000
0100
0010
0000
0001
0100
0010
0000
,
1000
0001
1000
0001
1000
0000
0000
0000
,
0001
0100
1000
0100
,
0001
0100
1000
0100
,
0001
0010
1000
0010
,
0001
0010
1000
0010
,
0001
1000
0010
0100
,
0001
0010
0100
1000
,
0001
1000
0100
0010
,
0001
0100
0010
1000
,
0001
1000
0100
0000
2000
0000
3001
0000
,
1000
0001
0100
0000
0002
0000
1003
0000
,
0010
1000
0100
0000
0010
0001
0100
0001
,
0000
0010
0100
1000
0000
0010
0100
0001
,
0000
1000
0100
0010
0002
0000
0103
0000
,
0000
0001
0010
0100
2000
0000
3100
0000
,
1000
0000
0010
0000
0100
0000
0001
0010
,
0200
2300
3001
0000
,
1000
0001
1000
0000
0020
0000
0130
0000
,
0001
1000
0001
0000
0100
0010
0100
0010
,
0200
0000
0301
0000
1000
0100
1000
0100
,
2000
0000
3001
0000
0001
0100
0010
0000
,
1000
0100
0010
0001
0200
0000
0301
0000
,
0001
0010
0100
1000
0200
0000
1300
0000
,
1001
0000
0001
0000
0010
0100
0010
0000
,
1001
0000
1000
0000
0100
0010
0100
0000
,
0020
0000
0000
0000
,
0000
0230
0000
0000
0000
0000
0000
0000
0000
0000
0300
0000
0000
0000
0000
0000
,
1000
0100
0010
0000
0002
0000
0103
0000
,
0001
0010
0100
0000
2000
0000
3010
0000
,
1000
0001
1000
0000
0100
0010
0100
0000
,
0001
1000
0001
1000
0001
0000
0000
0000
,
1000
0010
0100
0000
0020
0000
1030
0000
,
0010
0100
0001
0000
0020
0000
0130
0000
,
0001
1000
0001
0000
1000
0100
1000
0000
,
0010
0100
0010
0100
0010
0000
0000
1000
,
1000
0000
0000
0001
0001
0000
0000
0100
,
0100
0010
0110
0000
,
0010
1000
0010
0001
,
0010
1000
0010
0001
,
0100
1000
0100
0001
,
0100
1000
0100
0001
,
0010
1000
0001
0100
,
0010
1000
0100
0010
,
0001
0100
0010
1000
,
0001
0000
0100
0000
0010
0010
0010
0000
,
1000
0100
1000
0100
2000
0000
3001
0000
,
0100
0001
0100
0001
0200
0000
0301
0000
,
1000
0001
1000
0000
0010
0100
0010
0000
,
1000
0100
0010
0001
0010
0000
0000
0000
,
0001
0010
0001
0010
0002
0000
1003
0000
,
0010
1000
0010
1000
0020
0000
1030
0000
,
0010
0100
0001
0000
0010
0100
1000
0000
,
0010
0100
0010
0100
0010
0000
0000
0000
,
0000
1001
0001
0100
,
0010
1000
0100
0010
0002
0000
0103
0000
,
0001
0010
0100
1000
,
0010
0100
0001
1000
0200
0000
0310
0000
,
0100
1000
0010
0100
,
0001
0010
0100
1000
0002
0000
0103
0000
,
0101
0001
1010
1000
,
0010
1000
0100
0010
0002
0000
0013
0001
,
0200
0310
2000
3001
,
0002
0103
0200
0310
,
1001
0010
1000
0100
,
0001
0100
1000
0010
,
1001
0010
0001
0100
,
1000
0100
0001
0010
,
0110
0100
1000
0100
,
0001
0010
0100
1000
,
0110
0010
1000
0100
,
0010
0000
0001
0000
0100
0010
0100
0000
,
2002
0000
0000
0000
,
3003
0000
0000
0000
;

//---------------dance-single - Copied from Copied f----------------
#NOTES:
     dance-single:
     Copied from Copied f:
     Easy:
     5:
     0.396,0.443,0.215,0.121,0.000:
0000
0000
0000
0000
,
0000
0000
0000
0000
,
0000
0000
0000
0000
,
0000
0000
0000
0000
,
1000
0010
0100
0000
,
0001
0100
0010
0000
,
1100
0000
0011
0000
,
1000
0001
0100
0000
,
0001
0100
0010
1000
,
0010
0100
0001
1000
,
0100
0010
0001
0100
,
0010
1000
0001
0100
,
0001
0010
0100
1000
,
0010
0100
0001
1000
,
0010
0100
0001
0010
,
0100
1000
0010
0110
,
1000
0000
0100
0000
1000
0100
1000
0000
,
0001
0000
0100
0000
0001
0100
0001
0000
,
1000
0100
0010
0001
,
0100
0010
1000
0001
,
1000
0000
0010
0000
1000
0010
1000
0000
,
0001
0000
0100
0000
0001
0100
0001
0000
,
1000
0100
0010
0001
,
0200
0010
0310
0000
,
0010
0100
0010
0000
1000
0000
0000
0000
,
0100
0010
0100
0000
0001
0000
0010
0000
,
0200
0000
1300
0010
,
0200
0000
0301
0010
,
0100
0010
0100
0000
1000
0000
0000
0000
,
0010
0100
0010
0000
1000
0000
0010
0000
,
0200
0000
0301
0010
,
0200
0000
1300
0010
,
0200
0000
0000
0000
,
0300
0000
0000
0000
,
0001
1000
0100
0000
,
1000
0001
0100
0000
,
0010
1000
0010
0001
,
0010
1000
0100
0000
,
1000
0001
0010
0000
,
0001
1000
0010
0000
,
0100
1000
0100
0001
,
0100
1000
0010
0000
,
0110
0000
1001
0000
,
0010
1000
0001
0000
,
1000
0100
1000
0010
,
0100
0001
0010
0001
,
0100
0010
1000
0001
,
0100
0001
0010
0100
,
1000
0010
0100
0001
,
1000
0100
1000
0010
,
0100
0001
1000
0010
,
0100
0001
1000
1001
,
0001
0010
0200
0300
,
1000
0010
0200
0300
,
0001
0011
1000
1010
,
1000
0100
0001
0000
,
0100
1000
0020
0030
,
0100
0001
0020
0030
,
0100
1100
0100
0101
,
0001
0010
1000
0000
,
0000
0011
0002
0003
,
0110
0010
1000
0000
,
1000
1010
0001
0011
,
1010
1000
0001
0000
,
0011
0001
1000
0000
,
1010
1000
0001
0000
,
0100
0101
0100
1100
,
1010
1000
0001
0000
,
0101
0000
1010
0000
,
1000
0001
0100
0000
,
0010
1000
0100
0001
,
0100
1000
0010
0100
,
0001
0010
1000
0010
,
0100
1000
0010
0100
,
1000
0100
0001
0100
,
0010
1000
0100
0001
,
0100
0010
0001
0100
,
1000
0100
0001
0010
,
2002
0000
0000
0000
,
3003
0000
0000
0000
;

//---------------dance-single - Copied from Copied f----------------
#NOTES:
     dance-single:
     Copied from Copied f:
     Beginner:
     2:
     0.199,0.291,0.000,0.009,0.000:
0000
0000
0000
0000
,
0000
0000
0000
0000
,
0000
0000
0000
0000
,
0000
0000
0000
0000
,
1000
0000
0000
0000
,
0001
0000
0000
0000
,
1000
0000
0001
0000
,
1000
1000
1000
0000
,
0010
0000
0000
0000
,
0100
0000
0000
0000
,
0010
0000
0000
0000
,
0100
0000
0010
0010
,
0010
0000
0000
0000
,
1000
0000
0000
0000
,
0001
0000
0000
0000
,
1000
1000
1000
0000
,
0010
0000
0000
0000
,
0100
0000
0000
0000
,
0001
0000
0000
0000
,
1000
0000
0001
1000
,
0001
0000
0000
0000
,
0010
0000
0000
0000
,
0100
0000
0000
0000
,
1000
0000
0001
0000
,
1000
1000
1000
0000
,
0010
0010
0010
0100
,
0010
0000
0100
0100
,
0100
0000
0001
0001
,
0001
1000
0001
0000
,
0100
0100
0010
0100
,
0010
0000
1000
1000
,
1000
0000
0001
0001
,
0002
0000
0000
0000
,
0000
0003
0000
0000
0000
0000
0000
0000
0000
0000
0000
0000
0000
0000
0000
0000
,
0100
0000
0000
0000
,
0010
0000
0000
0000
,
1000
0000
0001
0000
,
1000
0001
1000
0000
,
0010
0000
0000
0000
,
0100
0000
0000
0000
,
0001
0000
1000
0000
,
0010
0100
0010
0000
,
1000
0000
0001
0000
,
1000
0001
1000
0000
,
0010
0000
0000
0000
,
0100
0000
0000
0000
,
0001
0000
0000
0000
,
1000
0000
0010
0000
,
1000
0000
0000
0000
,
0010
0000
0000
0000
,
0100
0000
0000
0000
,
0001
0000
1000
1000
,
1000
0001
1000
0000
,
0001
1000
0001
0000
,
0100
0000
0010
0000
,
0100
0010
0100
0000
,
0001
1000
0001
0000
,
1000
0100
1000
0000
,
0010
0000
0010
0000
,
0100
0010
0100
0000
,
0001
0001
1000
0000
,
1000
1000
0010
0000
,
0100
0000
0010
0000
,
0100
0010
0100
0000
,
0010
0010
0100
0000
,
0001
0001
1000
0000
,
0001
0000
1000
0000
,
0010
0100
0001
0000
,
1000
0000
0001
0000
,
0100
0010
0100
0000
,
0001
0000
0000
0000
,
1000
0000
0000
0000
,
0100
0000
0000
0000
,
0010
0000
0001
0000
,
0010
0000
0000
0000
,
0100
0000
0000
0000
,
1000
0000
0000
0000
,
0010
0000
0100
0100
,
0100
0000
0000
0000
;
