#TITLE:CAT'S EYE;
#SUBTITLE:(Ventura Mix);
#ARTIST:E-ROTIC;
#TITLETRANSLIT:;
#SUBTITLETRANSLIT:;
#ARTISTTRANSLIT:;
#CREDIT:;
#BANNER:CAT'S EYE (Ventura Mix).png;
#BACKGROUND:CAT'S EYE (Ventura Mix)-bg.png;
#LYRICSPATH:;
#CDTITLE:./CDTITLES/DANCEMANIA EUROMIX.PNG;
#MUSIC:CAT'S EYE (Ventura Mix).mp3;
#OFFSET:-0.204;
#SAMPLESTART:45.330;
#SAMPLELENGTH:12.000;
#SELECTABLE:YES;
#DISPLAYBPM:159.000;
#BPMS:0.000=158.770;
#STOPS:;
#BGCHANGES:;

//---------------dance-couple - ----------------
#NOTES:
     dance-couple:
     :
     Medium:
     6:
     0.592,1.000,1.000,0.000,0.078:
00000000
00000000
00000000
00000000
,
00000000
00000000
00000000
00000000
,
10000001
01000100
00100010
00011000
10000001
01000100
00100010
00011000
,
10000001
01000100
00100010
00011000
01000100
00100010
10000001
00011000
,
10000001
10000000
01000000
10000000
,
00010001
00010000
01000000
00010000
,
10000001
00000000
01000000
00000000
,
00100010
00100010
00010001
00000000
,
10001000
00001000
00000100
00001000
,
10000001
00000001
00000100
00000001
,
10001000
00000000
00000100
00000000
,
10011001
00000000
00000000
00000000
,
00100000
00000000
00010100
01000000
00010000
00000000
00100000
00000000
,
01000000
00000000
10000100
00010000
10000000
00000000
01000000
00000000
,
00100000
00000000
00010100
10000000
00010000
00000000
01000000
00000000
,
00100000
10000100
01000000
00000000
,
00000010
00000000
01000001
00000100
00000001
00000000
00000010
00000000
,
00000100
00000000
01001000
00000001
00001000
00000000
00000100
00000000
,
00000010
00000000
01000001
00001000
00000001
00000000
00000100
00000000
,
00000010
01001000
00000100
00000000
,
10011001
01100110
10010000
00001001
,
00100000
00000000
00000000
01000000
,
00000010
00000000
00000000
00000100
,
00100000
00000000
00000000
10001000
,
01000100
00000000
00000000
00000010
,
00010000
00000000
00000000
10000000
,
00000001
00000000
00000000
00001000
,
00010001
00000000
00100010
00000000
,
01000100
00000000
00000000
00000000
,
10100011
01011100
01100110
00000000
,
10000001
00000000
10000000
00000000
00010001
01000000
00000000
00000000
,
00100001
00000000
00100000
00000000
10000001
01000000
00000000
00000000
,
00100001
00010000
01000000
00000000
00100001
10000000
01000000
00100000
,
00000001
00000000
00000000
10010000
00000000
00000000
00000000
00000000
,
10000010
00000000
00000010
00000000
10000100
00000001
00000000
00000000
,
10000010
00000000
00000010
00000000
10000100
00001000
00000000
00000000
,
10000001
00000100
00000010
00000000
10001000
00000100
00000010
00000001
,
10000000
00000000
00000000
00000000
00011000
00011000
00000000
00001001
,
00000000
00000000
00000000
00000000
,
01100110
00000000
00000000
00000000
00011000
10000001
00000000
00000000
,
00010000
00000000
10000000
00000000
01000001
00100000
00000000
00000000
00010000
00000000
00010000
00000000
00010001
00000000
00000000
00000000
,
01000000
00000000
00100000
00000000
10000001
01000000
00000000
00000000
00100000
00000000
00100000
00000000
00100001
00000000
00000000
00000000
,
00010000
00000000
01000000
00000000
00100001
10000000
00000000
00000000
00010000
00000000
01000000
00000000
00100001
10000000
00000000
00000000
,
01000000
00100000
00010001
01000000
10010000
00000000
00000000
00000000
,
00000001
00000000
00001000
00000000
10000100
00000010
00000000
00000000
00000001
00000000
00000001
00000000
10000001
00000000
00000000
00000000
,
00000100
00000000
00000010
00000000
10001000
00000100
00000000
00000000
00000010
00000000
00000010
00000000
10000010
00000000
00000000
00000000
,
00000001
00000000
00000100
00000000
10000010
00001000
00000000
00000000
00000001
00000000
00000100
00000000
10000010
00001000
00000000
00000000
,
00000100
00000010
10000001
00000100
00001001
00000000
00000000
10011001
,
00000000
00000000
00000000
00000000
,
01100110
00000000
00000000
00000000
00100010
00010001
00000000
01000100
,
00100000
00000000
10000000
00000000
01000000
00100000
00010000
00000000
,
00001000
00000000
00000010
00000000
00000100
00000001
00000010
00000000
,
01000000
00010000
01000000
00000000
00001000
00000010
00001000
00000000
,
00010001
00000000
00010001
00000000
00100010
01000100
10001000
00000000
,
00100000
00000000
00010000
00000000
01000000
00000000
00100000
10000000
00000000
00010000
00000000
00100000
01000000
00000000
00000000
00000000
,
00000010
00000000
00000001
00000000
00000100
00000000
00000010
00001000
00000000
00000001
00000000
00000010
00000100
00000000
00000000
00000000
,
00011000
01000100
10000001
00000000
00011000
10000001
01000100
00000000
,
01011100
00000000
00000000
00000000
10000001
01000100
00100010
00011000
,
01100110
00000000
00000000
00000000
;

//---------------dance-solo - ----------------
#NOTES:
     dance-solo:
     :
     Easy:
     4:
     0.263,0.292,0.045,0.000,0.000:
000000
000000
000000
000000
,
000000
000000
000000
000000
,
000000
000000
000000
000000
,
000000
000000
000000
000000
,
010000
010000
010000
010000
,
000010
000010
000010
000010
,
000100
000000
001000
000000
,
100000
000001
001000
000000
,
000010
000010
000010
000010
,
010000
010000
010000
010000
,
000100
000000
001000
000000
,
000001
100000
001000
000100
,
000001
010000
000001
010000
,
000010
100000
000010
100000
,
000100
001000
000100
001000
,
000001
100000
001000
000000
,
010000
000001
010000
000001
,
000100
000010
000100
000010
,
010000
000001
000100
001000
,
010000
010000
000001
000000
,
001000
000000
000100
000000
,
100000
001000
010000
000000
,
000001
001000
000010
000000
,
100000
000100
001000
000000
,
000001
100000
001000
000000
,
010000
000001
100000
000000
,
000010
001000
000001
000000
,
100000
000000
001000
000000
,
000100
000100
000001
100000
,
001000
000100
100001
000000
,
010000
001000
000100
000000
,
001000
010000
000001
000000
,
100000
000000
000010
000000
,
001000
000000
000100
000000
,
100000
000010
010000
000000
,
000001
000100
001000
000000
,
010000
000000
000001
000000
,
001000
000000
000100
000000
,
100000
000000
000000
000000
,
100001
000000
000100
000000
,
001000
010000
000001
000000
,
000100
001000
010000
000000
,
000001
000000
001000
000000
,
000100
000000
100000
000000
,
001000
010000
000001
000000
,
000100
001000
010000
000000
,
000001
000000
001000
000000
,
100000
000000
001000
000000
,
000100
000000
000000
000000
,
100001
000000
001000
000000
,
000100
100000
000010
001000
,
000001
000100
001000
100000
,
000001
000010
000001
010000
,
000100
100000
001000
000100
,
000001
100000
001000
000100
,
000001
001000
000100
100000
,
000010
000000
010000
000000
,
001000
000000
000000
000000
,
100001
000000
000000
000000
;

//---------------dance-solo - ----------------
#NOTES:
     dance-solo:
     :
     Medium:
     6:
     0.376,0.390,0.034,0.000,0.017:
000000
000000
000000
000000
,
000000
000000
000000
000000
,
000000
000000
000000
000000
,
000000
000000
000000
000000
,
010000
000000
000001
000000
000100
001000
000100
000001
,
000000
000001
010000
000000
000010
000000
000100
000000
,
000001
001000
000010
000000
100000
001000
010000
000000
,
000001
000000
001000
000000
000100
100000
001000
000000
,
010000
000000
000001
000000
000100
001000
000100
000001
,
000000
100000
001000
000000
000100
000001
010000
000000
,
000010
001000
000100
000000
100000
000001
000100
000000
,
001000
000000
000100
001000
000000
010000
000001
000000
,
100000
000100
001000
000000
000010
000000
000001
000000
,
000100
100000
001000
000000
010000
000000
100000
000000
,
000100
000001
100000
000000
000010
000000
000001
000000
,
000100
010000
100000
000000
,
000100
000001
001000
000000
000010
000000
000001
000000
,
000100
100000
001000
000000
010000
000000
100000
000000
,
000100
000001
100000
000000
000100
001000
000001
000000
,
000010
001000
010000
000000
,
000001
001000
000001
000000
100000
000000
001000
000000
,
000100
000000
000001
000010
000000
001000
000000
000000
,
010000
000000
000001
000100
000000
000010
000000
000000
,
010000
000100
100000
001000
,
000100
000001
001000
000000
,
000100
000000
100000
000010
000000
010000
000000
000000
,
000001
000000
000100
001000
000000
010000
000000
000000
,
000001
000000
001000
000000
,
000100
000000
000000
000000
,
000010
000000
000000
000010
000000
000000
000010
000000
000010
000000
000000
000000
000000
000000
000000
000000
,
100000
000000
100000
000000
001000
000100
000000
000000
,
000001
000000
001000
000000
000100
100000
000000
000000
,
000010
000000
000100
000000
001000
010000
000000
010000
,
001000
000100
000001
000000
,
100000
000000
000100
000000
001000
000010
000000
000000
,
000100
000000
001000
000000
010000
000001
000000
000000
,
100000
000000
001000
000000
000100
000001
010000
000000
,
000010
000000
000000
000000
001000
000100
000000
100000
,
000000
000000
000000
000000
,
010010
000000
000000
000000
000000
000000
000000
000000
000100
000000
000000
001000
000000
000000
010000
000000
,
000001
000000
001000
000000
000100
100000
000000
000000
,
001000
000100
000001
000000
010000
000010
000000
000000
,
000100
000000
001000
000000
100000
000100
001000
000000
,
000010
100000
001000
000000
,
000100
000000
000001
000000
010000
001000
000000
000000
,
000100
000001
001000
000000
000010
100000
000000
000000
,
000100
010000
000010
000000
000100
000000
001000
000000
,
100000
000000
000000
000000
000100
001000
000000
000010
,
000000
000000
000000
000000
,
100001
000000
000000
000000
000000
000000
000000
000000
000100
000000
000000
001000
000000
000000
010000
000000
,
000001
000000
000001
000000
000001
001000
000100
100000
,
000000
100000
000010
000000
000100
000001
000010
000000
,
001000
010000
000001
000000
001000
000100
100000
000000
,
000001
000000
000100
000000
001000
010000
000001
000000
,
001000
000000
001000
000000
000100
100000
000010
010000
,
000000
010000
000100
000000
100000
001000
010000
000000
,
000001
001000
000001
000000
100000
001000
100000
000000
,
000100
000000
000000
000000
,
010010
000000
000000
000000
;

//---------------dance-solo - ----------------
#NOTES:
     dance-solo:
     :
     Hard:
     8:
     0.549,0.552,0.101,0.000,0.275:
000000
000000
000000
000000
,
000000
000000
000000
000000
,
000010
000100
000001
001000
000010
000100
000001
001000
,
000100
100000
001000
010000
001000
000100
000001
000010
,
000001
000000
000000
000000
000001
000100
000000
000000
001000
000000
100000
000000
000100
000000
000000
000000
,
001000
000000
000000
000000
000010
100000
000000
000000
000001
000000
000100
000000
001000
000000
000000
000000
,
100000
000000
000001
000000
001000
000010
000000
000000
100000
000000
000001
000000
001000
000000
000010
000000
,
100000
001000
000100
000001
010000
000010
001000
000000
,
000100
000000
000000
000000
100000
000010
000000
000000
010000
000000
000001
000000
001000
000000
000000
000000
,
000100
000000
000000
000000
001000
010000
000000
000000
000001
000000
001000
000000
000100
000000
000000
000000
,
100000
000000
001000
000000
010000
000001
000000
000000
100000
000000
001000
000000
010000
000001
000000
000000
,
000100
000010
001000
000001
100000
001000
000100
000000
,
000001
000000
001000
000000
000100
100000
000000
000000
000010
000000
010000
000000
000100
000000
000000
000000
,
100000
000000
001000
000000
000100
000001
000000
000000
010000
000000
000010
000000
100000
000000
000000
000000
,
000100
000000
001000
000000
000010
100000
000000
000000
000001
000000
000100
000000
001000
000000
000000
000000
,
010000
000000
000001
000000
100000
000010
000000
000000
000100
000000
000001
000000
001000
000010
000000
000000
,
100000
000000
000100
000000
001000
000010
000000
000000
100000
000000
000001
000000
000100
000000
000000
000000
,
001000
000000
010000
000000
000001
100000
000000
000000
000010
000000
001000
000000
000100
000000
000000
000000
,
100000
000000
000001
000000
010000
001000
000000
000000
000100
000000
000001
000000
001000
000000
000000
000000
,
000010
000100
000001
001000
000010
100000
001000
000000
,
100001
000000
000000
000000
,
010000
001000
000000
000000
000100
000000
000001
000000
000000
000000
010010
000000
000000
000000
000000
000000
,
000100
000001
000000
000000
001000
000000
000010
000000
000000
000000
100001
000000
000000
000000
000000
000000
,
000100
000010
000000
000000
010000
000000
000000
000000
000100
100000
000000
000000
001000
000000
000000
000000
,
000100
000001
010000
000010
000000
000000
000000
000000
,
100000
000001
000000
000000
000100
000000
001000
000000
000000
000000
100001
000000
000000
000000
000000
000000
,
010000
001000
000000
000000
000100
000000
000001
000000
000000
000000
010010
000000
000000
000000
000000
000000
,
000100
000001
000000
000000
001000
000000
000000
000000
000100
100000
000000
000000
001000
000000
000000
000000
,
000100
000001
010000
000010
100000
000000
000000
000000
,
001000
000000
000000
000100
000000
000000
000001
010000
000010
000000
000000
000000
000000
000000
100000
000000
,
000000
000000
000100
000000
001000
000000
000001
000000
100000
001000
010000
000000
000000
000000
000001
000000
,
000000
000000
001000
000000
000100
000000
100000
000000
000010
010000
000001
000000
000000
000000
000000
000000
,
000100
000000
001000
000000
010000
000001
000000
000000
000100
000000
001000
000000
010000
000001
000000
000000
,
000100
000010
001000
000100
100000
000000
000000
000001
,
000000
000000
000100
000000
001000
000000
100000
000000
000001
001000
000010
000000
000000
000000
100000
000000
,
000000
000000
001000
000000
000100
000000
000001
000000
010000
001000
000100
000000
000000
000000
000000
000000
,
000001
000000
001000
000000
000010
100000
000000
000000
000001
000000
001000
000000
000010
100000
000000
000000
,
000100
010000
001000
000100
000001
000000
100000
000000
,
001000
000000
000000
000000
,
100001
000000
000000
000000
000000
000000
000000
001000
,
000000
000000
000010
000000
100000
000000
000001
000000
010000
001000
000100
000000
000000
000000
000001
000000
,
000000
000000
100000
000000
000100
000000
001000
000000
000010
100000
000100
000000
000000
000000
000000
000000
,
010000
000000
001000
000000
000100
000001
000000
000000
010000
000000
001000
000000
000100
000001
000000
000000
,
001000
000100
100000
001000
000100
000000
000000
000001
,
000000
000000
010000
000000
000100
000000
100000
000000
001000
010000
000001
000000
000000
000000
100000
000000
,
000000
000000
000010
000000
001000
000000
000100
000000
100000
000010
010000
000000
000000
000000
000000
000000
,
000001
000000
000100
000000
001000
010000
000000
000000
000001
000000
000100
000000
001000
010000
000000
000000
,
000001
100000
000100
000000
010000
000000
001000
000000
,
000100
000000
000000
000000
,
100001
000000
000000
000000
,
010000
000000
001000
000000
000100
000001
000000
000000
010000
000000
000010
000000
001000
000000
000000
000000
,
000100
000000
100000
000000
000010
010000
000000
000000
000001
000000
000100
000000
001000
000000
000000
000000
,
010000
000001
000000
000000
001000
000000
000000
000000
000010
100000
000000
000000
001000
000000
000000
000000
,
000100
000001
001000
000100
100000
000000
000000
000000
,
000010
000000
010000
000000
000001
000100
000000
000000
001000
000000
010000
000000
000001
000000
000000
000000
,
100000
000000
000010
000000
001000
000100
000000
000000
100000
000000
001000
000000
000100
000000
000000
000000
,
000001
000010
000000
000000
001000
000000
000000
000000
100000
010000
000000
000000
001000
000000
000000
000000
,
100010
000000
000000
000000
,
010001
000000
000000
000000
;

//---------------dance-single - Copied from----------------
#NOTES:
     dance-single:
     Copied from:
     Challenge:
     10:
     0.839,0.910,0.616,0.000,0.706:
0000
0000
0000
0000
,
0000
0000
0000
0000
,
0001
0010
0100
1000
0001
0010
0100
1000
,
0010
0100
0001
0010
0100
1000
0110
0000
,
0001
0010
0001
0000
0100
0010
1000
0100
0000
0010
0001
0100
0000
0001
0100
0001
,
1000
0100
1000
0000
0010
0100
0001
0010
0000
0100
1000
0010
0000
1000
0010
1000
,
0001
0010
0001
0000
0010
0100
1000
0100
0000
0010
0001
0010
0001
0100
0010
0000
,
1000
0010
0100
0000
0010
0100
0001
0010
0000
0100
1000
0100
1000
0010
0100
0001
,
0010
0001
0010
0000
0100
1000
0010
0100
0000
0001
0010
0100
0000
1000
0010
1000
,
0001
0010
0001
0000
0100
0010
1000
0100
0000
0010
0001
0100
0000
0001
0010
0001
,
1000
0100
1000
0000
0010
0100
0001
0010
0000
0100
1000
0100
1000
0010
0100
0000
,
0010
0000
0100
0001
0100
0001
0010
0000
0100
1000
0100
1000
0010
0100
0001
0000
,
1001
0001
0010
0100
1000
0010
0100
0001
,
0101
0001
1000
0010
0100
0001
0010
0100
,
1100
0100
1000
0010
0100
0001
0010
0100
,
0110
0010
0001
0100
1000
0100
0001
0010
,
1010
1000
0100
0001
0100
1000
0010
0001
,
0011
0010
1000
0100
0001
0100
1000
0010
,
1010
1000
0010
0001
0010
1000
0100
0001
,
0101
0001
0010
1000
1010
0010
0001
0100
,
1100
0000
0100
0000
0001
0010
0000
0110
0000
1100
0000
1000
0010
0000
0101
0000
,
0001
0010
0100
1000
0011
0101
0000
0000
,
1000
0100
0010
0001
1100
1010
0000
0000
,
0001
0100
0010
1000
0011
0101
0000
0011
,
1000
0010
0100
0001
1010
1100
0000
0000
,
0011
0100
1000
0010
0101
0011
0000
0000
,
1100
0010
0001
0100
1010
1100
0000
0000
,
0011
0001
1000
0100
1100
1000
0010
0100
,
0110
0010
0100
0001
0011
0001
1000
0100
,
1100
0000
0000
0110
0000
0000
0011
0001
0100
0000
0000
0000
0000
0000
0011
0000
,
0000
0000
0001
0000
0010
0000
0100
0000
1000
0010
0100
0000
0000
0000
1100
0000
,
0000
0000
1000
0000
0100
0000
0010
0000
0001
0100
0010
0000
0000
0000
0110
0000
,
0000
0000
0010
0000
1000
0000
0001
0000
0010
0100
1000
0000
0010
0100
0001
0000
,
0000
0000
0000
1001
0000
0000
0000
1010
,
0000
0000
0010
0000
0100
0000
0001
0000
0010
0100
1000
0000
0000
0000
0101
0000
,
0000
0000
0100
0000
0010
0000
1000
0000
0100
0010
0001
0000
0000
0000
1010
0000
,
0000
0000
1000
0000
0001
0000
0010
0000
0100
1000
0010
0000
0100
0001
0010
0000
,
0100
0100
0100
0000
1000
0001
0000
1001
,
0000
0000
0000
0000
,
0110
0000
0000
0000
0000
0000
0000
1100
,
0000
0000
1000
0000
0100
0000
0010
0000
0001
0100
0010
0000
0000
0000
0011
0000
,
0000
0000
0001
0000
0010
0000
0100
0000
1000
0010
0100
0000
0000
0000
0110
0000
,
0000
0000
0100
0000
0001
0000
1000
0000
0100
0010
0001
0000
0100
0010
1000
0000
,
0000
0000
0000
1001
0000
0000
0000
0101
,
0000
0000
0100
0000
0010
0000
1000
0000
0100
0010
0001
0000
0000
0000
1010
0000
,
0000
0000
0010
0000
0100
0000
0001
0000
0010
0100
1000
0000
0000
0000
0101
0000
,
0000
0000
0001
0000
1000
0000
0100
0000
0010
0001
0100
0000
0010
1000
0100
0000
,
0010
0010
0010
0000
0001
1000
0000
1001
,
0000
0000
0000
0000
,
0110
0000
0000
0000
,
1000
0100
1000
0000
0010
0100
0001
0010
0000
0100
1000
0010
0000
1000
0010
1000
,
0001
0010
0001
0000
0100
0010
1000
0100
0000
0010
0001
0100
0000
0001
0100
0001
,
1000
0100
1000
0000
0100
0010
0001
0010
0000
0100
1000
0100
1000
0010
0100
0000
,
0001
0100
0010
0000
0100
0010
1000
0100
0000
0010
0001
0010
0001
0100
0010
1000
,
0100
1000
0100
0000
0010
0001
0100
0010
0000
1000
0100
0010
0000
0001
0100
0001
,
1000
0100
1000
0000
0010
0100
0001
0010
0000
0100
1000
0010
0000
1000
0100
1000
,
0001
0010
0001
0000
0100
0010
1000
0100
0000
0010
0001
0010
0001
0100
0010
0000
,
0100
0000
0010
1000
0010
1000
0100
0000
0010
0001
0010
0001
0100
0010
1000
0000
,
1001
0000
0000
0000
;
