#TITLE:Building the Empire;
#SUBTITLE:(Scrap Brain Zone Remix);
#ARTIST:WolfBlur;
#TITLETRANSLIT:;
#SUBTITLETRANSLIT:;
#ARTISTTRANSLIT:;
#CREDIT:;
#BANNER:Building the Empire_bn.png;
#BACKGROUND:Building the Empire_bg.png;
#LYRICSPATH:;
#CDTITLE:;
#MUSIC:Building the Empire.mp3;
#OFFSET:-0.350;
#SAMPLESTART:4.960;
#SAMPLELENGTH:16.700;
#SELECTABLE:YES;
#BPMS:0.000=230.001;
#STOPS:337.000=0.010
;
#BGCHANGES:;

//---------------dance-single - ----------------
#NOTES:
     dance-single:
     :
     Challenge:
     10:
     0.989,1.000,0.592,1.000,0.288:
0000
0000
0000
0000
,
0000
0000
0000
0000
,
0000
0000
0000
0000
,
0000
0000
0000
0000
,
0000
0000
0000
0000
0010
0001
1000
0010
,
0200
1000
0010
0001
,
0010
0000
1300
0000
0001
0010
0000
0021
,
0000
0001
0100
1000
,
0100
0000
0031
0000
0100
0010
0001
1000
,
0020
0001
0100
1000
,
0100
0000
0031
0000
1000
0010
0000
1020
,
0000
0100
0001
1030
,
0021
0100
1000
0031
,
0010
0001
1000
0010
0001
0020
0000
2000
,
0000
0030
0010
0000
0001
0000
3100
0000
,
1000
0100
1000
0100
1000
0000
0000
0000
0001
0010
0001
0010
0001
0000
0000
0000
,
0100
0010
0100
0010
0100
0000
0000
0000
0001
1000
0001
1000
0001
0000
0000
0000
,
0100
0001
1000
0100
0001
0200
0000
0020
,
0000
0300
0001
0000
1000
0000
0130
0000
,
0011
0000
1001
0000
1010
1010
0000
2002
,
0000
0000
3003
0000
0100
1000
0001
0100
,
0020
0001
0100
1000
,
0100
0000
0031
0000
1000
0100
0000
1200
,
0000
1000
0010
0001
,
0010
0000
1300
0000
0010
0100
1000
0001
,
0200
1000
0010
0001
,
0010
0000
1300
0000
0001
0100
0000
0201
,
0000
0010
1000
0301
,
1200
0010
0001
1300
,
0100
1000
0001
0100
1000
0200
0000
0002
,
0000
0300
0100
0000
1000
0000
0013
0000
,
0001
0010
0001
0010
0001
0000
0000
0000
1000
0100
1000
0100
1000
0000
0000
0000
,
0010
0100
0010
0100
0010
0000
0000
0000
1000
0001
1000
0001
1000
0000
0000
0000
,
0010
1000
0001
0010
1000
0020
0000
0200
,
0000
0030
1000
0000
0001
0000
0310
0000
,
1100
0000
1001
0000
0101
0101
0000
2002
,
0000
3003
0000
0000
,
2100
0000
0000
3200
M000
0000
0301
0M0M
,
0100
0000
0010
0000
0001
0000
1000
0000
0020
0000
0000
0000
2030
0000
0000
3000
,
0012
0000
0000
0023
000M
0000
1030
M0M0
,
0010
0001
0010
0001
0100
0001
0100
0001
0100
0000
0000
0000
0001
0000
0000
0000
,
2010
0000
0000
3020
M000
0000
0031
00MM
,
0010
0000
1000
0000
0001
0000
0010
0000
0200
0000
0000
0000
2300
0000
0000
3000
,
1020
0000
0000
0032
00M0
0000
0103
0M0M
,
1000
0010
1000
0010
1000
0100
1000
0100
1000
0000
0000
0000
0001
0000
0000
0000
,
0021
0000
0000
2000
0030
00M0
3001
M00M
,
0100
1000
0001
0100
2000
0000
3200
0300
,
1020
0000
0000
0002
0030
00M0
1003
M00M
,
0010
0001
0010
0001
1000
0001
1000
0001
1000
0000
0000
0000
0001
0000
0000
0000
,
0012
0000
0000
0200
0003
000M
1300
MM00
,
0100
0000
0001
0000
1000
0000
0100
0000
0002
0000
0000
0000
0203
0000
0000
0300
,
2010
0000
0000
0200
3000
M000
0301
0M0M
,
0100
1000
0100
1000
0010
1000
0010
1000
0010
0000
0000
0000
1000
0000
0000
0000
,
0021
0000
0031
0100
0001
0100
0010
1020
,
0000
0000
1000
0000
0100
0001
0000
1030
,
1020
0000
1030
0001
1000
0001
0010
0021
,
0000
0100
0130
1000
0010
0100
0001
1000
,
1020
0000
1030
0010
1000
0010
0100
0201
,
0000
0000
0001
0000
0010
1000
0000
0301
,
2001
0000
3100
0001
0100
0010
0001
0011
,
0000
0001
0001
1000
0010
0100
0001
0010
,
0021
0032
0103
0100
0010
1000
0000
0021
,
0000
1000
0100
0031
,
0010
0001
0010
0001
0010
0000
0000
0000
0001
1000
0001
1000
0001
0000
0000
0000
,
1000
0010
1000
0010
1000
0000
0000
0000
0001
1000
0001
1000
0001
0000
0000
0000
,
1020
2030
3100
0100
0010
0001
0000
1020
,
0000
0001
0100
1030
,
1010
0000
1001
0000
0011
0011
0000
1001
,
0000
0000
0000
0000
0010
0001
1000
0010
,
1200
0000
1300
0010
1000
0010
0100
0201
,
0000
0000
0001
0000
0010
1000
0000
0301
,
0201
0000
0301
1000
0001
1000
0100
1200
,
0000
0010
0310
0001
0100
0010
1000
0001
,
0201
0000
0301
0100
0001
0100
0010
1020
,
0000
0000
1000
0000
0100
0001
0000
1030
,
1002
0000
0013
1000
0010
0100
1000
1100
,
0000
1000
1000
0001
0100
0010
1000
0100
,
1200
2300
3010
0010
0100
0001
0000
1200
,
0000
0001
0010
1300
,
0100
1000
0100
1000
0100
0000
0000
0000
1000
0001
1000
0001
1000
0000
0000
0000
,
0001
0100
0001
0100
0001
0000
0000
0000
1000
0001
1000
0001
1000
0000
0000
0000
,
0201
0302
0013
0010
0100
1000
0000
0201
,
0000
1000
0010
0301
,
0101
0000
1001
0000
1100
1100
0000
1001
,
0000
0000
0000
0000
,
0012
0000
0000
0023
000M
0000
1030
M0M0
,
0010
0000
0100
0000
1000
0000
0001
0000
0200
0000
0000
0000
0302
0000
0000
0003
,
2100
0000
0000
3200
M000
0000
0301
0M0M
,
0100
1000
0100
1000
0010
1000
0010
1000
0010
0000
0000
0000
1000
0000
0000
0000
,
0102
0000
0000
0203
000M
0000
1300
MM00
,
0100
0000
0001
0000
1000
0000
0100
0000
0020
0000
0000
0000
0032
0000
0000
0003
,
0201
0000
0000
2300
0M00
0000
3010
M0M0
,
0001
0100
0001
0100
0001
0010
0001
0010
0001
0000
0000
0000
1000
0000
0000
0000
,
1200
0000
0000
0002
0300
0M00
1003
M00M
,
0010
0001
1000
0010
0002
0000
0023
0030
,
0201
0000
0000
2000
0300
0M00
3001
M00M
,
0100
1000
0100
1000
0001
1000
0001
1000
0001
0000
0000
0000
1000
0000
0000
0000
,
2100
0000
0000
0020
3000
M000
0031
00MM
,
0010
0000
1000
0000
0001
0000
0010
0000
2000
0000
0000
0000
3020
0000
0000
0030
,
0102
0000
0000
0020
0003
000M
1030
M0M0
,
0010
0001
0010
0001
0100
0001
0100
0001
0100
0000
0000
0000
0001
0000
0000
0000
,
2000
0010
3010
0020
0100
0230
0001
0301
,
0020
0031
0020
0130
0020
0031
0020
0130
,
2000
0001
3001
0002
0100
0103
0200
0310
,
0020
1030
0020
0130
0020
1030
0020
0130
,
0002
0010
0013
0020
0100
0130
0200
1300
,
0002
0103
0002
0013
0002
0103
0002
0013
,
0200
1000
1300
2000
0010
3010
0020
0130
,
0200
0310
0200
0301
0200
0310
0200
0301
,
0021
0000
0001
0200
0030
1000
0010
0300
,
1000
0010
0001
0010
0200
0000
0320
0030
,
1200
0000
1000
0020
0300
0001
0100
0030
,
1000
0010
1000
0010
1000
0001
1000
0001
1000
0000
0000
0000
0001
0000
0000
0000
,
1020
0000
0100
0002
0030
1000
0010
0003
,
1000
0100
0001
0100
0020
0000
0032
0003
,
0201
0000
0010
2000
0300
0001
0100
3000
,
0100
0010
0100
0010
1000
0010
1000
0010
1000
0000
0000
0000
0001
0000
0000
0000
,
0101
0000
0000
1010
0000
0000
1001
1001
;

//---------------dance-single - Copied from----------------
#NOTES:
     dance-single:
     Copied from:
     Hard:
     9:
     0.781,0.707,0.128,0.800,0.000: // measure 1
0000
0000
0000
0000
,  // measure 2
0000
0000
0000
0000
,  // measure 3
0000
0000
0000
0000
,  // measure 4
0000
0000
0000
0000
,  // measure 5
0000
0000
0000
0000
0100
0010
1000
0001
,  // measure 6
0020
0001
0100
0001
,  // measure 7
0130
0000
0010
0000
0001
1000
0000
2001
,  // measure 8
0000
0000
0100
0000
0001
0000
0100
3000
,  // measure 9
0001
0000
0100
0000
0010
1000
0001
0100
,  // measure 10
0020
1000
0100
1000
,  // measure 11
0130
0000
1000
0000
0010
1000
0000
1002
,  // measure 12
0000
0000
0010
0000
1000
0000
0010
0003
,  // measure 13
2000
0000
0010
0000
0001
0000
0010
3000
,  // measure 14
0001
0010
0100
1000
0100
0020
0000
0032
,  // measure 15
0000
0000
0010
0000
1000
0000
0010
0003
,  // measure 16
1000
0100
0010
0001
0010
0200
0000
2300
,  // measure 17
0000
0000
0010
0000
0001
0000
0010
3000
,  // measure 18
0001
0100
0010
1000
0010
0200
0000
0302
,  // measure 19
0000
0000
0010
0000
1000
0000
0010
0003
,  // measure 20
1001
0000
1001
0000
0100
0010
0000
1001
,  // measure 21
0000
0000
0000
0000
1000
0010
0100
0001
,  // measure 22
0020
0100
1000
0100
,  // measure 23
1000
0000
0130
0000
0010
0001
0000
2001
,  // measure 24
0000
0000
0100
0000
0001
0000
0100
3000
,  // measure 25
0001
0000
1000
0000
0010
0100
0001
1000
,  // measure 26
0020
0100
0001
0100
,  // measure 27
0031
0000
0100
0000
0010
1000
0000
1002
,  // measure 28
0000
0000
0100
0000
1000
0000
0100
0003
,  // measure 29
2000
0000
0100
0000
0001
0000
0100
3000
,  // measure 30
0010
1000
0001
0010
0100
0020
0000
0032
,  // measure 31
0000
0000
0100
0000
0010
0000
0100
0003
,  // measure 32
0010
0001
1000
0010
0100
0020
0000
0230
,  // measure 33
0000
0000
0010
0000
1000
0000
0010
0300
,  // measure 34
0010
1000
0001
0010
0100
0020
0000
0032
,  // measure 35
0000
0000
0100
0000
0010
0000
0100
0003
,  // measure 36
1001
0000
1001
0000
0100
0010
0000
1001
,  // measure 37
0000
0000
0000
0000
,  // measure 38
0020
0000
0000
2030
0000
0000
3100
0000
,  // measure 39
0010
0001
0100
0001
0010
0000
0001
0000
,  // measure 40
2000
0000
0000
3020
0000
0000
0230
0000
,  // measure 41
0310
1000
0001
1000
0010
0000
0100
0000
,  // measure 42
0002
0000
0000
0023
0000
0000
0130
0000
,  // measure 43
0010
0100
1000
0100
0010
0000
0001
0000
,  // measure 44
2000
0000
0000
3020
0000
0000
0130
0000
,  // measure 45
0001
1000
0010
1000
0001
0000
0100
0000
,  // measure 46
0002
0000
0000
0023
0000
0000
1030
0000
,  // measure 47
0010
0001
1000
0010
0100
0000
0010
0000
,  // measure 48
2000
0000
0000
3200
0000
0000
0301
0000
,  // measure 49
0100
1000
0001
0100
0010
0000
1000
0000
,  // measure 50
0020
0000
0000
2030
0000
0000
3001
0000
,  // measure 51
0010
0100
1000
0010
0100
0000
0001
0000
,  // measure 52
0020
0000
0000
0032
0000
0000
1003
0000
,  // measure 53
0010
0100
0001
0010
0100
0000
0010
0000
,  // measure 54
0002
0000
1003
0001
1000
0001
0100
0020
,  // measure 55
0000
1030
0010
1000
0010
0100
0001
0010
,  // measure 56
0200
0000
1300
0010
1000
0010
0100
0002
,  // measure 57
0000
1003
0001
1000
0001
0100
0010
1000
,  // measure 58
0002
0000
0013
0100
0010
0100
1000
0020
,  // measure 59
0000
0130
0001
0100
0001
0010
0100
1000
,  // measure 60
0002
0000
1003
0010
0100
0001
1000
0002
,  // measure 61
0000
1003
0100
0010
0001
0010
0100
1000
,  // measure 62
0010
0100
0010
0100
0001
0020
0000
2030
,  // measure 63
0000
0000
0010
0000
0010
0000
0010
3000
,  // measure 64
0010
0001
0010
0001
1000
0020
0000
0032
,  // measure 65
0000
0000
1000
0000
1000
0000
1000
0003
,  // measure 66
0010
1000
0010
1000
0100
0020
0000
2030
,  // measure 67
0000
0000
0010
0000
0010
0000
0010
3000
,  // measure 68
0011
0000
0011
0000
1000
0001
0000
1010
,  // measure 69
0000
0000
0000
0000
1000
0001
0100
0010
,  // measure 70
2000
0000
3001
1000
0001
1000
0010
0200
,  // measure 71
0000
0301
0100
0001
0100
0010
1000
0100
,  // measure 72
0020
0000
0031
0100
0001
0100
0010
2000
,  // measure 73
0000
3001
1000
0001
1000
0010
0100
0001
,  // measure 74
2000
0000
3100
0010
0100
0010
0001
0200
,  // measure 75
0000
0310
1000
0010
1000
0100
0010
0001
,  // measure 76
2000
0000
3001
0100
0010
1000
0001
2000
,  // measure 77
0000
3001
0010
0100
1000
0100
0010
0001
,  // measure 78
0100
0010
0100
0010
1000
0200
0000
0302
,  // measure 79
0000
0000
0100
0000
0100
0000
0100
0003
,  // measure 80
0100
1000
0100
1000
0001
0200
0000
2300
,  // measure 81
0000
0000
0001
0000
0001
0000
0001
3000
,  // measure 82
0100
0001
0100
0001
0010
0200
0000
0302
,  // measure 83
0000
0000
0100
0000
0100
0000
0100
0003
,  // measure 84
1100
0000
1100
0000
1000
0001
0000
0101
,  // measure 85
0000
0000
0000
0000
,  // measure 86
0200
0000
0000
0302
0000
0000
0013
0000
,  // measure 87
0100
1000
0010
1000
0100
0000
1000
0000
,  // measure 88
0002
0000
0000
0203
0000
0000
0320
0000
,  // measure 89
0130
0001
1000
0001
0100
0000
0010
0000
,  // measure 90
2000
0000
0000
3200
0000
0000
0310
0000
,  // measure 91
0100
0010
0001
0010
0100
0000
1000
0000
,  // measure 92
0002
0000
0000
0203
0000
0000
0310
0000
,  // measure 93
1000
0001
0100
0001
1000
0000
0010
0000
,  // measure 94
2000
0000
0000
3200
0000
0000
0301
0000
,  // measure 95
0100
1000
0001
0100
0010
0000
0100
0000
,  // measure 96
0002
0000
0000
0023
0000
0000
1030
0000
,  // measure 97
0010
0001
1000
0010
0100
0000
0001
0000
,  // measure 98
0200
0000
0000
0302
0000
0000
1003
0000
,  // measure 99
0100
0010
0001
0100
0010
0000
1000
0000
,  // measure 100
0200
0000
0000
2300
0000
0000
3001
0000
,  // measure 101
0100
0010
1000
0100
0010
0000
0001
0000
,  // measure 102
0200
0000
0010
0010
0000
0010
0010
0300
,  // measure 103
0010
1000
0100
0010
0001
0000
1000
0000
,  // measure 104
0020
0000
0001
0001
0000
0001
0001
0030
,  // measure 105
0001
0010
0100
1000
0010
0000
1000
0000
,  // measure 106
0200
0000
0010
0010
0000
0010
0010
0300
,  // measure 107
0010
0001
1000
0010
0100
0000
0001
0000
,  // measure 108
2000
0000
0001
0001
0000
0001
0001
3000
,  // measure 109
0001
1000
0010
0100
0001
0000
1000
0000
,  // measure 110
0020
0000
0100
0100
0000
1000
1000
0030
,  // measure 111
0010
1000
0100
0010
0020
0000
0032
0000
,  // measure 112
0203
0000
0001
0001
0000
0010
0010
0300
,  // measure 113
0100
0001
0010
0100
2000
0000
3020
0000
,  // measure 114
2030
0000
0001
0001
0000
0100
0100
3000
,  // measure 115
0001
0100
0010
1000
0001
0000
1000
0000
,  // measure 116
0020
0000
0100
0100
0000
0001
0001
0030
,  // measure 117
0100
0001
0010
0100
0200
0000
2300
0000
,  // measure 118
3002
0000
0000
0023
0000
0000
1000
1030
;

//---------------dance-single - Copied from Copied f----------------
#NOTES:
     dance-single:
     Copied from Copied f:
     Medium:
     7:
     0.633,0.660,0.248,0.504,0.000:
0000
0000
0000
0000
,
0000
0000
0000
0000
,
0000
0000
0000
0000
,
0000
0000
0000
0000
,
0000
0000
0000
0000
0001
0010
0001
0010
,
0002
0010
0010
0010
,
0013
0000
0001
0000
1000
0010
0000
1010
,
0000
0001
0001
1000
,
1000
0000
0010
0000
1000
0010
1000
0010
,
2000
0010
0010
0010
,
3010
0000
1000
0000
0001
0010
0000
0011
,
0000
1000
1000
0001
,
0001
0010
0010
0001
,
1000
0000
0001
0000
0100
0010
0000
0120
,
0000
0100
0100
0130
,
0010
0000
1000
0000
0001
0010
0000
0021
,
0000
0001
0001
0031
,
1000
0000
0001
0000
0100
0010
0000
1020
,
0000
1000
1000
1030
,
0001
0000
1000
0000
0010
0100
0000
0110
,
0000
0000
0000
0000
1000
0001
1000
0001
,
2000
0001
0001
0001
,
3001
0000
1000
0000
0001
0010
0000
0011
,
0000
0010
0010
0001
,
0001
0000
1000
0000
0010
0100
0010
0100
,
0020
0100
0100
0100
,
0130
0000
0010
0000
1000
0001
0000
1002
,
0000
1000
1000
1003
,
2000
0001
0001
3001
,
0100
0000
0010
0000
1000
0001
0000
1002
,
0000
1000
1000
1003
,
0001
0000
0100
0000
0010
1000
0000
2010
,
0000
0010
0010
3010
,
1000
0000
0001
0000
0010
0001
0000
0012
,
0000
0010
0010
0013
,
0001
0000
1000
0000
0010
0100
0000
0110
,
0000
0000
0000
0000
,
0020
0000
0000
0001
0000
0000
0100
0000
,
0032
0000
0000
1000
0000
0000
0100
0003
,
2000
0000
0000
0001
0000
0000
0100
3000
,
0001
1000
0001
1000
0001
0000
1000
0000
,
0020
0000
0000
1000
0000
0000
0100
0030
,
2000
0000
0000
0001
0000
0000
0010
3000
,
0002
0000
0000
1000
0000
0000
0010
0003
,
1000
0001
1000
0001
1000
0000
0010
0000
,
0200
0000
0000
1000
0000
0000
0010
0300
,
0002
0000
0000
0010
0000
0000
0100
0003
,
2000
0000
0000
0010
0000
0000
0001
3000
,
1000
0001
1000
0001
1000
0000
0010
0000
,
0200
0000
0000
0001
0000
0000
0010
0300
,
0002
0000
0000
1000
0000
0000
0010
0003
,
2000
0000
0000
0100
0000
0000
0001
3000
,
0001
1000
0001
1000
0001
0000
1000
0000
,
0010
0000
0010
0000
0100
0000
0010
2000
,
0000
0000
3001
0000
1000
0000
0001
0020
,
0000
0000
0031
0000
1000
0000
0010
2000
,
0000
0000
3001
0000
1000
0001
1000
0001
,
1000
0000
0010
0000
0100
0000
0001
0020
,
0000
0000
0031
0000
1000
0000
0010
2000
,
0000
0000
3001
0000
0100
0000
0010
2000
,
0000
3001
0001
1000
,
0001
0000
0100
0000
0010
0100
0000
0120
,
0000
1000
1000
1030
,
0001
0000
0010
0000
0001
1000
0000
2001
,
0000
0100
0100
3100
,
1000
0000
0010
0000
0100
0001
0000
0201
,
0000
0001
0001
0301
,
1000
0000
0001
0000
0100
0010
0000
0110
,
0000
0000
0000
0000
0010
0100
0010
0100
,
0010
0000
1000
0000
0001
0000
0010
0002
,
0000
0000
1003
0000
0010
0000
1000
0200
,
0000
0000
0310
0000
0001
0000
1000
0020
,
0000
0000
0130
0000
0001
1000
0001
1000
,
0001
0000
0100
0000
0010
0000
1000
0200
,
0000
0000
1300
0000
0010
0000
0100
0002
,
0000
0000
0013
0000
0001
0000
1000
0020
,
0000
0130
0001
1000
,
0001
0000
1000
0000
0010
0100
0000
0120
,
0000
1000
1000
1030
,
0010
0000
0100
0000
0001
1000
0000
1002
,
0000
0010
0010
0013
,
0001
0000
1000
0000
0010
0100
0000
0210
,
0000
0001
0001
0301
,
1000
0000
0001
0000
0100
0010
0000
0110
,
0000
0000
0000
0000
,
0200
0000
0000
1000
0000
0000
0010
0000
,
2300
0000
0000
0001
0000
0000
0010
3000
,
0002
0000
0000
1000
0000
0000
0010
0003
,
1000
0001
1000
0001
1000
0000
0001
0000
,
0200
0000
0000
0001
0000
0000
0010
0300
,
0002
0000
0000
1000
0000
0000
0100
0003
,
2000
0000
0000
0001
0000
0000
0100
3000
,
0001
1000
0001
1000
0001
0000
0100
0000
,
0020
0000
0000
0001
0000
0000
0100
0030
,
2000
0000
0000
0100
0000
0000
0010
3000
,
0002
0000
0000
0100
0000
0000
1000
0003
,
0001
1000
0001
1000
0001
0000
0100
0000
,
0020
0000
0000
1000
0000
0000
0100
0030
,
2000
0000
0000
0001
0000
0000
0100
3000
,
0002
0000
0000
0010
0000
0000
1000
0003
,
1000
0001
1000
0001
1000
0000
0001
0000
,
1020
0000
0000
1000
0000
0000
0100
0030
,
0021
0000
0000
0001
0000
0000
0100
0030
,
1020
0000
0000
1000
0000
0000
0100
0030
,
1000
0001
0100
0010
1000
0000
0001
0000
,
0201
0000
0000
0010
0000
0000
0001
0300
,
1200
0000
0000
1000
0000
0000
0010
0300
,
0201
0000
0000
1000
0000
0000
0010
0300
,
0001
1000
0010
0100
0001
0000
1000
0000
,
1001
0000
1000
0010
0000
0100
0001
0000
,
0010
0100
0000
1000
0002
0000
1003
0000
,
0010
0000
0100
0001
0000
1000
0010
0000
,
1000
0001
0100
0010
2000
0000
3001
0000
,
0011
0000
0001
0100
0000
0010
1000
0000
,
0100
0010
0000
0001
0200
0000
0310
0000
,
1010
0000
1000
0001
0000
0010
0001
0000
,
0010
0001
0100
0001
0010
0000
0001
0000
,
1001
0000
0000
0110
0000
0000
1000
0001
;

//---------------dance-single - Copied from Copied f----------------
#NOTES:
     dance-single:
     Copied from Copied f:
     Easy:
     5:
     0.395,0.471,0.264,0.192,0.000:
0000
0000
0000
0000
,
0000
0000
0000
0000
,
0000
0000
0000
0000
,
0000
0000
0000
0000
,
0000
0000
0001
0010
,
0002
0000
0000
0000
,
0003
0000
1000
0000
0001
0000
0000
2000
,
0000
0000
0000
3000
,
0000
0000
0010
1000
,
0020
0000
0000
0000
,
0030
0000
1000
0000
0001
0000
0000
0020
,
0000
0000
0000
0000
,
0030
0000
0000
0000
,
0001
0000
0100
0000
0001
0000
0000
2000
,
0000
0000
3000
0000
,
0101
0000
1001
0000
,
1010
0000
1001
0000
,
1000
0000
0010
0000
1000
0000
0000
0002
,
0000
0000
1003
0001
,
1000
0000
1000
0000
0001
0000
0000
1001
,
0000
0000
1000
0100
,
2000
0000
0000
0000
,
3000
0000
0001
0000
1000
0000
0000
0002
,
0000
0000
0000
0003
,
0000
0000
0100
0001
,
0200
0000
0000
0000
,
0300
0000
0001
0000
1000
0000
0000
0200
,
0000
0000
0000
0000
,
0300
0000
0000
0000
,
1000
0000
0010
0000
1000
0000
0000
0002
,
0000
0000
0003
0000
,
1010
0000
1001
0000
,
0101
0000
1001
0000
,
0001
0000
0100
0000
0001
0000
0000
2000
,
0000
0000
3001
1000
,
0010
0000
0010
0000
0100
0000
0000
0110
,
0000
0000
0000
0000
,
1000
0000
0000
0100
0000
0000
1000
0000
,
0001
0000
0000
0100
0000
0000
0001
0000
,
1000
0000
0000
0010
0000
0000
1000
0000
,
0001
0001
1000
0000
,
0010
0000
0000
0100
0000
0000
0010
0000
,
1000
0000
0000
0001
0000
0000
1000
0000
,
0001
0000
0000
0010
0000
0000
0001
0000
,
1000
1000
0001
0000
,
0100
0000
0000
0010
0000
0000
0100
0000
,
0001
0000
0000
1000
0000
0000
0001
0000
,
1000
0000
0000
0010
0000
0000
1000
0000
,
0001
0001
1000
0000
,
0010
0000
0000
0100
0000
0000
0010
0000
,
1000
0000
0000
0001
0000
0000
1000
0000
,
0001
0000
0000
0010
0000
0000
0001
0000
,
1000
1000
0001
0000
,
0200
0000
0000
0000
,
0000
0000
0320
0000
2030
0000
0000
0002
,
0000
0000
0000
0000
,
3003
0000
0001
1000
,
0002
0000
0000
0000
,
0003
0000
0200
0000
0320
0000
0000
2000
,
0000
0000
0000
0000
,
3030
0000
0000
0000
,
1000
0001
1000
0000
,
0010
0000
0100
0000
,
0110
0000
1001
0000
,
0011
0000
1100
0000
,
1000
0000
0001
0000
1000
0000
0000
0020
,
0000
0000
0130
0100
,
0010
0000
0010
0000
2000
0000
0000
3001
,
0000
0000
1000
0001
,
1000
0010
1000
0010
,
0100
0010
0100
0010
,
0100
0001
0100
0001
,
0010
0001
0010
0001
,
1000
0001
1000
0001
,
1000
0010
1000
0010
,
0100
0001
0100
0001
,
0010
0100
0010
0100
,
1000
0000
0001
0000
1000
0000
0000
0002
,
0000
0000
0100
0003
,
1010
0000
1001
0000
,
0011
0000
1001
0000
,
1000
0000
0010
0000
1000
0000
0000
0002
,
0000
0000
0010
0013
,
0001
0000
0001
0000
1000
0000
0000
1001
,
0000
0000
0000
0000
,
1000
0000
0000
0010
0000
0000
0100
0000
,
0001
0000
0000
0010
0000
0000
0001
0000
,
1000
0000
0000
0001
0000
0000
0010
0000
,
0001
0001
1000
0000
,
0010
0000
0000
1000
0000
0000
0100
0000
,
0010
0000
0000
0001
0000
0000
0100
0000
,
0010
0000
0000
1000
0000
0000
0001
0000
,
1000
1000
0010
0000
,
0100
0000
0000
0010
0000
0000
1000
0000
,
0001
0000
0000
0010
0000
0000
0001
0000
,
1000
0000
0000
0010
0000
0000
1000
0000
,
0100
0100
0010
0000
,
0001
0000
0000
0100
0000
0000
1000
0000
,
1000
0000
0000
0100
0000
0000
0001
0000
,
0001
0000
0000
0010
0000
0000
1000
0000
,
0010
0010
0001
0000
,
1010
0000
0000
1000
0000
0000
0001
0000
,
0011
0000
0000
0001
0000
0000
1000
0000
,
1010
0000
0000
1000
0000
0000
0001
0000
,
0100
0100
0010
0000
,
1010
0000
0000
1000
0000
0000
0100
0000
,
0110
0000
0000
0010
0000
0000
0001
0000
,
0011
0000
0000
0001
0000
0000
0100
0000
,
0010
0010
1000
0000
,
1010
0000
0000
1000
0000
0000
0001
0000
,
0011
0000
0000
0001
0000
0000
0100
0000
,
0110
0000
0000
0010
0000
0000
1000
0000
,
0001
0001
0010
0000
,
0011
0000
0000
0001
0000
0000
0100
0000
,
0110
0000
0000
0010
0000
0000
1000
0000
,
1010
0000
0000
1000
0000
0000
0100
0000
,
0110
0000
0000
0010
0000
0000
0001
0000
,
1000
0000
0000
0001
0000
0000
1001
0000
;

//---------------dance-single - Copied from Copied f----------------
#NOTES:
     dance-single:
     Copied from Copied f:
     Beginner:
     2:
     0.241,0.330,0.040,0.152,0.000:
0000
0000
0000
0000
,
0000
0000
0000
0000
,
0000
0000
0000
0000
,
0000
0000
0000
0000
,
0000
0000
0001
0001
,
0001
0000
0000
0000
,
0100
0000
0000
0000
,
0010
0000
0000
0000
,
1000
0000
1000
1000
,
0001
0000
0000
0000
,
0100
0000
0000
0000
,
0010
0000
0000
0000
,
1000
0000
0000
0000
,
0001
0001
0001
0000
,
2000
0000
3000
0000
,
1000
1000
1000
0000
,
0002
0000
0003
0000
,
0100
0100
0100
0000
,
0020
0000
0030
0000
,
0010
0010
0010
0000
,
0110
0000
0000
0000
,
1000
0000
0000
0000
,
0010
0000
0000
0000
,
0100
0000
0000
0000
,
0001
0000
0001
0001
,
1000
0000
0000
0000
,
0010
0000
0000
0000
,
0100
0000
0000
0000
,
0001
0000
0000
0000
,
1000
1000
1000
0000
,
0020
0000
0030
0000
,
0100
0100
0100
0000
,
0002
0000
0003
0000
,
0010
0010
0010
0000
,
0200
0000
0300
0000
,
1000
1000
1000
0000
,
1001
0000
0000
0000
,
0001
0000
0000
0000
,
0100
0000
0000
0000
,
1000
0000
0000
0000
,
0010
0010
0010
0000
,
1000
0000
0000
0000
,
0100
0000
0000
0000
,
0001
0000
0000
0000
,
0010
0010
0010
0000
,
0001
0000
0000
0000
,
0100
0000
0000
0000
,
1000
0000
0000
0000
,
0010
0010
0010
0000
,
1000
0000
0000
0000
,
0100
0000
0000
0000
,
0001
0000
0000
0000
,
0010
0010
0010
0000
,
0001
0000
1000
0000
,
0001
0000
1000
0000
,
0010
0000
0100
0000
,
0010
0000
0100
0000
,
0001
0000
0010
0000
,
0001
0000
0010
0000
,
0100
0000
1000
0000
,
0100
0000
1000
0000
,
0002
0000
0003
0000
,
2000
0000
3000
0000
,
0010
0000
1000
0000
,
0100
0000
0001
0000
,
0010
0000
0001
0000
,
0010
0000
0001
0000
,
1000
1000
0001
0000
,
1001
0000
0000
0000
,
1000
0000
0010
0000
,
0100
0000
0010
0000
,
1000
0000
0001
0000
,
1000
0000
0010
0000
,
0100
0000
0001
0000
,
0100
0000
0010
0000
,
1000
0000
0100
0000
,
1000
0000
0001
0000
,
0020
0000
0030
0000
,
0200
0000
0300
0000
,
1000
0000
0010
0000
,
0001
0000
0100
0000
,
1000
0000
0000
0000
,
0001
0000
0000
0000
,
0100
0100
0010
0000
,
0110
0000
0000
0000
,
1000
0000
0000
0000
,
0010
0000
0000
0000
,
0001
0000
0000
0000
,
0100
0100
0100
0000
,
0001
0000
0000
0000
,
0010
0000
0000
0000
,
1000
0000
0000
0000
,
0100
0100
0100
0000
,
1000
0000
0000
0000
,
0001
0000
0000
0000
,
0010
0000
0000
0000
,
1000
1000
1000
0000
,
1000
0000
0000
0000
,
0010
0000
0000
0000
,
0001
0000
0000
0000
,
1000
1000
1000
0000
,
0001
0000
0000
0000
,
0010
0000
0010
0010
,
0020
0030
0000
0000
,
1000
0000
1000
1000
,
2000
3000
0000
0000
,
0100
0000
0100
0100
,
0200
0300
0000
0000
,
0000
0010
0001
0010
,
0002
0003
0000
0000
,
0000
0001
1000
0000
,
2000
3000
0000
0000
,
0002
0003
0000
0000
,
0200
0000
0300
0000
,
0000
0000
0000
0000
,
0020
0000
0030
0000
,
2000
0000
3000
0000
,
0001
0000
0000
1000
0000
0000
1001
0000
;
