#TITLE:Black MUTATION;
#SUBTITLE:;
#ARTIST:TatshMusicCircle;
#TITLETRANSLIT:;
#SUBTITLETRANSLIT:;
#ARTISTTRANSLIT:;
#CREDIT:;
#BANNER:Black Mutation_bn.png;
#BACKGROUND:Black Mutation_bg.png;
#LYRICSPATH:;
#CDTITLE:CD_Title.png;
#MUSIC:Black Mutation.mp3;
#OFFSET:0.475;
#SAMPLESTART:70.900;
#SAMPLELENGTH:14.500;
#SELECTABLE:YES;
#DISPLAYBPM:210.000;
#BPMS:0.000=210.050,249.750=218.960,249.813=210.000,250.500=210.050;
#STOPS:;
#BGCHANGES:;

//---------------dance-single - ----------------
#NOTES:
     dance-single:
     :
     Beginner:
     2:
     0.230,0.303,0.018,0.396,0.000:
0000
0000
0000
0000
0000
0000
0000
1000
,
0000
0000
0000
0000
0000
0000
0000
0001
,
0000
0000
0000
0000
0000
0000
0000
1000
,
0000
0000
0000
0000
0000
0000
0000
0001
,
0000
0000
0000
0000
0000
0000
0000
0100
,
0000
0000
0000
0000
0000
0000
0000
0010
,
0000
0000
0000
0000
0000
0000
0000
0100
,
0000
0000
0000
0000
0000
0000
0000
0010
,
0000
0000
0000
0000
,
1000
0000
1000
0000
,
0001
0000
0001
0000
,
2000
0000
0000
0000
,
3002
0000
0000
0000
,
0203
0000
0010
0000
,
0010
0000
0010
0000
,
0320
0000
0000
0000
,
2030
0000
0000
0000
,
3002
0000
1000
0000
,
1000
0000
1000
0000
,
1003
0000
0001
0000
,
1000
0000
0000
0000
,
0010
0000
0100
0000
,
0010
0000
0000
0000
,
1000
0000
0100
0000
,
0010
0000
0001
0000
,
0200
0000
0300
0100
,
0010
0010
0010
0010
,
0010
0000
0000
0000
,
0010
0000
0000
0000
,
2000
0000
0000
0000
,
0000
0000
0000
3000
,
0001
0001
0001
0001
,
1000
1000
1000
1000
,
0010
0000
0010
0000
,
0100
0000
0100
0000
,
0200
0000
0000
0000
,
0300
0000
0010
0010
,
0020
0000
0000
0000
,
2030
0000
0000
0000
,
3002
0000
0100
0000
,
0103
0000
0000
0000
,
0020
0000
0000
0000
,
2030
0000
0000
0000
,
3002
0000
0100
0000
,
0103
0000
0001
0001
,
2000
0000
0000
0000
,
3200
0000
0000
0000
,
2300
0000
0010
0000
,
3010
0000
0000
0000
,
0200
0000
0000
0000
,
0320
0000
0000
0000
,
2030
0000
0000
0000
,
3002
0000
1003
0000
,
1001
0000
0000
0000
,
1000
0000
0000
0000
,
0100
0000
0000
0000
,
0010
0000
0001
0001
,
0002
0000
0000
0000
,
0000
0000
1000
1000
,
2003
0000
0000
0000
,
0000
0000
0001
0001
,
3001
0000
0000
0000
,
0110
0000
0000
0000
,
2000
0000
0000
0000
,
3020
0000
0000
0000
,
0230
0000
0001
0000
,
0301
0000
0000
0000
,
0002
0000
0000
0000
,
0203
0000
0000
0000
,
0320
0000
1000
0000
,
1030
0000
0000
0000
,
0002
0000
0000
0000
,
0203
0000
0000
0000
,
0320
0000
1000
0000
,
1030
0000
0000
0000
,
2000
0000
0000
0000
,
3200
0000
0000
0000
,
0320
0000
0000
0000
,
0032
0000
0100
0000
,
0103
0000
0000
0000
,
0020
0000
0000
0000
,
2030
0000
0000
0000
,
3002
0000
0000
0000
,
2003
0000
0000
0000
,
0000
0000
0001
0001
,
3002
0000
0000
0000
,
0000
0000
0100
0100
,
0203
0000
0000
0000
,
0300
0000
0000
0000
,
0010
0000
0010
0000
,
0100
0000
0010
0000
,
1000
0000
1000
0000
,
0001
0000
0000
2000
0000
0000
0000
0000
,
0000
0000
0000
0000
,
0000
0000
0000
0000
,
0000
0000
0000
0000
,
0000
3000
0000
0000
;

//---------------dance-single - Copied from----------------
#NOTES:
     dance-single:
     Copied from:
     Easy:
     6:
     0.507,0.607,0.648,0.387,0.000: // measure 1
0000
0000
0000
0000
0000
0000
0000
1100
,  // measure 2
0000
0000
0001
0000
0100
0000
0000
0101
,  // measure 3
0000
0000
1000
0000
0100
0000
0000
1010
,  // measure 4
0000
0000
1000
0000
0010
0000
0000
0011
,  // measure 5
0000
0000
0001
0000
0100
0000
0010
1000
,  // measure 6
0000
0000
0001
0000
0010
0000
0000
0011
,  // measure 7
0000
0000
1000
0000
0010
0000
0000
1010
,  // measure 8
0000
0000
0001
0000
0010
0000
0000
0010
,  // measure 9
0000
0010
0000
0010
0000
0010
0000
0000
,  // measure 10
2000
0000
3002
0000
,  // measure 11
1003
0010
0100
0001
,  // measure 12
0120
0100
0100
0130
,  // measure 13
2001
0000
0001
0000
0001
0000
0001
3000
,  // measure 14
1001
0000
1100
0000
,  // measure 15
0101
0000
0110
0000
,  // measure 16
1002
1000
1000
1003
,  // measure 17
0210
0000
0010
0000
0010
0000
0010
0300
,  // measure 18
0101
0000
1010
0000
,  // measure 19
1001
0001
0100
0000
,  // measure 20
0100
0010
1000
0100
,  // measure 21
0010
0010
0100
0010
,  // measure 22
0001
0100
0010
1000
,  // measure 23
0100
0100
0010
0100
,  // measure 24
0010
0001
0100
0010
,  // measure 25
1000
1000
0001
1000
,  // measure 26
0002
1000
1000
1003
,  // measure 27
1001
1010
0101
0110
,  // measure 28
1001
0000
0000
0000
0000
0000
0000
1000
,  // measure 29
1000
0000
0001
0001
0000
0000
0000
0000
,  // measure 30
0220
0000
0000
0000
,  // measure 31
0300
0100
0100
0130
,  // measure 32
2001
0001
0010
3001
,  // measure 33
0120
0100
1000
0130
,  // measure 34
0110
0000
1010
0000
,  // measure 35
1100
0000
0000
0011
0000
0000
2002
0000
,  // measure 36
0000
0000
0000
0000
,  // measure 37
0000
3003
0001
1000
,  // measure 38
0100
0100
0010
0100
,  // measure 39
0010
0001
1000
0100
,  // measure 40
1000
1000
0001
1000
,  // measure 41
0010
0100
0001
0010
,  // measure 42
0100
1000
1100
0000
,  // measure 43
0010
0001
0011
0000
,  // measure 44
1000
0002
0100
0100
,  // measure 45
0203
0000
0010
0310
,  // measure 46
1000
0010
0100
0001
,  // measure 47
0010
0010
0100
0010
,  // measure 48
0001
0100
0010
1000
,  // measure 49
0100
0100
0010
0100
,  // measure 50
2000
0001
0001
3100
,  // measure 51
0002
1000
1000
0103
,  // measure 52
0020
0100
0100
1030
,  // measure 53
0200
0010
0010
1300
,  // measure 54
2002
0000
0000
3003
,  // measure 55
0001
1000
0100
1000
,  // measure 56
0010
0010
1010
0101
,  // measure 57
1001
0000
1000
0010
,  // measure 58
0110
1000
2002
0000
,  // measure 59
0000
0000
3000
1000
2000
0003
0001
0002
,  // measure 60
0000
0000
0000
0000
,  // measure 61
0000
0000
3000
0100
0200
0003
0010
0020
,  // measure 62
0000
0000
0000
0000
0000
0000
0000
0300
,  // measure 63
0030
0000
0000
0000
,  // measure 64
1010
0010
1000
0100
,  // measure 65
1100
1000
0010
0100
,  // measure 66
0101
0001
0101
1010
,  // measure 67
1001
0000
0000
0000
,  // measure 68
1010
1000
0200
0300
,  // measure 69
0101
0001
0020
0030
,  // measure 70
0011
1000
0110
0001
,  // measure 71
2001
0000
0001
3001
,  // measure 72
0101
0001
1000
0100
,  // measure 73
1100
1000
0010
0100
,  // measure 74
0110
0001
0110
1000
,  // measure 75
2002
0000
0000
3003
,  // measure 76
0110
0010
1000
0001
,  // measure 77
0011
0110
1100
1000
,  // measure 78
0101
1000
0010
0100
,  // measure 79
1100
0110
0011
1000
,  // measure 80
1002
0000
0000
0000
,  // measure 81
2003
0000
0001
0000
,  // measure 82
3002
0000
0100
0000
,  // measure 83
0103
0000
0100
0010
,  // measure 84
1010
0101
2002
0000
,  // measure 85
0000
0000
0003
0001
0002
3000
1000
2000
,  // measure 86
0000
0000
0000
0000
,  // measure 87
0000
0000
0003
0010
0020
3000
0100
0200
,  // measure 88
0000
0000
0000
0000
,  // measure 89
0000
0000
0330
0000
,  // measure 90
0010
0000
0000
0110
0000
0000
0000
1010
,  // measure 91
0000
0000
0000
1100
0000
0000
0000
0000
,  // measure 92
0100
0000
0000
1100
0000
0000
0000
1001
,  // measure 93
0000
0000
0000
0022
0000
0000
0000
0000
,  // measure 94
0000
0000
0000
0000
,  // measure 95
0000
0000
0000
0000
,  // measure 96
0000
0000
0000
0000
,  // measure 97
0000
0033
0000
0000
;

//---------------dance-single - Copied from Copied f----------------
#NOTES:
     dance-single:
     Copied from Copied f:
     Medium:
     7:
     0.552,0.693,0.504,0.540,0.000:
0000
0000
0000
0000
0000
0000
0000
0101
,
0000
0001
0100
0000
0010
0000
0000
1010
,
0000
1000
0010
0000
0100
0000
0000
0101
,
0000
0001
1000
0000
0100
0000
0000
1100
,
0000
1000
0010
0000
0100
0010
0100
0010
,
0000
1000
0001
0000
0100
0000
0000
0101
,
0000
0001
1000
0000
0100
0000
0000
1010
,
0000
1000
0001
0000
0010
0000
0000
0011
,
0000
0110
0000
1100
0000
1001
0000
0000
,
0002
0000
0000
0000
2000
0000
0000
3003
,
1100
0110
0011
1001
,
0120
1000
1000
0100
,
1000
0000
0001
0000
1000
0000
1030
0010
,
1000
0000
0000
0010
1000
0000
0000
0010
,
0100
0000
0000
0001
0010
0000
0000
0000
,
0210
0010
0010
0001
,
0010
0000
1000
0000
0010
0000
0310
0001
,
0010
0000
0000
0001
0100
0000
0000
0100
,
0010
0000
1000
0001
0000
1001
0000
0000
,
1000
0010
0100
0001
,
0100
0010
0100
0020
0000
0000
0000
0030
,
0010
1000
0001
0100
,
0001
1000
0001
2000
0000
0000
0000
3000
,
0001
0000
0100
0000
0010
0000
1000
0100
,
0000
0010
0000
0001
0000
0000
0100
0000
,
0210
0000
0000
0310
,
0120
1030
0210
0301
,
1002
0000
1000
0000
0100
0000
1003
0001
,
0010
0000
0010
0100
0000
0000
0000
0000
,
2200
0000
0000
0000
,
0300
0010
0010
3001
,
1001
0000
0001
0100
0001
0000
0100
0010
,
0100
0000
0010
1000
0010
0000
1000
0000
,
0200
0000
0000
0000
0320
0000
0000
0030
,
0011
0000
0000
1010
0000
0000
2002
0000
,
0000
0000
0000
0000
,
0000
3003
0001
1000
,
1001
0000
0001
0100
0000
0010
0000
1000
,
0000
0200
0000
0000
0000
0000
0310
0001
,
0010
0000
0010
0100
0000
1100
0000
2002
,
0000
0000
0000
0000
3003
0000
0000
0001
,
0100
0000
0100
0020
0000
0000
0030
0010
,
1000
0000
1000
0200
0000
0000
0300
0000
,
0110
0000
0010
0001
0000
0012
0000
2000
,
0000
0003
0001
3100
,
0101
0000
0001
1000
0000
0100
0000
0010
,
0000
0002
0000
0000
0000
0003
0010
0100
,
0010
0000
0100
1000
0000
0010
0000
0220
,
0000
0000
0000
0330
,
0010
0000
1000
0000
0100
0000
0010
0001
,
0000
0011
0000
1001
0000
0000
0000
0000
,
1000
0000
0010
0000
0100
0000
0001
0010
,
0000
0110
0000
1100
0000
1010
0000
0000
,
0220
0000
0000
0330
,
2000
0001
3020
0001
,
0230
1000
0302
0010
,
1003
0000
1000
0001
,
0110
0000
0010
0200
0000
0000
0000
0000
,
0000
0000
0000
0301
0200
0000
1300
0200
,
0000
0000
0000
0000
,
0000
0000
0000
0301
0020
0000
1030
0020
,
0000
0000
0000
0000
,
0030
0000
0000
0000
,
1001
0000
1000
0010
0000
0100
0000
0001
,
0000
0020
0000
0000
0000
0000
0130
1000
,
0100
0000
0100
0010
0000
0011
0000
2002
,
0000
0000
0000
0000
3003
0000
0000
1000
,
0010
0000
0010
0200
0000
0000
0300
0100
,
0001
0000
0001
0020
0000
0000
0030
0000
,
0110
0000
0100
1000
0000
2100
0000
0002
,
0000
3000
1000
0013
,
1010
0000
1000
0001
0000
0010
0000
0100
,
0000
2000
0000
0000
0000
3000
0100
0010
,
0100
0000
0010
0001
0000
0100
0000
0220
,
0000
0000
0000
0330
,
0100
0000
0001
0000
0010
0000
0100
1000
,
0000
1100
0000
1001
0000
0000
0000
0000
,
0001
0000
0100
0000
0010
0000
1000
0100
,
0000
0110
0000
0011
0000
0101
0000
0000
,
0220
0000
0000
0330
,
0002
1000
0203
1000
,
0320
0001
2030
0100
,
3001
0000
0001
1000
,
0110
0000
0100
0020
0000
0000
0000
0000
,
0000
0000
0000
1030
0020
0000
0031
0020
,
0000
0000
0000
0000
,
0000
0000
0000
1030
0200
0000
0301
0200
,
0000
0000
0000
0000
,
1300
0010
0110
1001
,
0010
0000
0010
1000
0000
1000
0000
0100
,
0000
0100
0001
0100
0000
0100
0000
1000
,
0010
0000
0010
0100
0000
0100
0000
0010
,
0000
0010
2000
0002
0000
0000
0000
0000
,
0000
0000
0000
0000
,
0000
0000
0000
0000
,
0000
0000
0000
0000
,
0000
3003
0000
0000
;

//---------------dance-single - Copied from Copied f----------------
#NOTES:
     dance-single:
     Copied from Copied f:
     Hard:
     9:
     0.655,0.650,0.459,0.369,0.000:
0000
0000
0000
0000
0000
0000
0000
0101
,
0000
0001
0100
0010
0010
1000
0000
1100
,
0000
0100
1000
0010
0010
0100
0000
0101
,
0000
0001
1000
0100
0100
1000
0000
0101
,
0000
0001
1000
0010
0010
0100
0001
0101
,
0000
0001
1000
0100
0100
1000
0000
1100
,
0000
1000
0010
0100
0100
0001
0000
0101
,
0000
0001
1000
0100
0100
1000
0000
1100
,
0000
0110
0000
0011
0000
1001
0000
0000
,
0002
1000
0203
0010
,
1300
0010
0100
0001
0010
0100
1000
0010
,
0110
0100
0100
0100
,
1001
0000
0001
0000
0001
0000
0001
1000
,
0100
0000
0100
0010
0001
0000
0000
0001
,
0100
0000
0100
0010
1000
0000
0000
0000
,
0110
0010
0010
0010
,
1001
0000
1000
0000
1000
0000
1000
0001
,
0010
0000
0010
0100
1000
0000
1000
0010
,
0100
0001
0010
0100
0000
0110
0000
0000
,
0001
1000
0100
0000
0100
1000
0010
0000
,
0010
0100
0001
0020
0000
0000
0130
0000
,
1000
0001
0100
0000
0100
0010
1000
0000
,
1000
0010
0100
0002
0000
1000
1003
0001
,
0100
0010
1000
0000
0010
0100
0001
0010
,
0000
0110
0000
1100
0000
0000
1001
0000
,
0220
0000
0030
0310
,
2010
3100
0102
0013
,
1001
0000
0001
0000
0100
0000
0010
1000
,
0100
0000
0100
0020
0000
0000
0031
0000
,
0220
0000
0000
0000
,
0030
0010
0010
0301
,
1001
0000
0001
1000
0100
0000
1000
0001
,
0100
0000
0001
1000
0010
0000
0100
0000
,
1001
0000
1100
0000
,
0011
0000
0000
0110
0000
0000
2000
0002
,
0000
0000
0000
0000
,
3003
0000
0000
0000
,
0001
1000
0100
1000
0000
0010
0100
0001
,
0000
1000
0100
0000
1000
0000
0010
0100
,
0001
0010
0100
0010
0000
0010
0001
0100
,
0000
0100
0010
0000
1000
0100
0010
0001
,
0100
0000
0010
1000
0000
0010
0100
0010
,
0100
0000
0001
0010
0000
0001
1000
0001
,
1000
0000
0010
0100
0000
0110
0000
2002
,
0000
0003
3001
1000
,
0010
0100
0001
0010
0000
0010
0100
1000
,
0000
0010
0100
0000
0001
0000
1000
0100
,
1000
0010
0100
0001
0000
0011
0000
2002
,
0000
0000
0000
3003
,
0002
0000
1000
0000
0010
0000
0100
0100
,
0000
0010
0000
1000
0000
0000
0003
0000
,
2000
0000
0010
0000
0001
0000
0100
0100
,
3000
0001
0000
0110
0000
1100
0000
0000
,
2002
0000
0000
0000
0000
0000
0000
3003
,
0020
0001
0100
1000
,
0230
0000
0001
0001
0000
1000
0300
0020
,
0000
0000
0031
0100
,
0010
1000
0100
1000
0000
0010
0100
0001
,
0000
0010
0000
0100
1100
0000
1000
1001
,
0002
0000
0010
0000
,
1003
0000
0000
0010
0011
0000
0001
1001
,
2000
0000
0010
0000
,
3001
0000
0000
0000
,
1000
0001
0010
0001
0000
0100
0010
1000
,
0000
0001
0010
0000
0001
0000
0100
0010
,
1000
0100
0010
0100
0000
0100
1000
0010
,
0000
0010
0100
0000
0001
0010
0100
1000
,
0010
0000
0100
0001
0000
0100
0010
0100
,
0010
0000
1000
0100
0000
1000
0001
1000
,
0001
0000
0100
0010
0000
0110
0000
2002
,
0000
3000
1003
0001
,
0100
0010
1000
0100
0000
0100
0010
0001
,
0000
0100
0010
0000
1000
0000
0001
0010
,
0001
0100
0010
1000
0000
1100
0000
2002
,
0000
0000
0000
3003
,
2000
0000
0001
0000
0100
0000
0010
0010
,
0000
0100
0000
0001
0000
0000
3000
0000
,
0002
0000
0100
0000
1000
0000
0010
0010
,
0003
1000
0000
0110
0000
0011
0000
0000
,
2002
0000
0000
0000
0000
0000
0000
3003
,
0200
1000
0010
0001
,
0320
0000
1000
1000
0000
0001
0030
0200
,
0000
0000
1300
0010
,
0100
0001
0010
0001
0000
0100
0010
1000
,
0000
0100
0000
0010
0011
0000
0001
1001
,
2000
0000
0100
0000
,
3001
0000
0000
0100
1100
0000
1000
1001
,
0002
0100
0100
1000
,
1000
0010
0010
0010
,
1003
0001
0100
0001
0000
0100
0010
1000
,
0000
0100
0010
0001
0000
0001
0100
0010
,
0100
1000
0100
0010
0000
0010
1000
0100
,
0000
0100
0020
0002
0000
0000
0000
0000
,
0000
0000
0000
0000
,
0000
0000
0000
0000
,
0000
0000
0000
0000
,
0000
0033
0000
0000
;

//---------------dance-single - Copied from Copied f----------------
#NOTES:
     dance-single:
     Copied from Copied f:
     Challenge:
     9:
     0.863,0.823,0.387,0.279,0.000:
0000
0000
0000
0000
0000
0000
0000
0011
,
0000
0010
0100
1000
0010
0001
0010
1010
,
0000
0010
1000
0100
0001
0100
0010
0011
,
0000
0010
0001
0100
1000
0100
0010
1010
,
0000
1000
0100
0001
0100
0010
0001
0011
,
0000
0001
0100
1000
0100
0001
0011
0011
,
0000
0001
0010
1000
0010
0100
1100
1100
,
0000
1000
0010
0001
0010
0100
0101
0101
,
0000
0011
0000
0110
0000
1100
0000
0000
,
0020
0100
0100
0100
2030
0001
0001
0001
,
3100
0010
1000
0100
0001
0100
0010
0001
,
1001
0000
0001
1000
0100
0000
0100
0100
,
0010
0001
0100
1000
0000
0100
0100
0001
,
1000
0000
0100
0010
0001
0000
1000
0010
,
0001
0010
0100
0001
1000
0000
0000
0000
,
0110
0000
0010
1000
0100
0000
0010
0010
,
0001
0100
1000
0100
0000
0010
0010
1000
,
0001
0000
0010
0001
0100
0000
0010
1000
,
0100
0001
0100
0010
0000
0110
0000
0000
,
0001
0100
0001
0100
1000
0100
0001
0010
,
1000
0010
0001
0200
0000
1000
1300
0100
,
0001
0010
0001
0010
1000
0010
0001
0100
,
0010
1000
0100
0020
0000
0001
0001
0130
,
0010
0010
1000
0100
0001
0100
0010
0001
,
0100
0100
1000
0100
0001
0010
0100
1000
,
0001
0001
0001
0001
0001
0001
1000
0100
,
1000
1000
0001
0100
0010
0010
1000
0001
,
0100
0100
0100
0100
0100
0100
0010
1000
,
0100
0100
0010
0001
0000
1000
0010
0100
,
0202
0000
0000
1000
0000
0000
0010
0303
,
0000
0001
1000
0100
,
2000
0001
0001
3001
0002
0100
0100
0103
,
0001
1000
0100
0100
0010
0001
0100
0100
,
0010
1000
1100
0000
0010
0100
0101
0000
,
0001
0010
0100
1100
0000
1010
2000
0002
,
0000
0000
0000
0000
,
3003
0000
0000
0000
0010
0001
0010
0001
,
0100
0010
1000
0100
0000
0100
1000
0010
,
0000
0010
0100
0010
0100
0001
0010
0100
,
0001
0100
0010
0001
0000
0100
0010
1000
,
0000
1000
0100
0010
1000
0010
0100
1000
,
0010
0100
0001
0020
0000
0130
0100
1000
,
0010
0001
0010
0200
0000
0310
0010
1000
,
0100
0001
0100
0010
0000
0010
0001
0100
,
0000
0100
0010
0100
0010
1000
0001
0010
,
0100
0010
1000
0010
0000
0010
0001
0100
,
0000
0100
0010
1000
0001
0010
0100
0010
,
0001
0100
1000
0100
0000
0010
2000
0002
,
0000
0000
0000
3003
,
0001
0100
1000
0100
0010
1000
0100
0001
,
0000
0101
0000
1100
0000
1010
0010
1000
,
0100
0001
0100
0010
0001
0100
0000
1100
,
0000
1010
0000
0011
0000
0110
0000
0000
,
0210
0010
0010
0010
0010
0010
0010
0010
,
0310
1000
1000
0010
0100
0001
0001
0010
,
0100
1000
1000
0010
0000
0010
0100
0001
,
0000
0001
0001
0100
0010
1000
0100
0001
,
0100
0100
1000
0010
0000
0100
0010
1010
,
0000
1000
1001
0010
0100
1000
0010
0001
,
0020
0000
1000
0000
,
0100
0000
0000
0031
0010
1000
0100
0001
,
0200
1000
1000
0010
,
0310
0000
0000
0000
,
0010
0001
0010
0001
0100
0010
1000
0100
,
0001
0100
0010
0001
0100
1000
0100
0010
,
1000
0100
0001
0100
1000
0010
0100
0001
,
0010
1000
0010
0100
1000
0010
0100
0001
,
0100
0020
0001
0031
0100
0010
1000
0100
,
1000
0020
0001
0031
0010
1000
0100
0001
,
0100
0010
0001
0011
0000
1000
0010
1010
,
0000
0010
0110
0000
0010
0000
1000
0000
,
0010
1000
0010
1000
0100
0001
0100
0010
,
0001
0100
1000
0100
0001
0010
1000
0001
,
1000
0010
0001
0100
1000
0001
1000
0100
,
0001
0010
1000
0010
0001
0100
0010
1000
,
0002
0100
0100
0013
1000
0100
0001
0100
,
0020
0001
0001
0130
0010
0001
1000
0010
,
0200
0010
0010
1300
0010
1000
0100
0001
,
0200
0010
0010
0301
0100
1000
0010
0000
,
0120
0100
0100
0100
0100
0100
0100
0130
,
0010
1000
0100
0001
0100
0010
0001
0100
,
1000
0100
0010
1000
0010
0100
0001
0010
,
0100
0001
0100
0010
0001
1000
0010
0100
,
0002
1000
0010
0013
0000
1000
0010
1010
,
0000
0010
0100
0001
0010
1000
0010
0100
,
0200
0000
1000
0000
,
0010
0000
0000
0301
0100
1000
0010
0001
,
0020
1000
0100
0001
,
0001
0100
1000
0130
,
0010
1000
0100
0110
0000
0010
0001
0101
,
0000
0100
0010
1010
0000
1000
1000
0100
,
0010
0001
0100
0110
0000
0010
1000
1010
,
0000
0220
2000
0002
0000
0000
0000
0000
,
0000
0000
0000
0000
,
0000
0000
0000
0000
,
0000
0000
0000
0000
,
0000
3333
0000
0000
;

//---------------dance-double - Copied from Copied f----------------
#NOTES:
     dance-double:
     Copied from Copied f:
     Easy:
     7:
     0.558,0.608,0.919,0.306,0.000:
00000000
00000000
00000000
00000000
,
00001000
00100000
00011000
00000000
,
00010000
00000100
00011000
00000000
,
00001000
00100000
00011000
00000000
,
00010000
00000100
00010000
00001000
,
00011000
00100000
00011000
00000000
,
00000010
00010000
00001100
00000000
,
00010000
00001000
00110000
00000000
,
00001000
01000000
00100000
01100000
,
20000000
30020000
00032000
00003002
,
00000013
00000100
00000110
00011000
,
01100000
01000000
01000000
01000000
,
00000100
00000100
00000100
00000100
,
00010000
00000100
00011000
00000000
,
00001000
00100000
00011000
00000000
,
00000010
00000010
00000010
00000010
,
00100000
00100000
00100000
00100000
,
00001000
00100000
00011000
00000000
,
00010000
00000100
00011000
01100000
,
00011000
00000110
00000010
00000100
,
00011000
01000000
01100000
00000000
,
01100000
00100000
01000000
00100000
,
00011000
00000010
00000110
00000000
,
00000011
00000010
00000100
00010000
,
00011000
00001000
01000000
00100000
,
20200000
00000000
00300000
30010000
,
10010000
01100000
00011000
00000110
,
00002002
00000000
00003000
00000003
,
00001000
00000000
00000010
00000000
00002200
00000000
00000000
00003300
,
00220000
00000000
00000000
00000000
00000000
00000000
00000000
00330000
,
00000000
00010000
10000000
00010000
,
01000000
01000000
00000100
00000100
,
00010000
00010000
00000001
00010000
,
00000010
00100000
00000010
00000000
,
00010000
00000100
01000000
02002000
,
00000000
00000000
00000000
00000000
,
00000000
03003000
00001000
01000000
,
01100000
00100000
10000000
01000000
,
00011000
00000010
00000001
00000100
,
00011000
00100000
10000000
01000000
,
00011000
00000010
00000001
00000100
,
00000110
00011000
01100000
00000000
,
10010000
00011000
00001001
00000000
,
00000001
00000100
00000101
00010100
,
01010000
00000000
10000000
00100000
,
00110000
10000000
01000000
00010000
,
00001010
00000001
00000100
00001000
,
00110000
10000000
01000000
00010000
,
00001010
00000001
00000100
00001000
,
01001000
00100000
10000000
01000000
,
00110000
00010010
00000011
00000000
,
00000101
00000010
00001000
00000001
,
00000101
00001010
00010100
00101000
,
02020000
00000000
00000000
03030000
,
10100000
10000000
01000000
00010000
,
00001010
00000001
00000100
00001000
,
00022000
00030000
00013000
00001000
,
01000000
00100000
12000000
00000000
,
00000000
00000000
03010000
00000020
,
00200000
00000000
00000000
00000000
,
00000000
00300030
00001000
02000000
,
00000200
00000000
00000000
00000000
,
03000300
00000000
00000000
00000000
,
00000110
00000100
00000001
00000010
,
00011000
01000000
10000000
00100000
,
00011000
00000100
00000001
00000010
,
00011000
01000000
10000000
00100000
,
01100000
00011000
00000110
00000000
,
00001001
00011000
10010000
00000000
,
10000000
00100000
10100000
00101000
,
00001010
00000000
00000001
00000100
,
00001100
00000001
00000010
00001000
,
01010000
10000000
00100000
00010000
,
00001100
00000001
00000010
00001000
,
01010000
10000000
00100000
00010000
,
00010010
00000100
00000001
00000010
,
00001100
01001000
11000000
00000000
,
10100000
01000000
00010000
10000000
,
10100000
01010000
00101000
00010100
,
00002020
00000000
00000000
00003030
,
00000101
00000001
00000010
00001000
,
01010000
10000000
00100000
00010000
,
00022000
00003000
00031000
00010000
,
00000010
00000100
00000021
00000000
,
00000000
00000000
00001030
02000000
,
00000200
00000000
00000000
00000000
,
00000000
03000300
00010000
00000020
,
00200030
00000010
00000010
00000010
,
00000010
00000010
00300010
00000000
,
00010000
00001000
01000000
00100000
,
10100000
11000000
00001100
00000000
,
00010000
00001000
00010000
00000010
,
00000101
00000011
00220000
00000000
,
00000000
00000000
00000000
00000000
,
00000000
00000000
00000000
00000000
,
00000000
00000000
00000000
00000000
,
00000000
00000000
00330000
00000000
;

//---------------dance-double - Copied from Copied f----------------
#NOTES:
     dance-double:
     Copied from Copied f:
     Medium:
     8:
     0.596,0.692,0.522,0.450,0.000:
00000000
00000000
00000000
00000000
00000000
00000000
00000000
00100000
,
00000000
00001000
00010000
00000000
00011000
00000000
00000000
00000010
,
00000000
00010000
00001000
00000000
00011000
00000000
00000000
01000000
,
00000000
00001000
00010000
00000000
00011000
00000000
00000000
00000100
,
00000000
00010000
00001000
00000000
00010000
00001000
01000000
00000100
,
00000000
00010000
00001000
00000000
01100000
00000000
00000000
01000000
,
00000000
00001000
00010000
00000000
00000110
00000000
00000000
00000010
,
00000000
00010000
00001000
00000000
01100000
00000000
00000000
10100000
,
00000000
00101000
00000000
00010100
00000000
00000101
00000000
00000000
,
00000002
00002003
00023000
20030000
,
30010000
00000000
01000000
00100000
00000000
01000000
00000000
00001000
,
00010000
00010000
00010000
00010000
,
00000001
00000000
00000001
00000000
00000001
00000000
00000001
00001000
,
00000100
00000000
00000000
00000100
01000000
00000000
00000000
01000000
,
00001000
00000000
00000000
00001000
00100000
00000000
00000000
00000000
,
01000000
01000000
01000000
01000000
,
00000100
00000000
00000100
00000000
00000100
00000000
00000100
00001000
,
00000001
00000000
00000000
00000001
00010000
00000000
00000000
00010000
,
00001000
00000000
00001000
10000000
00000000
10010000
00000000
00000000
,
10000000
01000000
00100000
00010000
,
01000000
00000100
01000000
00000100
00000000
00000000
00000000
00000000
,
00000001
00000010
00000100
00001000
,
00000010
00100000
00000010
00100000
00000000
00000000
00000000
00000000
,
00010000
00000000
00100000
00000000
01000000
00000000
10000000
00010000
,
00000000
00001000
00000000
00000001
00000000
00000000
00000100
00000000
,
00020020
00000000
00000000
00000000
00000000
00030030
00001000
00000000
,
00000011
00001100
00110000
11000000
,
00012000
00000000
00010000
00000000
00010000
00003000
00010000
00001000
,
00010000
00000000
00010000
00000010
00000000
00000000
00000100
00000000
,
00000220
00000000
00000000
00000000
,
00000330
00000100
00000010
00010000
,
00001000
01000000
00100000
00000000
00100000
10000000
01000000
00000000
,
01000000
00010000
00000100
00000000
00000100
00000010
00000001
00000000
,
00000001
00000100
00001000
00000000
00010000
00100000
10000000
00000000
,
10000000
01000000
00001000
01000000
00000000
00100000
00001000
00000200
,
00000000
00000000
00000000
00000000
00000000
00000000
00000000
00000300
,
00000000
00000000
00000001
00000010
,
00000110
00000000
00000100
00010000
00000000
00000010
00000000
00001010
,
00000000
00202000
00000000
00000000
00303000
00000000
00100000
00001000
,
01000000
00000000
01000000
00100000
00000000
10100000
00000000
22000000
,
00000000
00000000
00000000
00000000
33000000
00000000
00000000
10000000
,
00010000
00000000
00001000
00000001
00000000
00000000
00000000
00000100
,
00000010
00000000
00100000
01000000
00000000
00000000
00000000
00000000
,
11000000
00000000
01000000
00010000
00000000
00010010
00000000
00011000
,
00000000
00000000
00010000
00000010
,
00011000
00000000
00001000
01000000
00000000
01100000
00000000
10100000
,
00000000
22000000
00000000
00000000
33000000
00000000
01000000
00100000
,
00101000
00000000
00001000
00010000
00000000
00010010
00000000
00022000
,
00000000
00000000
00000000
00033000
,
00020010
00000000
00000001
00000000
00000100
00000000
01000000
01000000
,
00000000
00000100
00000000
00000002
00000000
00000000
00000000
00030003
,
00102000
00000000
10000000
00000000
01000000
00000000
00000100
00000100
,
00000000
01000000
00000000
10000000
00000000
00013000
00000000
00000000
,
00022000
00000000
00000000
00000000
00000000
00000000
00000000
00033000
,
00012000
00100000
00000010
00103000
,
00021000
00000000
00000100
01000000
00000000
00000100
00030000
00002000
,
00000000
00000000
00010000
00013000
,
00001000
00010000
00001000
01000000
00000000
01000000
00100000
10000000
,
00000000
10000000
01000000
00100000
00002000
00000000
00013000
00000010
,
00000200
00000000
00001000
00000000
,
00000301
00000000
00000000
00000010
00001000
00000000
00001000
01000000
,
00200000
00000000
10000000
00000000
,
00310000
00000000
00000000
00000000
,
01100000
00000000
00100000
00001000
00000000
01000000
00000000
01010000
,
00000000
00020200
00000000
00000000
00030300
00000000
00000100
00010000
,
00000010
00000000
00000010
00000100
00000000
00000101
00000000
00000022
,
00000000
00000000
00000000
00000000
00000033
00000000
00000000
00000001
,
00001000
00000000
00010000
10000000
00000000
00000000
00000000
00100000
,
01000000
00000000
00000100
00000010
00000000
00000000
00000000
00000000
,
00000011
00000000
00000010
00001000
00000000
01001000
00000000
00011000
,
00000000
00000000
00001000
01000000
,
00011000
00000000
00010000
00000010
00000000
00000110
00000000
00000101
,
00000000
00000022
00000000
00000000
00000033
00000000
00000010
00000100
,
00010100
00000000
00010000
00001000
00000000
01001000
00000000
00022000
,
00000000
00000000
00000000
00033000
,
01002000
00000000
10000000
00000000
00100000
00000000
00000010
00000010
,
00000000
00100000
00000000
20000000
00000000
00000000
00000000
30003000
,
00020100
00000000
00000001
00000000
00000010
00000000
00100000
00100000
,
00000000
00000010
00000000
00000001
00000000
00031000
00000000
00000000
,
00022000
00000000
00000000
00000000
00000000
00000000
00000000
00033000
,
00021000
00000100
01000000
00030100
,
00012000
00000000
00100000
00000010
00000000
00100000
00003000
00020000
,
00000000
00000000
00001000
00031000
,
00010000
00001000
00010000
00000010
00000000
00000010
00000100
00000001
,
00000000
00000001
00000010
00000100
00020000
00000000
00031000
01000000
,
00200000
00000000
00010000
00000000
,
10300000
00000000
00000000
00100000
10000000
00000000
10000000
01000000
,
00002000
00000010
00000001
00000010
,
00000100
01000000
00003100
00000000
,
00010000
00001000
00010000
00001000
00000000
01000000
00000100
01000000
,
00000000
00001000
10000000
00001000
00000000
01000000
00001000
00010000
,
00001000
00010000
00000010
00010000
00000000
00000010
00100000
00000010
,
00000000
00001000
20000000
00002000
00000000
00000000
00000000
00000000
,
00000000
00000000
00000000
00000000
,
00000000
00000000
00000000
00000000
,
00000000
00000000
00000000
00000000
,
30003000
00000000
00000000
00000000
;

//---------------dance-double - Copied from Copied f----------------
#NOTES:
     dance-double:
     Copied from Copied f:
     Hard:
     9:
     0.693,0.736,0.414,0.522,0.000:
00000000
00000000
00000000
00000000
00000000
00000000
00000000
00011000
,
00000000
01000000
00001000
00010000
00000010
00000100
00000000
00011000
,
00000000
00000100
00010000
00001000
00100000
01000000
00000000
00011000
,
00000000
00000100
00000010
00010000
00001000
01000000
00000000
00011000
,
00000000
01000000
00100000
00001000
00010000
00000010
00000100
00001001
,
00000000
00000001
00000100
00001000
00010000
01000000
00000000
10010000
,
00000000
10000000
01000000
00010000
00001000
00000010
00000000
00001001
,
00000000
00000001
00000100
00001000
00010000
01000000
00000000
10010000
,
00000000
00101000
00000000
00010100
00000000
00001001
00000000
00000000
,
00000002
00000000
00002003
00000000
,
02003000
10000000
00100000
13000000
,
10200000
00010000
00010000
00001000
,
00010000
01000000
10000000
01300000
,
00001000
00010000
00011000
00000000
,
00010000
00000100
00000110
00000000
,
00000201
00001000
00001000
00010000
,
00001000
00000010
00000001
00000010
,
00001300
00000000
00010000
00000000
00011000
00000000
00000000
00001000
,
01000000
00000000
01000000
00100000
00000000
10010000
00000000
00000000
,
20000000
32000000
03002000
02003000
,
03001000
00000010
00000001
00000200
00000000
00000300
00000000
00000000
,
00000002
00000203
00020300
00030200
,
00010300
00100000
10000000
02000000
00000000
03000000
00000000
00000000
,
12000000
00000000
03020000
00000000
00030200
00000000
00001300
00000010
,
00000000
00000001
00000000
00000010
00000000
00000000
00001000
00000000
,
10010000
00000000
00000000
10000000
,
01010000
00010100
00000101
00010100
,
02020000
00000000
00000000
00000000
03030000
00000000
00000000
10000000
,
01000000
00000000
00010000
00000010
00000000
00000000
00000100
00000000
,
00022000
00000000
00000000
00000000
00000000
00000000
00000000
00033000
,
00000000
00010000
00000010
00000100
,
00000202
00001000
00000010
00001303
,
00020200
00000000
00001000
00000000
00100000
00000000
00001000
00030300
,
02020000
00100000
20000000
33030000
,
20020000
01000000
00100000
00000220
,
00000000
00000000
00000000
00000000
,
00000000
30030330
00000000
00000000
,
00001000
00010000
00000010
00000100
00000000
00000100
00000001
00000010
,
00000000
00000010
00000100
00000000
00000100
00010000
00001000
00010000
,
01000000
10000000
01000000
00100000
00000000
00100000
10000000
01000000
,
00000000
01000000
00100000
00001000
00010000
00001000
00000100
00000001
,
00000010
00001000
00010000
02000000
00000000
00000000
03000000
10000000
,
00100000
00010000
00001000
00000200
00000000
00000300
00000000
00000000
,
00000100
00000001
00000010
00001000
00000000
00000010
00000100
00001100
,
00000000
00010000
00011000
00000000
00001000
00000000
00010000
00000000
,
00001000
01000000
00100000
01000000
00000000
00100000
10000000
01000000
,
00000000
01000000
00100000
00001000
00010000
00001000
00000100
00000001
,
00000010
00000100
00010000
00000010
00000000
00000100
00000002
00002000
,
00000000
00000000
00000000
00000000
00000000
00000000
00000000
00003003
,
00000010
00000100
00010000
00001000
01000000
00100000
10000000
00010000
,
00000000
01010000
00000000
00011000
00000000
00000000
00000000
00000000
,
00100000
01000000
00001000
00010000
00000100
00000010
00000100
00000001
,
00000000
00000100
00000000
00000110
00000000
00011000
00000000
00000000
,
02200000
00000000
00000000
00000000
00000000
00000000
00000000
03300000
,
00010000
01000000
00100000
10000000
,
01000000
00100000
00001000
00010000
00000000
00010000
00000010
00000200
,
00000000
00000000
00000301
00001000
,
00000001
00000010
00000100
00000010
00000000
00000100
00010000
00001000
,
00000000
00001000
01000000
00100000
10000000
01000000
00001000
00000020
,
00000001
00000000
00001000
00000000
,
00000100
00000000
00000030
00000100
00000001
00000010
00010000
00200000
,
10000000
00000000
00010000
00000000
,
01300000
00000000
00000000
00000000
,
10000000
01000000
00100000
00001000
00010000
00000100
00000010
00000001
,
00000100
00000010
00001000
00000100
00010000
00001000
01000000
00100000
,
10000000
01000000
00010000
01000000
00100000
00001000
00010000
00000100
,
00000010
00000001
00000100
00000001
00000010
00000100
00010000
00001000
,
01000000
00100000
10000000
00020000
00000000
01000000
01030000
00010000
,
00100000
00001000
00010000
00000200
00000000
00001000
00001300
00000100
,
00010000
00000010
00000100
00000101
00000000
00000001
00000010
00000110
,
00000000
00000100
00000100
00000000
00010000
00000000
00001000
00000000
,
01000000
00100000
10000000
01000000
00010000
01000000
00100000
00001000
,
00010000
00000100
00000001
00000100
00000010
00000001
00000100
00010000
,
00000100
00001000
00100000
01000000
00000000
10000000
00010000
20020000
,
00000000
00000000
00000000
30030000
,
10000000
00100000
01000000
00001000
00010000
00000100
00000001
00000100
,
00000000
00001100
00000000
00011000
00000000
00000000
00000000
00000000
,
00000001
00000100
00000010
00010000
00001000
00100000
10000000
00100000
,
00000000
00110000
00000000
00011000
00000000
00000110
00000000
00000000
,
00002002
00000000
00000000
00000000
00000000
00000000
00000000
00003003
,
00000001
00000100
00000010
00010000
,
00001000
01000000
00100000
01000000
00000000
00100000
10000000
02000000
,
00000000
00100000
03100000
00000000
00010000
00000000
00001000
00000000
,
00000010
00000100
00000001
00000010
00000000
00000010
00001000
01000000
,
00000000
01000000
00100000
10000000
01000000
00010000
00001000
00000020
,
00000001
00000000
00001000
00000000
,
00000100
00000000
00000030
00000100
00000001
00000010
00010000
00200000
,
10000000
00010000
00010000
01000000
,
01000000
10000000
10300000
00000000
,
10000000
00100000
00001000
00020000
00000000
00030010
00000001
00000020
,
00000000
00010030
00001000
00200000
00000000
10300000
00100000
00001000
,
00010000
00000010
00000001
00000020
00000000
00010030
00001000
00000020
,
00000000
00001030
02000000
20000000
00000000
00000000
00000000
00000000
,
00000000
00000000
00000000
00000000
,
00000000
00000000
00000000
00000000
,
00000000
00000000
00000000
00000000
,
00000000
33000000
00000000
00000000
00000000
00000000
00000000
00000000
;

//---------------dance-double - Copied from Copied f----------------
#NOTES:
     dance-double:
     Copied from Copied f:
     Challenge:
     9:
     0.823,0.780,0.513,0.441,0.000:
00000000
00000000
00000000
00000000
00000000
00000000
00000000
00011000
,
00000000
00001000
01000000
10000000
01000000
00001000
00010000
00011000
,
00000000
00010000
00000100
00000001
00000100
00010000
00001000
00011000
,
00000000
00001000
00100000
10000000
00100000
00001000
00010000
00011000
,
00000000
00010000
00000010
00000001
00000010
00001000
00000100
00000110
,
00000000
00000001
00000100
00001000
00010000
00100000
10000000
10010000
,
00000000
10000000
01000000
00010000
00001000
00000010
00000001
00001001
,
00000000
00000001
00000010
00001000
00010000
01000000
10000000
11000000
,
00000000
10100000
00000000
00101000
00000000
00001010
00000000
00000000
,
00000002
00000100
00000100
00000103
00002000
00000100
00000100
00003100
,
00000010
00000001
00000100
00001000
00010000
00100000
10000000
01000000
,
01100000
01000000
01000000
01000000
,
00000100
00000000
00000100
00000000
00000100
00000000
00000100
00001000
,
00000010
00000000
00000010
00000001
00000100
00000000
00000100
00000001
,
00000010
00010000
00000010
00000001
00001000
00000000
00000000
00000000
,
00000110
00000100
00000100
00000100
,
01000000
00000000
01000000
00000000
01000000
00000000
01000000
00100000
,
10000000
00000000
10000000
01000000
00100000
00000000
00100000
00001000
,
00100000
00010000
01000000
10000000
00000000
10100000
00000000
00000000
,
00100000
10000000
00100000
10000000
01000000
00010000
01000000
00010000
,
00000100
00000001
00000100
00001000
00000010
00000100
00000100
00000000
,
00000001
00000100
00000001
00000100
00000010
00001000
00000010
00001000
,
00100000
00001000
00100000
10000000
01000000
00100000
00100000
00000000
,
01000000
10000000
01000000
10000000
00100000
00010000
00100000
00010000
,
10000000
01000000
00010000
00100000
00001000
00010000
00000100
00000001
,
00002000
00000010
00000010
00003001
,
00000001
00000100
00001100
00000000
00010000
00100000
10100000
00000000
,
22000000
00000000
00010000
00000000
00010000
33000000
10000000
00010000
,
00100000
00000000
00100000
00001000
00000000
00000000
00010000
00000000
,
00022000
00000000
00000000
02000000
00000000
00000000
00000200
00000000
,
03033300
00010000
00000010
00000100
,
00000201
00000000
00000001
00000310
00001020
00000000
00001000
00000130
,
00010200
00000000
00010000
00001300
02001000
00000000
00100000
03000000
,
00100000
10000000
11000000
00000000
10000000
01000000
01100000
00000000
,
00100000
00001000
00010000
00011000
00000000
01000100
00000200
02000000
,
00000000
00000000
00000000
00000000
,
03000300
00000000
00000000
00000000
00010000
00001000
01000000
00000000
,
01000100
00000100
00010000
00001000
00000000
00010000
00000010
00000100
,
00000000
00000100
00000001
00000010
00001000
00000001
00001000
00000010
,
00000011
00000001
00000100
00001000
00000000
00010000
00100000
10100000
,
00000000
00100000
10000000
01000000
00010000
10000000
00010000
00100000
,
00101000
00001000
00010000
00000200
00000000
00000010
00000010
00000301
,
00000011
00000001
00000100
00000200
00000000
00000010
00000010
00001300
,
00001100
00000100
00010000
00001000
00000000
00001000
00100000
20000000
,
00000000
00010000
00010000
30000000
01000000
00000000
10000000
00000000
,
10001000
10000000
00100000
01000000
00000000
01000000
00010000
00100000
,
00000000
00100000
00001000
01000000
10000000
00010000
10000000
01000000
,
01010000
01000000
00010000
00100000
00000000
00100000
00002000
00000020
,
00000000
00000000
00000000
00000000
00000000
00003030
00000000
00000000
,
00000001
00000100
00001000
00000100
00000010
00010000
00000100
00000001
,
00000100
00010000
00000100
00010000
00001000
01000000
10000000
00000000
,
10000000
01000000
10000000
01000000
00010000
00100000
00010000
00100000
,
10000000
00100000
00001000
00010000
00000100
00000001
00001000
00000000
,
00022000
00000000
00000000
00000000
00000000
00000000
00000000
00033000
,
00001000
01000000
10000000
01000000
00100000
10000000
10000000
00000000
,
01000000
00100000
10000000
20100000
00000000
30100000
00001000
00001020
,
00000000
00000001
00000031
00000000
00000001
00000000
00000100
00000000
,
00000110
00000010
00001000
00000200
00000000
00000010
00000310
00000002
,
00000000
00000100
00000103
00000010
00010000
00001000
01000000
00000200
,
02000000
00000000
00010000
00000000
,
00001000
00000000
03000300
01000000
00000100
00010000
00001000
00200000
,
00000020
00000000
00001000
00000000
,
00010000
00000000
00300030
00000000
00001000
00010000
00000010
00000000
,
00100010
00100000
00001000
00010000
00000000
00001000
01000000
00100000
,
00000000
00100000
10000000
01000000
00010000
10000000
00010000
01000000
,
11000000
10000000
00100000
00010000
00000000
00001000
00000100
00000101
,
00000000
00000100
00000001
00000010
00001000
00000001
00001000
00000100
,
00010100
00010000
00001000
00200000
00000000
01000000
01000000
10300000
,
11000000
10000000
00100000
00200000
00000000
01000000
01000000
00310000
,
00110000
00100000
00001000
00010000
00000000
00010000
00000100
00000002
,
00000000
00001000
00001000
00000003
00000010
00000000
00000001
00000000
,
00010001
00000001
00000100
00000010
00000000
00000010
00001000
00000100
,
00000000
00000100
00010000
00000010
00000001
00001000
00000001
00000010
,
00001010
00000010
00001000
00000100
00000000
00000100
00020000
02000000
,
00000000
00000000
00000000
00000000
00000000
03030000
00000000
00000000
,
10000000
00100000
00010000
00100000
01000000
00001000
00100000
10000000
,
00100000
00001000
00100000
00001000
00010000
00000010
00000001
00000000
,
00000001
00000010
00000001
00000010
00001000
00000100
00001000
00000100
,
00000001
00000100
00010000
00001000
00100000
10000000
00010000
00000000
,
00022000
00000000
00000000
00000000
00000000
00000000
00000000
00033000
,
00010000
00000010
00000001
00000010
00000100
00000001
00000001
00000000
,
00000010
00000100
00000001
00000102
00000000
00000103
00010000
02010000
,
00000000
10000000
13000000
00000000
10000000
00000000
00100000
00000000
,
01100000
01000000
00010000
00200000
00000000
01000000
01300000
20000000
,
00000000
00100000
30100000
01000000
00001000
00010000
00000010
00200000
,
00000020
00000000
00001000
00000000
,
00010000
00000000
00300030
00000010
00100000
00001000
00010000
00000200
,
02000000
00010000
00010000
00000001
,
00000001
00000000
10000000
00000000
10000000
00000000
00001000
03000300
,
01000000
00001000
00010000
00011000
00000000
00000010
00000100
00011000
,
00000000
01000000
00100000
00011000
00000000
00001000
00010000
00000100
,
00000110
00000001
00000100
00011000
00000000
10000000
01000000
00011000
,
00000000
00022000
00200000
00000020
00000000
00000000
00000000
00000000
,
00000000
00000000
00000000
00000000
,
00000000
00000000
00000000
00000000
,
00000000
00000000
00000000
00000000
,
00000000
00333030
00000000
00000000
;
