#TITLE:Atomic Destroyer;
#SUBTITLE:From Sonic Triple Trouble;
#ARTIST:SEGA/Sonic Team;
#TITLETRANSLIT:;
#SUBTITLETRANSLIT:;
#ARTISTTRANSLIT:;
#CREDIT:;
#BANNER:Atomic Destroyer-bn.png;
#BACKGROUND:Atomic Destroyer-bg.png;
#LYRICSPATH:;
#CDTITLE:CD_Title.png;
#MUSIC:Atomic Destroyer.mp3;
#OFFSET:-0.360;
#SAMPLESTART:0.300;
#SAMPLELENGTH:14.320;
#SELECTABLE:YES;
#BPMS:0.000=165.800;
#STOPS:;
#BGCHANGES:;

//---------------dance-single - ----------------
#NOTES:
     dance-single:
     :
     Beginner:
     2:
     0.168,0.198,0.077,0.000,0.000:
1000
0000
0000
0000
,
0001
0000
0000
0000
,
1000
0000
0000
0000
,
0001
0000
0000
0000
,
0100
0000
0100
0000
,
0100
0000
0000
0000
,
0010
0000
0010
0000
,
0000
1000
1000
0001
,
1000
0000
0000
0000
,
0001
0000
0000
0000
,
1000
0000
1000
0000
,
0001
0000
0001
0000
,
0100
0000
0100
0000
,
0010
0000
0010
0000
,
1001
0000
0000
0000
,
0110
0000
0000
0000
,
1000
0000
0010
0000
,
0100
0000
0000
0000
,
0001
0000
0100
0000
,
0010
0000
0000
0000
,
1000
0000
0001
0000
,
0010
0000
0000
0000
,
0001
0000
1000
0000
,
0100
0000
0000
0000
,
1001
0000
0000
0000
,
1000
0000
1000
0000
,
0001
0000
0001
0000
,
0100
0000
0100
0100
,
0000
0010
0010
0100
,
0010
0000
0000
0000
,
1000
0000
0000
0000
,
0001
0000
0001
0000
,
1000
0000
1000
0000
,
0010
0000
0100
0000
,
0010
0000
0100
0000
,
1001
0000
0000
0000
,
0110
0000
0000
0000
,
1000
0000
0010
0000
,
0100
0000
0000
0000
,
0001
0000
0100
0000
,
0010
0000
0000
0000
,
1000
0000
0001
0000
,
0100
0000
0000
0000
,
0001
0000
1000
0000
,
0010
0000
0000
0000
,
1001
0000
0100
0100
,
0100
0000
0100
0000
,
0010
0000
0010
0000
,
1000
0000
0001
0000
,
0000
1000
1000
0001
,
1000
0000
0000
0000
,
0001
0000
0000
0000
;

//---------------dance-single - Copied from----------------
#NOTES:
     dance-single:
     Copied from:
     Easy:
     4:
     0.365,0.401,0.349,0.000,0.000:
1000
0100
0010
0001
,
0100
0100
0000
0010
,
1001
0000
0000
0000
,
1000
1000
0001
0100
,
0001
0100
1000
0100
,
0001
0100
1000
0100
,
0010
1000
0100
0001
,
0000
0010
0001
0100
,
1001
0000
0000
0000
,
0110
0000
0000
0100
,
0010
0001
0010
1000
,
0010
0001
0100
0000
,
1000
0100
0001
0100
,
1000
0100
0001
0100
,
1000
0010
0000
0000
,
0001
1000
0000
0001
,
1001
0110
0010
1000
,
0100
0100
0001
0010
,
0110
1001
0010
0001
,
0100
0100
1000
0010
,
1001
0110
0010
1000
,
0100
0100
0001
0010
,
0110
1001
0010
0001
,
0100
0000
0000
0000
,
1001
1001
0010
0100
,
0001
0010
1000
0010
,
0001
0010
1000
0010
,
0001
0010
1000
0100
,
0000
0001
0010
1000
,
0110
0000
0000
0000
,
1001
0000
0000
1000
,
0001
0100
1000
0100
,
0001
0010
1000
0000
,
0001
0010
1000
0010
,
0001
0010
1000
0010
,
0001
0100
0000
0000
,
1000
0010
0000
0000
,
0110
1001
0010
1000
,
0100
0100
0001
0010
,
0110
1001
0100
1000
,
0010
0010
0001
0100
,
1001
0110
0100
0001
,
0010
0010
1000
0100
,
1001
0110
0100
1000
,
0010
0000
0000
0000
,
1001
1001
0100
0010
,
1000
0100
0001
0100
,
1000
0010
0001
0000
,
1000
0001
0010
1000
,
0000
0010
0001
0100
,
1001
0000
0000
0000
,
0110
0000
0100
0100
;

//---------------dance-single - Copied from Copied f----------------
#NOTES:
     dance-single:
     Copied from Copied f:
     Medium:
     6:
     0.496,0.434,0.103,0.000,0.000:
0001
0010
0100
1000
,
0010
0100
0010
0000
0000
0000
0100
0001
,
0010
0000
0000
0000
,
0010
0001
0100
1000
,
0010
1000
0100
0000
0010
1000
0100
0000
,
0010
1000
0100
0001
,
0010
0000
0001
0000
0100
0001
0000
1000
,
0000
0100
1000
0010
0100
0000
0001
0000
,
0011
0001
1000
0001
,
1001
0000
0010
0000
0000
1000
0001
0000
,
1000
0010
0100
0000
1000
0010
0100
0000
,
0001
0010
1000
0100
,
0001
0100
0010
0000
0001
0100
0010
0000
,
1000
0010
0100
0000
0001
0000
0010
0000
,
1001
0000
0110
0000
0000
0000
0000
0010
,
1000
0100
0010
0100
0000
0000
1000
0000
,
0010
0001
0100
0000
0010
0001
0100
0000
,
0010
0000
0001
0000
0100
1000
0010
0000
,
0010
0100
0001
0000
0010
0100
0001
0000
,
0010
0000
1000
0000
0100
0001
0010
0000
,
1000
0010
0100
0000
1000
0010
0100
0000
,
0001
0000
0010
0000
0001
1000
0100
0000
,
0100
1000
0010
0000
0100
1000
0010
0000
,
1001
1000
0001
1000
,
0110
0000
0010
0000
0100
0010
0100
0000
,
0001
0100
0010
0000
0001
0100
0010
0000
,
1000
0010
0100
0000
0001
0000
0010
0000
,
0001
1000
0100
0000
1000
0010
0000
0100
,
0000
0001
0010
0100
1000
0000
0010
0000
,
0100
0001
0010
0000
0100
0001
0010
0000
,
1000
0010
0100
0000
0000
0010
0100
0000
,
0001
1000
0100
0000
0001
1000
0100
0000
,
1000
0010
0001
0100
,
1000
0001
0010
0000
1000
0001
0010
0000
,
0001
1000
0100
0000
1000
0000
0001
0000
,
0110
0000
1001
0000
0000
0000
0000
0100
,
0001
0010
0100
0010
0000
0000
0001
0000
,
1000
0010
0100
0000
1000
0010
0100
0000
,
0001
0000
0010
0000
1000
0001
0010
0000
,
0001
0100
0010
0000
0001
0100
0010
0000
,
1000
0000
0010
0000
0001
0100
0010
0000
,
1000
0001
0100
0000
1000
0001
0100
0000
,
0001
0000
0010
0000
1000
0001
0100
0000
,
0010
0001
1000
0000
0010
0001
1000
0000
,
0100
0001
0010
1000
,
0010
0000
0001
0000
0100
1000
0010
0000
,
0100
0001
0010
0000
0100
0001
0010
0000
,
0001
0010
1000
0100
,
1000
0001
0010
0000
0001
0100
0000
0010
,
0000
1000
0010
0100
0001
0000
0010
0000
,
0001
1000
0100
0000
0001
1000
0100
0000
,
1000
0001
0010
0000
0000
0010
0100
0000
;

//---------------dance-single - Copied from Copied f----------------
#NOTES:
     dance-single:
     Copied from Copied f:
     Hard:
     8:
     0.672,0.635,0.271,0.000,0.181:
1000
0001
0010
0100
0010
0001
1000
0010
,
0100
0001
0011
0000
0000
0000
1001
0010
,
0100
0000
0000
0000
,
0010
1000
0100
0010
0100
1000
0010
0100
,
0001
0010
1000
0010
0001
0010
1000
0010
,
0100
1000
0010
0001
0010
1000
0010
0001
,
0010
1000
0100
0010
0100
1000
0000
0010
,
0000
0001
0010
1000
0100
0000
0001
0000
,
1001
0001
0010
1000
1001
1000
0010
0001
,
1001
0001
0010
1000
0000
1000
0010
0001
,
0100
1000
0100
0001
0100
1000
0100
0001
,
0010
1000
0010
0001
0010
0000
1000
0000
,
0100
0001
0100
1000
0001
0100
1000
0100
,
0001
0010
1000
0010
0001
0000
0100
0000
,
1000
0000
1001
0000
0000
0000
0000
1000
,
0010
0100
1000
0001
0000
0000
0010
0000
,
1000
0100
0000
0000
0001
0100
0000
0000
1000
0000
0010
0000
0100
0000
0000
0000
,
0001
0000
0100
0000
1000
0000
0000
0000
0100
0001
0000
0010
0100
0000
0000
0000
,
0001
0100
0000
0000
1000
0100
0000
0000
0001
0000
0010
0000
0100
0000
0000
0000
,
1000
0000
0010
0000
0100
0000
0000
0000
1000
0100
0000
0010
0100
0000
0000
0000
,
0001
0100
0000
0000
1000
0100
0000
0000
0010
0000
1000
0000
0100
0000
0000
0000
,
0001
0000
0100
0000
1000
0000
0000
0000
0010
0100
0000
0001
1000
0000
0000
0000
,
1000
0100
0000
0000
0001
0100
0000
0000
0010
0000
0001
0000
0100
0000
0000
0000
,
1001
0100
0010
0000
0110
0001
1000
0000
,
1001
0010
0100
0000
0110
1000
0001
0000
,
1000
0100
0001
0100
1000
0100
0001
0100
,
1000
0010
0001
0010
1000
0010
0001
0010
,
1000
0100
0010
0100
1000
0001
0000
0010
,
0000
0001
0100
1000
0010
0000
0001
0000
,
1001
1000
0100
0001
1001
0001
0100
1000
,
1001
1000
0010
0001
0000
0010
1000
0000
,
0001
0100
1000
0100
0001
0010
1000
0010
,
0001
1000
0100
0001
0100
0000
1000
0000
,
0010
0001
0010
1000
0100
0001
0100
1000
,
0010
0001
0010
1000
0100
0000
0001
0000
,
0010
0000
1001
0000
0000
0000
0000
1000
,
0001
0010
0100
0001
0000
0000
1000
0000
,
0001
0100
0000
0000
1000
0100
0000
0000
0010
0000
1000
0000
0100
0000
0000
0000
,
0001
0000
0100
0000
1000
0000
0000
0000
0001
0100
0000
0010
0100
0000
0000
0000
,
1000
0100
0000
0000
0001
0100
0000
0000
0010
0000
0001
0000
0100
0000
0000
0000
,
1000
0000
0100
0000
0001
0000
0000
0000
1000
0001
0000
0100
0010
0000
0000
0000
,
1000
0010
0000
0000
0010
0001
0000
0000
1000
0000
0100
0000
0001
0000
0000
0000
,
0001
0000
0100
0000
1000
0000
0000
0000
1000
0010
0000
0100
0010
0000
0000
0000
,
0001
0010
0000
0000
0010
1000
0000
0000
0001
0000
0100
0000
1000
0000
0000
0000
,
0110
1000
0100
0000
1001
0010
0001
0000
,
0110
0001
0010
0000
1001
0010
1000
0000
,
0001
0100
1000
0100
0001
0100
1000
0100
,
0001
0010
1000
0010
0001
0010
1000
0010
,
0001
0100
0010
0001
0010
0100
0000
0001
,
0000
1000
0010
0001
0100
0000
1000
0000
,
1001
0001
0010
1000
1001
1000
0010
0001
,
1001
0001
0100
1000
0000
0010
0100
0000
;

//---------------dance-single - Copied from Copied f----------------
#NOTES:
     dance-single:
     Copied from Copied f:
     Challenge:
     10:
     0.945,0.869,0.568,0.000,0.807: // measure 1
1000
0000
0010
0000
0100
0010
0100
0000
0001
0000
0010
0000
0100
0000
1000
0000
,  // measure 2
0010
0100
0010
0100
0010
0000
0000
0000
0000
0000
0000
0000
1000
0000
0001
0000
,  // measure 3
0110
0001
1000
0100
1001
0010
0001
0100
,  // measure 4
0011
0000
1000
0000
0010
0000
0100
0000
1010
0000
1000
0000
0010
0000
1000
0001
,  // measure 5
1000
0000
0010
0000
0100
0010
0100
0000
0001
0010
0001
0000
1000
0100
1000
0100
,  // measure 6
0010
0000
0100
1000
0100
0000
1000
0000
0001
0000
0010
0001
0010
0000
0001
0000
,  // measure 7
0100
0000
0010
1000
0010
0000
0100
0001
0010
0100
1000
0000
0010
0000
0100
0000
,  // measure 8
0001
1000
1100
0001
0101
0000
0011
0000
,  // measure 9
1010
0000
0001
0000
1000
0010
0100
0000
1100
0000
1000
0000
0001
0100
0010
0000
,  // measure 10
0101
0000
0001
0000
1000
0010
0100
0000
0000
0001
0010
0100
1000
0000
0010
0100
,  // measure 11
0001
0000
1000
0000
0010
0100
0010
0000
1000
0100
1000
0000
0010
0001
0010
0001
,  // measure 12
0100
0000
0010
1000
0100
0000
1000
0000
0010
0000
0100
0000
0001
0000
0000
0000
,  // measure 13
1000
0000
0100
0001
0100
0000
1000
0000
0001
0000
0100
1000
0100
0000
0001
0000
,  // measure 14
1000
0000
0100
0001
0100
0000
0001
0000
0100
0000
0000
0000
1100
0000
0000
0000
,  // measure 15
1010
0000
0000
0000
0011
0000
0000
0000
0000
0000
0000
0000
0000
0000
0001
0010
,  // measure 16
0100
1000
0010
0110
0000
0000
0000
0000
,  // measure 17
1000
0010
0000
0010
0001
0000
1000
0000
0001
0010
0000
1000
0001
0000
0010
0000
,  // measure 18
0100
1000
0010
0000
0100
0000
0010
0000
0001
0010
0000
0010
1000
0000
0000
0000
,  // measure 19
0001
0010
0000
0010
1000
0000
0001
0000
1000
0010
0000
1000
0001
0000
0100
0000
,  // measure 20
0101
0000
1001
0000
1100
0000
0000
0000
1000
0010
0000
0010
0001
0000
0000
0000
,  // measure 21
1000
0100
0000
0100
0001
0000
1000
0000
0001
0100
0000
0001
1000
0000
0010
0100
,  // measure 22
0001
0000
0010
0000
0100
0000
0010
0000
0001
0010
0000
0010
1000
0000
0000
0000
,  // measure 23
0001
0100
0000
0100
1000
0000
0001
0000
1000
0100
0000
1000
0001
0000
0100
0000
,  // measure 24
1100
1000
0101
0000
0011
0001
1010
0000
,  // measure 25
1100
0000
0010
0000
0101
0000
0001
0000
0000
1000
0010
0100
0001
0000
0001
1000
,  // measure 26
0010
0000
0100
0000
0010
0100
0001
0000
1000
0100
0010
0000
0001
0010
0100
1000
,  // measure 27
0010
0000
0100
0010
1000
0000
0001
0000
1000
0000
0100
1000
0010
0000
1000
0000
,  // measure 28
0010
0000
0100
0001
0100
0000
0010
1000
0100
0010
0001
0000
0100
0000
0010
0000
,  // measure 29
1000
0001
0011
1000
1010
0000
1100
0000
,  // measure 30
0101
0000
1000
0000
0001
0100
0010
0000
0011
0000
0001
0000
1000
0010
0100
0000
,  // measure 31
1010
0000
1000
0000
0001
0100
0010
0000
0000
1000
0100
0010
0001
0000
0100
0010
,  // measure 32
1000
0000
0001
0000
0100
0010
1000
0000
0001
0010
0100
0000
0100
1000
0010
0100
,  // measure 33
0001
0000
0010
0001
0100
0000
0001
0000
0100
0000
0010
0000
1000
0000
0000
0000
,  // measure 34
0001
0000
0010
1000
0010
0000
0001
0000
1000
0000
0010
0001
0010
0000
1000
0000
,  // measure 35
0001
0000
0010
1000
0010
0000
1000
0000
0010
0000
0000
0000
0011
0000
0000
0000
,  // measure 36
0101
0000
0000
0000
1100
0000
0000
0000
0000
0000
0000
0000
0000
0000
1000
0100
,  // measure 37
0010
0001
0100
0110
0000
0000
0000
0000
,  // measure 38
0001
0100
0000
0100
1000
0000
0001
0000
1000
0100
0000
0001
1000
0000
0100
0000
,  // measure 39
0010
0001
0100
0000
0010
0000
0100
0000
1000
0100
0000
0100
0001
0000
0000
0000
,  // measure 40
1000
0100
0000
0100
0001
0000
1000
0000
0001
0100
0000
0001
1000
0000
0010
0000
,  // measure 41
1010
0000
1001
0000
0011
0000
0000
0000
0001
0100
0000
0100
1000
0000
0000
0000
,  // measure 42
0001
0010
0000
0010
1000
0000
0001
0000
1000
0010
0000
1000
0001
0000
0100
0010
,  // measure 43
1000
0000
0100
0000
0010
0000
0100
0000
1000
0100
0000
0100
0001
0000
0000
0000
,  // measure 44
1000
0010
0000
0010
0001
0000
1000
0000
0001
0010
0000
0001
1000
0000
0010
0000
,  // measure 45
0011
0001
1010
0000
1100
1000
0101
0000
,  // measure 46
0011
0000
0100
0000
1010
0000
0001
0000
0000
1000
0010
0100
0001
0000
0010
0001
,  // measure 47
0100
0000
0010
1000
0100
0000
0010
0001
1000
0010
0100
0000
0010
0100
1000
0010
,  // measure 48
0100
0000
0001
0010
0001
0000
1000
0010
0100
0000
0001
0010
0100
0000
1000
0010
,  // measure 49
0100
0000
0001
1000
0100
0000
0010
0001
0010
0001
0100
0000
0010
1000
0100
0000
,  // measure 50
1000
0001
0010
0000
0100
0000
1000
0000
1100
0000
0000
0000
1010
0000
0000
0000
,  // measure 51
0010
0000
0001
0000
0100
1000
0100
0000
0001
0000
0010
0000
1000
0001
1000
0000
,  // measure 52
0010
0000
0001
0000
0100
1000
0100
0000
0000
0001
0010
1000
0010
0000
0000
0000
;
