#TITLE:Assault from the evil world;
#SUBTITLE:(Impetuth Boss Theme);
#ARTIST:Shoichiro Sakamoto;
#TITLETRANSLIT:;
#SUBTITLETRANSLIT:;
#ARTISTTRANSLIT:;
#CREDIT:;
#BANNER:Assault from the evil world_bn.png;
#BACKGROUND:Assault from the evil world_bg.png;
#LYRICSPATH:;
#CDTITLE:;
#MUSIC:Assault from the evil world.mp3;
#OFFSET:-0.670;
#SAMPLESTART:18.340;
#SAMPLELENGTH:17.100;
#SELECTABLE:YES;
#BPMS:0.000=224.001,196.000=112.000,212.000=56.000,220.000=224.001;
#STOPS:;
#BGCHANGES:;

//---------------dance-single - ----------------
#NOTES:
     dance-single:
     :
     Beginner:
     3:
     0.193,0.374,0.046,0.009,0.000:
0000
0000
0000
0000
,
1000
0000
0000
0010
,
0000
0000
1000
0000
,
0001
0000
0000
0010
,
0000
0000
0001
0000
,
0100
0000
0000
0010
,
0000
0000
1000
0000
,
0001
0000
0000
0100
,
0000
0000
0010
0000
,
1000
0000
0000
0000
,
0001
0000
0001
0000
,
0001
0000
0000
0000
,
0100
0000
0100
0000
,
0100
0000
0000
0000
,
0010
0000
0010
0000
,
0010
0000
0000
0000
,
1000
0000
0001
0000
,
1000
0000
0000
0000
,
0001
0000
0001
0000
,
1000
0000
0001
0000
,
1000
0000
0000
0000
,
0010
0000
0100
0000
,
0010
0000
0100
0000
,
0010
0000
0000
0000
,
0000
0000
0000
0000
,
1000
0000
0000
0000
,
0001
0000
1000
0000
,
1000
0000
0001
0000
,
1000
0000
0000
0000
,
0001
0000
0100
0000
,
0001
0000
0100
0000
,
0010
0000
0000
0000
,
1000
0000
0000
0000
,
0001
0000
0000
0100
,
0000
0000
0001
0000
,
1000
0000
0000
0100
,
0000
0000
1000
0000
,
0001
0000
0000
0010
,
0000
0000
0001
0000
,
1000
0000
0000
0010
,
0000
0000
0100
0000
,
0110
0000
0000
0010
,
0000
0000
1000
0000
,
1001
0000
0000
0001
,
0000
0000
1000
0000
,
1010
0000
0000
0010
,
0000
0000
0100
0000
,
0101
0000
0000
1001
,
0000
0000
1000
0000
,
0010
0000
1000
0000
,
0001
0000
0010
0000
,
0100
0000
1000
0000
,
0001
0000
0100
0000
,
0010
1000
0100
0010
,
0001
1000
0001
1000
0001
1000
0001
0000
,
1000
0000
0000
0000
,
0010
0000
0000
0000
,
0100
0000
0000
0000
,
0001
0000
1000
0000
,
0001
0000
0000
0000
,
0100
0000
0000
0000
,
0010
0000
0000
0000
,
1000
0000
0001
0000
,
1000
0000
0000
0000
,
0010
0000
0000
0000
,
0100
0000
0000
0000
,
0001
0000
0000
0000
,
1000
0000
0010
0000
,
1000
0000
0001
0000
,
0010
0000
0000
0000
,
0001
0000
1000
0000
,
0010
0000
0000
1000
,
0000
0000
0001
0000
,
0010
0000
0000
0001
,
0000
0000
0100
0000
,
0010
0000
0000
1000
,
0000
0000
0100
0000
,
0010
0000
0000
0001
,
0000
0000
0100
0000
,
0010
0000
1000
0000
,
0100
0000
0010
0000
,
0001
0000
0100
0000
,
0010
0000
1000
1000
,
1000
0000
0001
0000
,
0100
0000
0010
0000
,
1000
0000
0001
0000
,
0100
0000
0010
0010
,
0020
0000
0000
0000
,
0000
0000
0000
0000
,
0000
0000
0000
0000
,
0000
0000
0000
0000
,
0030
0000
0000
0000
;

//---------------dance-single - Copied from----------------
#NOTES:
     dance-single:
     Copied from:
     Medium:
     8:
     0.646,0.997,0.375,0.365,0.082:
0000
0000
0000
0000
,
0011
0001
0100
0010
,
1000
0100
0010
1001
,
1001
0001
1000
0010
,
0100
0001
0010
1001
,
1001
1000
0010
0100
,
0001
0010
0100
1001
,
1001
0010
0100
0110
,
0010
1000
1001
0001
,
0010
0001
0100
0010
,
1000
0100
0010
0011
,
0011
0001
0100
0010
,
1000
0000
0100
0000
1000
0001
1000
0001
,
0010
0001
1000
0010
,
0100
0001
0010
0100
,
1100
1000
0001
0100
,
0101
0000
0101
0000
0001
1000
0001
1000
,
0020
0000
0100
0000
0100
0000
0100
0030
,
0010
0000
1000
0001
0000
0010
0001
0000
,
1000
0000
0010
0100
0000
0000
0001
1000
,
0002
0000
0100
0000
0100
0003
1000
0010
,
1000
0000
0001
0020
0000
0000
0031
0000
,
1000
0000
0010
2000
0000
0000
3001
0000
,
0020
0001
0001
0001
,
0001
0000
0031
0000
1000
0001
1000
0001
,
0200
0000
0010
0000
0010
0000
0010
0300
,
0100
0000
0001
1000
0000
0100
1000
0000
,
0001
0000
0100
0010
0000
0000
1000
0001
,
2000
0000
0010
0000
0010
3000
0001
0100
,
0001
0000
1000
0200
0000
0000
1300
0000
,
0001
0000
0100
0002
0000
0000
1003
0000
,
0200
0000
1000
0000
1000
0300
1000
0001
,
0020
0000
0001
0000
0031
0000
0001
1000
,
0010
0000
1000
0001
0000
0001
1000
0000
,
0010
0100
0000
0100
0010
0000
1000
0000
,
1001
0000
0001
0010
0000
0010
0001
0000
,
1000
0010
0000
0010
1000
0000
0001
0000
,
1001
0000
1000
0010
0000
0010
0100
0000
,
0100
0001
0000
0001
0010
0000
0100
0000
,
1001
1000
0010
0110
,
0100
0000
0001
0000
1000
0001
1000
0001
,
0010
0000
0001
0100
0000
0100
0010
0000
,
0010
1000
0000
1000
0001
1000
0001
0000
,
1000
0000
0010
0100
0000
0100
0001
0000
,
0001
0010
0000
0010
0001
0010
0001
0000
,
1000
0000
0010
1000
0000
1000
0001
0000
,
0010
0001
0000
0001
0100
0010
0100
0000
,
0110
0010
1000
0100
,
0110
0000
0010
0000
0001
1000
0001
1000
,
0010
0000
0000
0000
0100
0000
0000
0000
0001
0000
0000
0010
0000
0000
0001
0000
,
1000
0000
0000
0010
0000
0000
0100
0010
0200
0000
0000
0000
0000
0000
0310
1000
,
0001
0000
0000
0010
0000
0000
0001
0000
1000
0000
0000
0010
0000
0000
1000
0000
,
0200
0000
0000
0000
0000
0000
0000
0000
0320
0000
0000
0000
0031
1000
0001
1000
,
0020
0230
0302
2003
,
3010
0000
1000
0000
0010
0000
1000
0000
0001
0000
0010
0000
0001
0000
0010
0000
0100
0000
1000
0000
0010
0000
0100
0000
0001
0000
1000
0000
0001
1000
0001
1000
,
0010
1000
0100
0010
,
0011
0000
0001
0200
0000
0000
0310
0000
,
1010
0000
1000
0200
0000
0000
0310
0001
,
0020
0000
0000
0000
0000
0000
0031
1000
,
0002
0000
0000
0203
0000
0000
0320
0000
,
2030
0000
0000
3200
0000
0000
0320
0000
,
0032
0010
0010
0010
,
0010
0000
0013
0000
0001
1000
0001
1000
,
0020
0000
1000
0000
1000
0000
1000
0030
,
1010
0000
1000
0100
0000
0100
0010
0000
,
0011
0000
0001
0200
0000
0000
0310
0000
,
2000
0000
0001
0000
0001
0000
3001
1000
,
0020
0000
0000
0230
0000
0000
0302
0000
,
2003
0000
0000
3020
0000
0000
0230
0000
,
0302
0000
1000
0000
1000
0003
1000
0001
,
0020
0000
0001
0000
0001
0030
0001
1000
,
0010
0000
1000
0001
0000
0010
0001
0000
,
1000
0010
0000
1000
0100
0000
1100
0000
,
1001
0000
0001
0010
0000
0001
0100
0000
,
0010
1000
0000
1000
0100
0000
1100
0000
,
0011
0000
0001
0100
0000
0010
1000
0000
,
0100
0010
0000
0001
0100
0000
0101
0000
,
1010
0000
1000
0010
0000
0100
0001
0000
,
0010
0001
0000
1000
0010
0000
1010
0000
,
1001
0001
0100
0110
,
0010
1000
1001
0011
,
0011
0001
0100
0110
,
0010
0000
1000
0000
1000
0001
1000
0001
,
0010
0001
0100
0110
,
0010
1000
0100
0011
,
1010
1000
0010
0110
,
0100
0000
0001
0000
0010
0100
1000
0001
,
0200
0000
0000
0000
,
0000
0000
0000
0000
,
0000
0000
0000
0000
,
0000
0000
0000
0000
,
0300
0000
0000
0000
;

//---------------dance-single - Copied from----------------
#NOTES:
     dance-single:
     Copied from:
     Easy:
     5:
     0.414,0.499,0.420,0.393,0.005: // measure 1
0000
0000
0000
0000
,  // measure 2
1000
0000
0000
0010
0000
0000
1000
0000
,  // measure 3
0000
0001
0000
0000
0010
0000
0011
0000
,  // measure 4
0011
0000
0000
0001
0000
0000
1000
0000
,  // measure 5
0000
0010
0000
0000
1000
0000
1100
0000
,  // measure 6
1100
0000
0000
1000
0000
0000
0010
0000
,  // measure 7
0000
1000
0000
0000
0001
0000
0101
0000
,  // measure 8
0101
0000
0000
1001
,  // measure 9
0000
0000
1010
0000
,  // measure 10
0001
0000
0000
0100
0000
0000
0010
0000
,  // measure 11
0000
1000
0000
0000
0100
0000
1100
0000
,  // measure 12
1001
0000
0000
1000
0000
0000
0010
0000
,  // measure 13
0000
0100
0000
0000
0001
0000
0101
0000
,  // measure 14
1001
0000
0000
1000
0000
0000
0010
0000
,  // measure 15
0000
0100
0000
0000
0001
0000
1001
0000
,  // measure 16
1010
0000
0000
1001
,  // measure 17
0000
0000
1000
0001
,  // measure 18
0020
0000
0000
0000
,  // measure 19
0031
0000
0000
0100
0000
0000
0010
0000
,  // measure 20
1000
0000
0000
0001
0000
0000
0010
0000
,  // measure 21
0002
0000
0003
1000
,  // measure 22
0020
0000
0000
0230
0000
0000
0320
0000
,  // measure 23
2030
0000
0000
3002
0000
0000
2003
0000
,  // measure 24
3020
0000
0000
0000
,  // measure 25
0000
0030
0100
0010
,  // measure 26
2000
0000
0000
0000
,  // measure 27
3010
0000
0000
1000
0000
0000
0001
0000
,  // measure 28
0010
0000
0000
0001
0000
0000
0100
0000
,  // measure 29
0020
0000
0030
1000
,  // measure 30
0002
0000
0000
0023
0000
0000
0032
0000
,  // measure 31
2003
0000
0000
3020
0000
0000
2030
0000
,  // measure 32
3200
0000
0000
0000
,  // measure 33
0320
0000
0000
0000
,  // measure 34
0031
0000
0000
1000
0000
0000
0010
0000
,  // measure 35
0000
1000
0000
0000
0001
0000
0011
0000
,  // measure 36
0011
0000
0000
0010
0000
0000
0001
0000
,  // measure 37
0000
0100
0000
0000
0010
0000
1010
0000
,  // measure 38
1010
0000
0000
1000
0000
0000
0010
0000
,  // measure 39
0000
0100
0000
0000
0001
0000
1001
0000
,  // measure 40
1001
0000
0000
1010
,  // measure 41
0000
0000
0011
0000
,  // measure 42
0001
0000
0000
0100
0000
0000
0010
0000
,  // measure 43
0000
1000
0000
0000
0100
0000
1100
0000
,  // measure 44
1001
0000
0000
1000
0000
0000
0010
0000
,  // measure 45
0000
0100
0000
0000
0001
0000
0011
0000
,  // measure 46
1001
0000
0000
0001
0000
0000
0100
0000
,  // measure 47
0000
0010
0000
0000
1000
0000
1010
0000
,  // measure 48
1001
0000
0000
0011
,  // measure 49
0000
0000
0001
1000
,  // measure 50
0002
0000
0013
0001
,  // measure 51
0100
0010
2000
0000
,  // measure 52
3010
0100
0001
1000
,  // measure 53
0020
0000
0230
0010
,  // measure 54
0310
1000
0001
0010
,  // measure 55
0001
0000
0100
0000
0010
0000
1000
0000
0100
0000
0010
0000
0001
0000
1000
0001
,  // measure 56
2000
0000
0000
0000
,  // measure 57
3010
0000
0000
1000
0000
0000
0001
0000
,  // measure 58
0010
0000
0000
0001
0000
0000
1000
0000
,  // measure 59
0002
0000
0003
0010
,  // measure 60
0002
0000
0000
0203
0000
0000
0302
0000
,  // measure 61
2003
0000
0000
3200
0000
0000
2300
0000
,  // measure 62
3020
0000
0000
0000
,  // measure 63
0000
0030
0010
0100
,  // measure 64
0002
0000
0000
0000
,  // measure 65
1003
0000
0000
0010
0000
0000
1000
0000
,  // measure 66
0001
0000
0000
0010
0000
0000
0001
0000
,  // measure 67
0200
0000
0300
0010
,  // measure 68
2000
0000
0000
3020
0000
0030
2000
0000
,  // measure 69
3002
0000
0000
0023
0000
0000
0032
0000
,  // measure 70
0203
0000
0000
0301
,  // measure 71
0020
0000
0000
0130
,  // measure 72
1000
0000
0000
0010
0000
0000
0100
0000
,  // measure 73
0000
0001
0000
0000
0010
0000
0110
0000
,  // measure 74
0110
0000
0000
0100
0000
0000
1000
0000
,  // measure 75
0000
0010
0000
0000
0100
0000
0101
0000
,  // measure 76
0101
0000
0000
0001
0000
0000
1000
0000
,  // measure 77
0000
0010
0000
0000
1000
0000
1010
0000
,  // measure 78
1010
0000
0000
1001
,  // measure 79
0000
0000
0011
0000
,  // measure 80
0001
0000
0000
0100
0000
0000
0010
0000
,  // measure 81
0000
1000
0000
0000
0100
0000
0110
0000
,  // measure 82
0011
0000
0000
0001
0000
0000
0100
0000
,  // measure 83
0000
0010
0000
0000
1000
0000
1010
0000
,  // measure 84
0011
0000
0000
0001
0000
0000
1000
0000
,  // measure 85
0000
0010
0000
0000
0100
0000
0101
0000
,  // measure 86
1100
0000
0000
1010
,  // measure 87
0000
0000
0011
0001
,  // measure 88
0200
0000
0000
0000
,  // measure 89
0000
0000
0000
0000
,  // measure 90
0000
0000
0000
0000
,  // measure 91
0000
0000
0000
0000
,  // measure 92
0300
0000
0000
0000
;

//---------------dance-single - Copied from Copied f----------------
#NOTES:
     dance-single:
     Copied from Copied f:
     Hard:
     10:
     0.878,1.000,0.630,0.283,0.123:
0000
0000
0000
0000
,
0001
0100
0001
1000
0100
1000
0010
1000
,
0010
0100
0001
0100
0001
0010
0100
0000
,
0M10
0001
0010
0001
1000
0001
1000
0010
,
1000
0001
1000
0001
1000
0100
0010
0000
,
00M1
1000
0001
1000
0010
1000
0100
1000
,
0100
0010
0001
0010
0100
1000
0010
0000
,
01M0
0001
0100
0001
1000
0001
1000
0010
,
1000
0001
0010
0001
1000
0010
0100
0000
,
0M01
0100
0010
1000
0100
1000
0010
0100
,
0001
0010
0001
0010
0100
1000
0001
M000
,
1001
1000
0010
0100
0001
0100
0001
0010
,
0100
1000
0010
1000
0010
0100
0001
0M00
,
0011
0001
0100
0010
1000
0010
1000
0100
,
0010
0001
0100
0001
0010
0100
1000
0M00
,
1010
0010
1000
0100
0010
0001
0010
0001
,
0100
0010
1000
00M0
1010
1000
1001
0010
,
0210
0000
0010
0000
1000
0000
0010
0300
,
0110
0000
0010
1000
0000
0100
0010
0000
,
0011
0000
0001
0200
0000
0000
0310
1000
,
0002
0000
1000
0000
0010
0003
1000
0010
,
0002
0000
0013
1000
0000
0100
0001
0000
,
0100
0000
1000
0010
0000
0001
0010
0000
,
2000
0100
0001
0100
,
0001
0000
3100
0000
1100
0100
1001
0010
,
0021
0000
0001
0000
0100
0000
0001
0030
,
0011
0000
0001
0100
0000
0010
1000
0000
,
1001
0000
1000
0020
0000
0000
0130
0001
,
0020
0000
1000
0000
0001
0030
0001
0100
,
1000
0000
0100
0001
0000
0010
0100
0000
,
2000
0000
3010
0001
0000
0010
0100
0000
,
0002
0000
0010
0000
1000
0003
0010
0001
,
2000
0000
0010
0000
0001
3000
1000
0010
,
0100
0100
0001
0010
0010
0001
0100
0100
,
0001
0010
0010
0001
0100
0010
1010
0000
,
10M0
1000
0010
0100
0100
0010
1000
1000
,
0010
0100
0100
0010
1000
0001
0011
0000
,
10M0
1000
0001
0010
0010
0001
1000
0010
,
0010
1000
0001
0010
0010
0001
0101
0000
,
1M01
0001
0100
0100
0010
1000
1001
0001
,
0010
0010
0001
0100
0110
0010
1001
0000
,
100M
0010
1000
0001
0010
0010
0001
0100
,
0001
1000
0010
0010
0100
0010
1010
0000
,
10M0
0010
1000
0001
0100
0100
0010
1000
,
0010
0100
0001
0001
0011
0010
1001
1000
,
1010
0010
1000
0001
0010
0010
0001
0100
,
0001
1000
0010
0010
0100
0001
1001
0000
,
101M
0010
1000
1001
0001
0010
0011
0001
,
1001
0010
0110
0000
01M0
0010
1000
0001
,
0010
00M0
0000
0000
0001
000M
0000
0000
0200
0000
0000
0010
0000
0000
1000
0000
,
0002
0000
0300
0010
0M00
0000
1003
0010
0002
0000
0000
0000
1000
0000
0013
1000
,
020M
0000
0000
1000
0000
0000
0001
0000
0020
0000
0300
0001
0M00
0000
0100
0000
,
2000
0000
0030
0000
00M1
0000
0000
0000
0010
0000
0000
0000
3001
0100
1000
0010
,
0200
0000
0000
0000
0000
0000
0000
0000
0310
0000
0M00
1000
0000
0000
0001
0000
0010
0000
0000
0100
0000
0000
1000
0000
0020
0000
0000
0000
0000
0000
0130
0001
,
0011
0000
1010
0000
1100
0000
0101
0000
1100
0000
1010
0000
0011
0000
0101
0000
0011
0000
1100
0000
1010
0000
0101
0000
0011
0000
1010
0000
1000
0100
0001
0100
,
0020
0000
0001
0000
0100
0000
0001
0030
,
0011
0000
0001
0100
0000
0010
1000
0000
,
1100
0000
1000
0020
0000
0000
0130
0001
,
2000
0000
0001
0000
0100
3000
0001
0100
,
2000
0000
3100
0001
0000
0010
1000
0000
,
0010
0000
0001
0100
0000
1000
0100
0000
,
0002
0010
1000
0010
,
1000
0000
0013
0000
0011
0010
1001
0100
,
1200
0000
1000
0000
0010
0000
1000
0300
,
1100
0000
1000
0010
0000
0100
0001
0000
,
1001
0000
0001
0200
0000
0000
0310
1000
,
0200
0000
0001
0000
1000
0300
1000
0010
,
0001
0000
0010
1000
0000
0100
0010
0000
,
0002
0000
0103
1000
0000
0100
0010
0000
,
2000
0000
0100
0000
0001
3000
0100
1000
,
0002
0000
0100
0000
1000
0003
0001
0100
,
0010
0010
1000
0100
0100
1000
0010
0010
,
1000
0100
0100
0010
0001
0100
0110
0000
,
01M0
0100
0001
0010
0001
0001
0100
0010
,
0100
0100
0001
0010
0100
1000
1100
0000
,
M001
0001
1000
0100
0100
1000
0010
0010
,
0100
0001
0001
0100
0010
1000
1010
0000
,
10M1
1000
0010
0010
0100
0001
1001
1000
,
0100
0100
1000
0010
0110
0100
1001
0000
,
M001
0100
0001
1000
0100
0100
1000
0010
,
1000
0001
0100
0100
0010
0100
0101
0000
,
0M01
0100
0001
1000
0010
0010
0100
0001
,
0100
0010
1000
1000
1100
0100
1001
0001
,
0101
0100
0001
1000
0100
0100
1000
0010
,
1000
0001
0100
0100
0010
1000
1001
0000
,
M101
0100
0001
1001
1000
0100
1100
1000
,
1001
0100
0110
0000
0M10
1000
0001
0010
,
0021
000M
0000
0000
,
0000
0000
0000
0000
,
0000
0000
0000
0000
,
0000
0000
0000
0000
,
0030
00M0
0000
0000
0000
0000
0000
0000
;
