#TITLE:Always Smiling (Stream Special);
#SUBTITLE:;
#ARTIST:From Tritsch-Tratsch-Polka;
#TITLETRANSLIT:;
#SUBTITLETRANSLIT:;
#ARTISTTRANSLIT:;
#CREDIT:;
#BANNER:Always Smiling.png;
#BACKGROUND:Always Smiling-bg.png;
#LYRICSPATH:;
#CDTITLE:./CDTITLES/Dance Dance Revolution Mario Mix.png;
#MUSIC:Always Smiling.mp3;
#OFFSET:1.600;
#SAMPLESTART:24.080;
#SAMPLELENGTH:15.000;
#SELECTABLE:YES;
#DISPLAYBPM:140.000;
#BPMS:0.000=140.003;
#STOPS:;
#BGCHANGES:;

//---------------dance-single - ----------------
#NOTES:
     dance-single:
     :
     Challenge:
     9:
     0.798,0.652,0.056,0.000,0.667: // measure 1
0000
0000
0000
0000
,  // measure 2
0001
0001
0001
0001
1000
0010
0100
0100
,  // measure 3
0010
1000
1000
1000
0001
0001
0001
1000
,  // measure 4
0001
0010
0001
0000
1000
0000
0100
0000
0100
0000
0010
0001
0000
0000
0100
0000
,  // measure 5
0010
0001
0010
0000
0001
0000
0010
0000
0100
0000
0100
1000
0000
0010
0000
0100
,  // measure 6
0001
0010
0001
0000
0100
0000
0010
0000
1000
0000
0100
0010
0000
0000
0001
0000
,  // measure 7
0010
0001
0010
0000
0001
0000
0010
0000
0100
0000
0100
1000
0000
0000
0010
0000
,  // measure 8
0100
0000
0001
0010
0001
0000
0010
0000
0100
0000
1000
0100
1000
0000
0010
0000
,  // measure 9
0100
0000
0001
0010
0001
0000
1000
0000
0100
1000
0100
0000
1000
0000
0010
0000
,  // measure 10
0100
0000
0001
0010
0001
0000
0100
0000
0010
0000
1000
0100
1000
0000
0010
0000
,  // measure 11
0100
0000
0001
1000
0001
0000
1000
0000
0001
1000
0001
0000
0100
0000
0001
0000
,  // measure 12
0010
0000
0100
1000
0100
0000
0010
0000
0001
0000
0010
0001
0010
0000
0001
0000
,  // measure 13
0100
0000
0010
1000
0010
0000
1000
0100
1000
0000
1000
0000
0001
0000
0001
0000
,  // measure 14
1000
0010
0100
0000
0100
0000
0100
0000
0001
0100
0010
0000
0010
0000
0010
0000
,  // measure 15
1000
0010
0100
0001
0001
0101
1010
0000
,  // measure 16
1000
0010
1000
0000
0010
0000
0010
0100
0010
0000
0100
0001
0100
0000
0001
0000
,  // measure 17
1000
0100
1000
0000
0010
0000
0010
0100
0010
0000
0100
0001
0100
0000
0001
0000
,  // measure 18
0010
0001
0010
0000
0100
0000
0100
1000
0100
0000
0010
0001
0010
0000
0001
0000
,  // measure 19
0010
0001
0010
0000
0100
0000
0100
1000
0100
0000
0010
0001
0010
0000
0001
0000
,  // measure 20
0001
0100
0001
0000
0100
0000
0100
0010
0100
0000
0010
1000
0010
0000
1000
0000
,  // measure 21
0001
0010
0001
0000
0100
0000
0100
0010
0100
0000
0010
1000
0010
0000
1000
0000
,  // measure 22
0100
1000
0100
0000
0010
0000
0010
0001
0010
0000
0100
1000
0100
0000
1000
0000
,  // measure 23
0100
1000
0100
0000
0010
0000
0010
0001
0010
0000
0100
1000
0100
0000
1000
0000
,  // measure 24
0100
1000
0100
0000
0010
0000
0001
0000
0100
0000
0100
0010
0000
0000
1000
0000
,  // measure 25
0100
1000
0100
0000
0010
0000
0001
0000
0100
0000
0100
0010
0000
0001
0000
0010
,  // measure 26
0001
0100
0001
0000
0010
0000
0001
0000
0100
0000
0100
0010
0000
0000
1000
0000
,  // measure 27
0001
0010
0001
0000
0010
0000
0001
0000
0100
0000
0100
0010
0000
0000
1000
0000
,  // measure 28
0010
0000
1000
0100
1000
0000
0100
0000
0010
0000
0001
0010
0001
0000
0100
0000
,  // measure 29
0010
0000
1000
0100
1000
0000
0001
0000
0010
0001
0010
0000
0001
0000
0100
0000
,  // measure 30
0010
0000
1000
0100
1000
0000
0010
0000
0100
0000
0001
0010
0001
0000
0100
0000
,  // measure 31
0010
0000
1000
0001
1000
0000
0001
0000
1000
0001
1000
0000
0010
0000
1000
0000
,  // measure 32
0100
0000
0010
0001
0010
0000
0100
0000
1000
0000
0100
1000
0100
0000
1000
0000
,  // measure 33
0010
0000
0100
0001
0100
0000
0001
0010
0001
0000
0001
0000
1000
0000
1000
0000
,  // measure 34
0001
0100
0010
0000
0010
0000
0010
0000
1000
0010
0100
0000
0100
0000
0100
0000
,  // measure 35
0001
0100
0010
1000
1000
1010
0101
0000
,  // measure 36
0001
0100
0001
0000
0100
0000
0100
0010
0100
0000
0010
1000
0010
0000
1000
0000
,  // measure 37
0001
0010
0001
0000
0100
0000
0100
0010
0100
0000
0010
1000
0010
0000
1000
0000
,  // measure 38
0100
1000
0100
0000
0010
0000
0010
0001
0010
0000
0100
1000
0100
0000
1000
0000
,  // measure 39
0100
1000
0100
0000
0010
0000
0010
0001
0010
0000
0100
1000
0100
0000
1000
0000
,  // measure 40
1000
0010
1000
0000
0010
0000
0010
0100
0010
0000
0100
0001
0100
0000
0001
0000
,  // measure 41
1000
0100
1000
0000
0010
0000
0010
0100
0010
0000
0100
0001
0100
0000
0001
0000
,  // measure 42
0010
0001
0010
0000
0100
0000
0100
1000
0100
0000
0010
0001
0010
0000
0001
0000
,  // measure 43
0010
0001
0010
0000
0100
0000
0100
1000
0100
0000
0010
0001
0010
0000
0001
0000
,  // measure 44
0010
0001
0010
0000
0100
0000
1000
0000
0010
0000
0010
0100
0000
0000
0001
0000
,  // measure 45
0010
0001
0010
0000
0100
0000
1000
0000
0010
0000
0010
0100
0000
1000
0000
0100
,  // measure 46
1000
0010
1000
0000
0100
0000
1000
0000
0010
0000
0010
0100
0000
0000
0001
0000
,  // measure 47
1000
0100
1000
0000
0100
0000
1000
0000
0010
0000
0010
0100
0000
0001
0000
0010
,  // measure 48
0001
0010
0100
0000
1000
0000
0100
0000
0010
0000
0010
0100
0000
0000
0010
0000
,  // measure 49
0001
0010
0001
0000
0100
0000
0010
0000
1000
0000
1000
0100
0000
1000
0000
0010
,  // measure 50
0100
0001
0100
0000
0001
0000
0010
0000
0100
0000
0100
0010
0000
0000
1000
0000
,  // measure 51
0010
0100
0001
0000
0010
0000
0100
0000
0100
0000
0100
0010
0000
1000
0000
0100
,  // measure 52
1100
0000
0000
0000
;
