#TITLE:Affective Crimson;
#SUBTITLE:;
#ARTIST:KEiNA;
#TITLETRANSLIT:;
#SUBTITLETRANSLIT:;
#ARTISTTRANSLIT:;
#CREDIT:;
#BANNER:Affective Crimson_bn.png;
#BACKGROUND:Affective Crimson_bg.png;
#LYRICSPATH:;
#CDTITLE:;
#MUSIC:Affective Crimson.mp3;
#OFFSET:-2.000;
#SAMPLESTART:14.180;
#SAMPLELENGTH:15.000;
#SELECTABLE:YES;
#BPMS:0.000=160.000,172.000=80.000,188.000=160.000;
#STOPS:;
#BGCHANGES:;

//---------------dance-single - ----------------
#NOTES:
     dance-single:
     :
     Hard:
     8:
     0.530,0.670,0.296,0.305,0.191: // measure 1
0000
0000
0000
0000
,  // measure 2
0000
0000
0000
0000
,  // measure 3
0000
0000
0000
0000
,  // measure 4
0000
0000
0000
0000
,  // measure 5
0000
0000
0000
0000
,  // measure 6
0000
0000
0000
0000
,  // measure 7
0000
0000
0000
0000
,  // measure 8
0100
0010
1000
0001
0100
0010
1000
0001
,  // measure 9
0100
0000
0010
0000
1000
0001
1000
0000
,  // measure 10
1010
0000
1000
0100
0000
0100
0001
0100
,  // measure 11
0000
0100
1000
0000
0001
0100
1000
0100
,  // measure 12
0000
0000
1000
0000
0000
0000
0100
0000
0010
0000
0000
1000
0000
0000
0100
0000
,  // measure 13
0010
0000
0000
0002
0000
0000
2003
0000
0000
0000
3001
0000
0010
0000
0001
0000
,  // measure 14
0100
0000
0001
0010
0000
0010
1000
0020
,  // measure 15
0000
0032
0000
0003
1000
0010
0001
0020
,  // measure 16
0000
0000
0000
0000
0030
0000
1000
0000
0001
0010
0000
0011
0000
0000
0001
0000
,  // measure 17
2000
0000
0000
3000
,  // measure 18
0001
0010
0200
0000
0310
0001
0200
0000
,  // measure 19
0310
1000
0200
0000
1300
0001
0200
0000
,  // measure 20
0310
0000
1000
0100
0000
1000
0000
0000
0001
0000
0010
0001
0000
0010
0000
0000
,  // measure 21
0001
0010
0200
0000
0310
0001
1000
0010
,  // measure 22
0100
0001
0020
0000
0130
1000
0020
0000
,  // measure 23
0130
0001
0010
0020
0000
0000
0000
0130
,  // measure 24
0100
1000
0020
0000
0130
0000
0001
0000
,  // measure 25
0010
0010
0020
0000
0130
0100
0200
0000
,  // measure 26
0301
0100
0010
1000
0001
0100
0010
1000
,  // measure 27
0001
0000
0000
0000
0010
0000
0000
0000
0001
1000
0000
0000
0001
0000
0010
0000
,  // measure 28
0001
0000
0000
0000
0010
0000
0000
0000
0001
1000
0000
0000
0001
0000
0010
0000
,  // measure 29
0001
0000
0000
0000
0010
0000
0000
0000
0001
1000
0000
0000
0001
0000
0010
0000
,  // measure 30
0002
0000
0000
0203
0000
0000
0310
0000
1010
0000
0000
1001
0000
0000
0000
0000
,  // measure 31
1000
0000
0000
0000
0100
0000
0000
0000
1000
0001
0000
0000
1000
0000
0100
0000
,  // measure 32
1000
0000
0000
0000
0100
0000
0000
0000
1000
0001
0000
0000
1000
0000
0100
0000
,  // measure 33
1000
0000
0100
0000
1000
0001
1000
0100
,  // measure 34
1000
0000
0000
0010
0000
0000
0100
0000
0001
0000
0000
0000
0010
0000
0000
0000
,  // measure 35
0021
0000
0001
0001
0000
0002
0030
1003
,  // measure 36
0020
0000
1000
1000
0000
1030
0000
0000
,  // measure 37
1001
0000
1000
0100
0000
1000
0010
0000
0000
0000
0000
0000
0100
0000
0010
0000
,  // measure 38
0100
0000
0000
0001
0000
0000
1000
0000
0010
0000
0000
0100
0000
0000
0001
0000
,  // measure 39
1001
0000
0010
0100
0000
0000
0100
0010
,  // measure 40
0110
0000
0000
0000
1000
0000
0001
0000
0000
0000
0000
0000
0100
0000
0010
0200
,  // measure 41
0000
0000
0000
0000
0300
0000
0000
0000
0010
0000
0000
0100
0000
0000
0001
0000
,  // measure 42
2000
0001
0001
0000
0010
0010
0010
0000
,  // measure 43
3001
0100
0010
1000
0001
0100
0010
1000
,  // measure 44
0002
0000
0000
0003
1000
0010
0100
0001
,  // measure 45
2000
0000
0000
3001
0000
0000
0000
0000
0100
0000
0010
0000
1000
0000
0001
0000
,  // measure 46
0020
0000
0000
0130
0000
0000
0000
0000
0000
0000
0000
0000
0010
0000
1000
0000
,  // measure 47
0001
0000
0000
0100
0000
0000
0001
0000
1000
0000
0000
0010
0000
0000
1000
0000
,  // measure 48
0001
0010
0001
0010
,  // measure 49
0100
1000
0100
1000
,  // measure 50
0010
0100
0010
0100
,  // measure 51
0001
1000
0001
0100
,  // measure 52
0110
0000
0000
0110
0000
0000
1000
0000
1001
0000
0000
1001
0000
0000
0001
0000
,  // measure 53
1001
0000
0000
1010
0000
0000
1000
0000
1001
0000
0000
0101
0000
0000
0001
0000
,  // measure 54
0011
0000
0000
1001
0000
0000
1000
0000
1010
0000
0000
1001
0000
0000
0001
0000
,  // measure 55
2001
0000
0000
0000
3200
0000
0000
0000
0310
0000
0001
0010
0000
0000
0001
0000
,  // measure 56
0101
0000
0001
0010
0000
0010
1000
0010
,  // measure 57
0000
0010
0001
0000
1000
0010
0001
0010
,  // measure 58
0000
0000
0000
0001
0000
0000
0000
0000
0000
1000
0000
0000
0010
0000
0000
0000
0100
0000
0000
0000
0000
0001
0000
0000
,  // measure 59
0011
0000
0000
0101
0000
0000
0011
0000
0000
0000
1000
0000
0100
0000
1000
0000
,  // measure 60
0010
0000
1000
0100
0000
0100
0001
0200
,  // measure 61
0000
1300
0001
0000
1000
0100
0001
0200
,  // measure 62
0000
0000
0000
0000
0300
0000
1000
0000
0010
0100
0000
0110
0000
0000
0010
0000
,  // measure 63
2000
0000
0000
0000
0000
0000
0000
0000
3001
0000
0100
0000
0010
0000
1000
0100
,  // measure 64
0000
1000
0020
0000
0130
0001
0020
0000
,  // measure 65
0031
0100
0010
1000
0001
0100
0020
0000
,  // measure 66
1030
0000
0001
0100
0000
0001
0010
0000
0000
0000
0000
0000
0001
0000
0100
0000
,  // measure 67
0110
0000
0000
0010
0000
0000
1000
0000
0001
0000
0000
1001
0000
0000
0000
0000
,  // measure 68
1010
0000
1000
0001
0000
0000
0010
0001
,  // measure 69
0101
0000
0001
1000
0000
0000
0010
1000
,  // measure 70
0002
1000
1000
0000
0100
0100
0100
0003
,  // measure 71
1001
0000
0000
0000
0000
0000
0000
0000
1010
0000
0000
1100
0000
0000
0101
0000
,  // measure 72
0011
0000
0001
0000
0100
0000
0010
0000
1000
0000
0100
0000
0010
0001
0010
0001
;

//---------------dance-single - ----------------
#NOTES:
     dance-single:
     :
     Easy:
     3:
     0.283,0.335,0.110,0.457,0.000:
0000
0000
0000
0000
,
0000
0000
0000
0000
,
0000
0000
0000
0000
,
0000
0000
0000
0000
,
0000
0000
0000
0000
,
0000
0000
0000
0000
,
0000
0000
0000
0000
,
0000
0000
0000
0000
,
0000
1000
0001
1000
,
0020
0000
0000
0100
0000
0100
0000
0100
,
0000
0130
0010
2000
,
0000
3001
0000
0000
0001
0000
1000
0000
,
0020
0000
0000
0130
0000
0000
0010
0000
,
2000
0000
0000
0001
0000
0001
0000
0001
,
0000
3001
0100
0020
,
0000
0030
1000
0001
,
2002
0000
3003
0000
,
2000
0000
3020
0000
,
0230
0000
0302
0000
,
1003
0100
1000
0100
,
0001
0100
0001
0100
,
0020
0000
2030
0000
,
3002
0000
0000
0020
0003
0000
0000
0000
,
0032
0000
1003
0001
,
2000
0000
0000
0000
,
3000
0000
0000
0000
,
0001
0100
0001
0000
,
0001
0100
0001
0000
,
0001
0100
0001
1000
,
0002
0000
0000
0000
2003
0000
0000
3000
,
1000
0010
1000
0000
,
1000
0010
1000
0000
,
1000
0010
1000
0001
,
2000
0000
0000
0000
3002
0000
0100
0003
,
0220
0000
0000
0000
0000
0000
0000
0330
,
2002
0000
0000
3003
0000
0000
0000
0000
,
0001
0202
0303
0100
,
0010
1000
0001
1000
,
0020
0000
0000
0130
0000
0000
0010
0000
,
2000
0000
0000
3001
0000
0000
0001
0000
,
0200
0000
0310
1000
,
2002
0000
0000
0000
,
3003
0000
0000
0000
,
2000
0000
3100
0010
,
0002
0000
0103
0010
,
2000
0000
3000
0001
,
0100
0010
1000
0001
,
2000
0000
0000
0000
,
3002
0000
0000
0000
,
0203
0000
0000
0000
,
0320
0000
0000
0000
2030
0000
0000
3000
,
1001
0000
0101
0000
,
1010
0000
1001
0000
,
1010
0000
0011
0000
,
1001
1000
0010
1000
,
0020
0000
0000
0100
0000
0100
0000
0100
,
0000
0130
0010
2000
,
0000
3001
0000
0000
0001
0000
1000
0000
,
0020
0000
0000
0130
0000
0000
0010
0000
,
2000
0000
0000
0001
0000
0001
0000
0001
,
0000
3001
0100
0020
,
0000
0030
1000
0001
,
2002
0000
0000
3003
0001
0000
1000
0000
,
0010
1000
0010
1000
,
0002
0000
0000
0203
0000
0000
0310
0000
,
1000
0001
0000
0100
,
0010
1000
0001
0100
,
0020
0000
0000
1030
0000
0000
0001
0000
,
0020
0000
0000
0031
0000
0000
1000
0000
,
0002
0000
0003
0000
,
0200
0000
0310
1000
,
0002
0000
0000
0000
0000
0000
0000
0003
;

//---------------dance-single - Copied from----------------
#NOTES:
     dance-single:
     Copied from:
     Challenge:
     10:
     0.708,0.883,0.584,0.483,0.474:
0000
0000
0000
0000
,
0000
0000
0000
0000
,
0000
0000
0000
0000
,
0000
0000
0000
0000
,
0000
0000
0000
0000
,
0000
0000
0000
0000
,
0000
0000
0000
0000
,
0001
0100
0001
0100
0010
1000
0010
1000
0100
0010
0100
0010
0001
0100
0001
0100
,
0010
0000
0000
0000
1000
0000
0000
0000
0001
0000
1000
0001
0000
0000
0010
0000
,
0011
0010
0001
0100
MMMM
0100
1000
0100
,
MMMM
0100
0001
MMMM
0001
0010
1000
0020
,
0000
0000
0032
0000
MMM0
0000
1003
0010
0100
0000
0000
0010
0000
0000
1000
0000
,
1010
0000
0000
1100
0000
0000
0101
0000
MMMM
0000
1000
0000
0001
0000
0010
0000
,
1010
0010
0001
0100
MMMM
0100
1000
0200
,
0000
0302
MMM0
0000
0013
1000
0010
0200
,
0000
0000
0000
0000
0000
0000
1300
0000
0010
0001
0000
1010
0000
0000
0010
0000
,
0002
0000
0003
MMMM
,
2000
0100
0001
0100
3002
0010
1000
0010
,
0203
0010
1000
0010
2300
0100
0001
3100
,
1010
0000
1000
0100
0000
0110
0000
0000
0011
0000
0001
0100
0000
0110
0000
0000
,
1010
0000
1000
0010
0000
0110
0000
0000
0011
0000
0001
0100
0000
0110
0000
0000
,
2000
0100
0001
0010
3002
0010
1000
0100
,
0023
0001
0100
2000
0130
0001
3010
0110
,
0210
0010
1000
0001
0320
0100
2030
0001
,
3010
1000
2200
3300
0010
0001
0202
0303
,
1000
0010
1000
0010
0100
0001
0100
0001
0010
0100
0010
0100
1000
0010
1000
0010
,
1000
0000
M000
0000
0010
0000
00M0
0000
1000
0020
M000
0000
1030
0000
M100
0000
,
0001
0000
000M
0000
0100
0000
0M00
0000
0001
0200
000M
0000
1300
0000
M010
0000
,
0001
0000
000M
0000
0010
0000
00M0
0000
0001
0020
000M
0000
0031
0000
0010
0000
,
2M00
0000
0000
320M
0000
M000
03M2
0000
0M10
0000
0003
101M
0000
0000
MMMM
0000
,
0001
0000
000M
0000
0100
0000
0M00
0000
0001
0200
000M
0000
0301
0000
001M
0000
,
1000
0000
M000
0000
0010
0000
00M0
0000
1000
0020
M000
0000
0031
0000
010M
0000
,
1000
M000
0100
0M00
1000
M100
0001
0010
,
02M0
0000
0000
2300
0000
0M0M
3010
0000
M2M0
0000
0000
M000
0310
0000
MMMM
0000
,
M11M
MMMM
MM1M
1MMM
MMMM
MMM1
MMMM
M1MM
,
MM1M
MMMM
1MMM
MMM1
MMMM
M1MM
MMMM
MMMM
,
0011
0000
0001
0010
0000
1000
0010
0000
MMMM
0000
0000
0000
0010
0000
0001
0000
,
0101
0000
0000
0011
0000
0000
0101
0000
0100
0000
0100
0000
0010
1000
0010
1000
,
0002
0000
0103
1200
0000
0000
1300
0100
,
0102
0000
0000
0000
0100
0000
2103
0000
0000
0000
0000
0000
3001
0000
0010
0001
,
0000
0000
MMMM
0000
0000
0000
MMMM
0000
1010
0000
0000
1100
0000
0000
1010
0000
,
1000
0001
1000
0001
0100
0001
0100
0001
0100
0010
0100
0010
1000
0010
1000
0010
,
0100
0001
0010
0100
1000
0100
0010
0001
0100
0010
1000
0010
0100
0001
0010
0100
,
0020
0000
0000
0000
0000
0000
0000
0000
0030
0000
00M0
00M0
0000
0000
0000
0000
1000
0000
0000
0000
M100
0000
0000
0000
0M01
0000
0000
0000
001M
0000
0000
0000
,
20M0
0000
0000
0011
0000
3000
M000
0000
0001
0000
010M
0000
1M00
0000
M010
0000
,
00M2
0000
0000
1010
0000
0003
000M
0000
0000
0000
0000
0000
1000
0000
0100
0000
,
0020
0000
0000
0000
0000
0000
0032
0000
00M0
0000
0000
0000
0203
0000
000M
0000
0310
1000
0010
1000
0010
0100
0010
0100
0001
0010
0001
0010
0100
1000
0100
1000
,
0001
000M
0100
0M00
0001
000M
0100
0M00
,
0010
00M0
1000
M000
0010
00M0
1000
M000
,
0001
000M
1000
M000
0001
000M
1000
M000
,
0010
00M0
0100
0M00
0001
000M
1000
M000
,
1100
0000
0000
0101
0000
0000
0011
0000
1010
0000
0000
1100
0000
0000
1010
0000
,
0011
0000
0000
1010
0000
0000
0011
0000
1100
0000
0000
0101
0000
0000
1100
0000
,
1010
0000
0000
0011
0000
0000
0101
0000
0011
0000
0000
1010
0000
0000
1100
0000
,
1001
0000
0000
0000
0001
0000
0000
0000
1000
0000
0001
1000
0000
0000
0100
0000
,
1100
0100
1000
0010
MMMM
0010
0001
0010
,
MMMM
0010
1000
MMMM
1000
0100
0001
0200
,
0000
0000
0000
0000
0000
0000
2300
0000
0000
0000
0000
0000
0000
0000
0000
0000
0000
0000
3001
0000
0000
0100
0000
0000
0010
0000
0000
0000
0000
0000
0000
0000
0100
0000
0000
0000
0000
0000
0000
0000
0000
0000
0001
0000
0000
0000
0000
0000
,
0101
0000
0000
0011
0000
0000
1010
0000
MMMM
0000
0001
0000
1000
0000
0100
0000
,
0101
0100
1000
0010
MMMM
0010
0001
0020
,
0000
1030
2MMM
0000
3100
0001
0100
0020
,
0000
0000
0000
0000
0000
0000
0031
0000
0100
1000
0000
0101
0000
0000
0100
0000
,
2000
0000
0000
0000
0000
0000
0000
0000
3001
0000
0010
0000
1010
0000
0010
0001
,
1000
0010
0100
0010
1000
0100
0001
0100
,
0020
0000
0001
0000
0100
0030
0002
0000
1000
0000
0010
0003
0200
0000
0000
0300
,
1010
0000
1000
0100
0000
0001
0100
0000
MMMM
0000
0000
0000
0010
0000
0001
0000
,
0101
0000
0000
0100
0000
0000
0010
0000
1010
0000
0000
1100
0000
0000
1010
0000
,
0011
0001
0100
1200
0000
1300
0100
0001
,
0011
0001
0010
2010
0000
3000
0010
0001
,
2000
0000
0010
0000
0002
3000
0100
0000
0020
0003
1000
0000
0230
0000
0001
0000
,
1300
0010
1000
0010
0100
0001
0100
0001
0010
0000
0000
0011
0000
0000
1010
0000
,
1000
0010
0100
0010
1000
0001
0010
0100
0010
0001
1000
0100
0010
0001
0100
0001
;

//---------------dance-single - Copied from----------------
#NOTES:
     dance-single:
     Copied from:
     Medium:
     6:
     0.422,0.487,0.025,0.212,0.119:
0000
0000
0000
0000
,
0000
0000
0000
0000
,
0000
0000
0000
0000
,
0000
0000
0000
0000
,
0000
0000
0000
0000
,
0000
0000
0000
0000
,
0000
0000
0000
0000
,
1000
0010
1000
0010
1000
0001
1000
0001
,
1000
0000
0001
0000
0100
0001
0100
0000
,
0010
0000
1000
0100
0000
0100
0000
0010
,
0000
0010
0001
0000
1000
0001
1000
0001
,
0000
0000
0100
0000
0000
0000
0100
0000
0010
0000
0000
1000
0000
0000
0001
0000
,
1000
0000
0000
0001
0000
0000
1000
0000
0000
0000
0000
0000
0001
0000
0100
0000
,
0001
0000
1000
0010
0000
0010
0000
0100
,
0000
0100
0001
0000
1000
0001
1000
0001
,
0000
0000
0000
0000
0000
0000
0100
0000
0010
0000
0000
1000
0000
0000
0001
0000
,
1001
0000
0000
0000
,
1000
0010
1000
0010
,
0100
0001
0100
0001
,
0010
0001
1000
0000
0001
1000
0010
0000
,
1000
0001
0100
0000
0001
1000
0010
0000
,
1000
0010
1000
0010
,
0100
0001
0100
0001
,
0010
0001
0100
0010
,
2000
0000
0000
0000
0000
0000
0000
3000
,
0001
0100
0001
0100
0001
1000
0001
1000
,
0001
0000
0100
0000
0001
0000
0100
0010
,
1000
0000
0010
0000
1000
0000
0010
1000
,
0001
0000
0010
0000
0001
0000
0010
0001
,
1000
0000
0000
0010
0000
0000
1000
0000
0001
0000
0000
1000
0000
0000
0000
0000
,
0010
0000
1000
0000
0010
0000
1000
0001
,
0010
0000
0001
0000
0010
0000
0001
1000
,
0010
0000
1000
0000
0010
1000
0010
1000
,
0001
0000
0000
0100
0000
0000
0001
0000
1000
0000
0000
0000
0010
0000
0000
0000
,
0220
0000
0000
0000
0000
0000
0330
2000
,
0002
0000
0000
3003
,
1000
0000
0000
0001
0000
0000
1000
0000
0000
0000
0000
0000
0010
0000
0100
0000
,
0010
0000
0000
1000
0000
0000
0001
0000
1000
0000
0000
0010
0000
0000
0100
0000
,
0020
0000
1030
0100
0000
0000
0100
0010
,
0002
0000
1003
0010
0000
0000
0010
1000
,
0200
0000
0000
0000
0310
0000
0000
0000
0001
0000
0000
1000
0000
0000
0001
0000
,
2000
0000
0000
0000
0000
0000
0000
3000
,
0010
1000
0010
1000
0010
0100
0010
0100
,
0010
0000
0000
0000
1000
0010
1000
0010
,
0100
0000
0000
0100
0000
0000
0000
0000
0001
0000
0010
0000
0001
0000
0010
0000
,
0100
0000
0000
0100
0000
0000
0000
0000
0000
0000
0000
0000
1000
0000
0010
0000
,
0100
0000
0000
0001
0000
0000
1000
0000
0010
0000
0000
0100
0000
0000
0001
0000
,
2000
0100
0100
0100
,
3002
0100
0100
0100
,
2003
0010
0010
0010
,
3002
0000
0100
0003
2000
0000
0100
3000
,
0001
0000
0000
0001
0000
0000
0001
0000
1000
0000
0000
1000
0000
0000
1000
0000
,
0010
0000
0000
0100
0000
0000
0010
0000
1000
0000
0000
0001
0000
0000
1000
0000
,
0001
0000
0000
0100
0000
0000
0010
0000
1000
0000
0000
0100
0000
0000
0010
0000
,
0001
0000
1000
0000
0010
1000
0010
0000
,
0100
0000
0001
0010
0000
0010
0100
0010
,
0000
0010
0001
0000
1000
0001
1000
0001
,
0000
0000
0100
0000
0000
0000
0100
0000
0010
0000
0000
1000
0000
0000
0001
0000
,
1000
0000
0000
0001
0000
0000
1000
0000
0000
0000
0000
0000
0001
0000
0100
0000
,
0001
0000
1000
0010
0000
0010
0100
0010
,
0000
0010
1000
0000
0001
1000
0001
2000
,
0000
0000
0000
0000
3000
0000
0001
0000
0100
0000
0000
0010
0000
0000
1000
0000
,
1010
0000
0000
0000
0000
0000
0000
0000
1000
0000
0010
0000
0100
0000
0010
2000
,
0000
0000
3001
0000
2000
0000
3100
1000
,
0020
0000
0000
0230
0000
0000
0301
0000
,
1000
0000
0000
1000
0000
0000
1000
0000
0000
0000
0000
0000
0001
0000
0100
0000
,
0010
0000
0000
1000
0000
0000
0001
0000
0010
0000
0000
0001
0000
0000
1000
0000
,
0010
0000
1000
0002
0000
0003
0010
0001
,
0200
0000
0310
2000
0000
3000
0100
0010
,
0001
0100
0020
0000
1030
0100
0020
0000
,
0032
0000
0000
0000
0103
0000
0000
0000
0010
0000
0000
1000
0000
0000
0001
0000
,
0010
0001
0100
0010
1000
0100
0010
0001
;
